  0
SECTION
  2
HEADER
  9
$ACADVER
  1
AC1021
  9
$ACADMAINTVER
 70
    25
  9
$DWGCODEPAGE
  3
ANSI_1252
  9
$INSBASE
 10
0.0
 20
0.0
 30
0.0
  9
$EXTMIN
 10
1197.609240745247
 20
3641.894367777601
 30
0.0
  9
$EXTMAX
 10
4044.41716789849
 20
5844.66561601487
 30
4.778888463973999
  9
$LIMMIN
 10
2113.058191518794
 20
3061.230831594971
  9
$LIMMAX
 10
2121.558191518794
 20
3072.230831594971
  9
$ORTHOMODE
 70
     0
  9
$REGENMODE
 70
     1
  9
$FILLMODE
 70
     1
  9
$QTEXTMODE
 70
     0
  9
$MIRRTEXT
 70
     0
  9
$LTSCALE
 40
1.0
  9
$ATTMODE
 70
     1
  9
$TEXTSIZE
 40
1.0
  9
$TRACEWID
 40
1.0
  9
$TEXTSTYLE
  7
Standard
  9
$CLAYER
  8
0
  9
$CELTYPE
  6
ByLayer
  9
$CECOLOR
 62
     7
  9
$CELTSCALE
 40
1.0
  9
$DISPSILH
 70
     0
  9
$DIMSCALE
 40
1.0
  9
$DIMASZ
 40
0.25
  9
$DIMEXO
 40
0.0625
  9
$DIMDLI
 40
0.375
  9
$DIMRND
 40
0.01
  9
$DIMDLE
 40
0.0
  9
$DIMEXE
 40
0.125
  9
$DIMTP
 40
0.0
  9
$DIMTM
 40
0.0
  9
$DIMTXT
 40
0.15
  9
$DIMCEN
 40
0.0
  9
$DIMTSZ
 40
0.0
  9
$DIMTOL
 70
     0
  9
$DIMLIM
 70
     0
  9
$DIMTIH
 70
     1
  9
$DIMTOH
 70
     0
  9
$DIMSE1
 70
     0
  9
$DIMSE2
 70
     0
  9
$DIMTAD
 70
     1
  9
$DIMZIN
 70
     1
  9
$DIMBLK
  1

  9
$DIMASO
 70
     1
  9
$DIMSHO
 70
     1
  9
$DIMPOST
  1
 "
  9
$DIMAPOST
  1
 "
  9
$DIMALT
 70
     0
  9
$DIMALTD
 70
     2
  9
$DIMALTF
 40
1.0
  9
$DIMLFAC
 40
1.0
  9
$DIMTOFL
 70
     1
  9
$DIMTVP
 40
0.0
  9
$DIMTIX
 70
     0
  9
$DIMSOXD
 70
     0
  9
$DIMSAH
 70
     0
  9
$DIMBLK1
  1

  9
$DIMBLK2
  1

  9
$DIMSTYLE
  2
Standard
  9
$DIMCLRD
 70
     0
  9
$DIMCLRE
 70
     0
  9
$DIMCLRT
 70
     0
  9
$DIMTFAC
 40
1.0
  9
$DIMGAP
 40
0.0625
  9
$DIMJUST
 70
     0
  9
$DIMSD1
 70
     0
  9
$DIMSD2
 70
     0
  9
$DIMTOLJ
 70
     1
  9
$DIMTZIN
 70
     0
  9
$DIMALTZ
 70
     0
  9
$DIMALTTZ
 70
     0
  9
$DIMUPT
 70
     0
  9
$DIMDEC
 70
     2
  9
$DIMTDEC
 70
     3
  9
$DIMALTU
 70
     2
  9
$DIMALTTD
 70
     2
  9
$DIMTXSTY
  7
Standard
  9
$DIMAUNIT
 70
     0
  9
$DIMADEC
 70
     2
  9
$DIMALTRND
 40
0.01
  9
$DIMAZIN
 70
     0
  9
$DIMDSEP
 70
     0
  9
$DIMATFIT
 70
     3
  9
$DIMFRAC
 70
     2
  9
$DIMLDRBLK
  1

  9
$DIMLUNIT
 70
     2
  9
$DIMLWD
 70
    -2
  9
$DIMLWE
 70
    -2
  9
$DIMTMOVE
 70
     0
  9
$DIMFXL
 40
1.0
  9
$DIMFXLON
 70
     0
  9
$DIMJOGANG
 40
0.7853981633974483
  9
$DIMTFILL
 70
     0
  9
$DIMTFILLCLR
 70
     7
  9
$DIMARCSYM
 70
     0
  9
$DIMLTYPE
  6
ByBlock
  9
$DIMLTEX1
  6
ByBlock
  9
$DIMLTEX2
  6
ByBlock
  9
$LUNITS
 70
     4
  9
$LUPREC
 70
     3
  9
$SKETCHINC
 40
1.0
  9
$FILLETRAD
 40
1.0
  9
$AUNITS
 70
     0
  9
$AUPREC
 70
     2
  9
$MENU
  1
.
  9
$ELEVATION
 40
0.0
  9
$PELEVATION
 40
0.0
  9
$THICKNESS
 40
0.0
  9
$LIMCHECK
 70
     0
  9
$CHAMFERA
 40
0.5
  9
$CHAMFERB
 40
0.5
  9
$CHAMFERC
 40
1.0
  9
$CHAMFERD
 40
0.0
  9
$SKPOLY
 70
     0
  9
$TDCREATE
 40
2459060.420263796
  9
$TDUCREATE
 40
2459060.711930463
  9
$TDUPDATE
 40
2459060.420263808
  9
$TDUUPDATE
 40
2459060.711930475
  9
$TDINDWG
 40
0.0
  9
$TDUSRTIMER
 40
0.0
  9
$USRTIMER
 70
     1
  9
$ANGBASE
 50
0.0
  9
$ANGDIR
 70
     0
  9
$PDMODE
 70
     0
  9
$PDSIZE
 40
0.0
  9
$PLINEWID
 40
0.0
  9
$SPLFRAME
 70
     0
  9
$SPLINETYPE
 70
     5
  9
$SPLINESEGS
 70
    20
  9
$HANDSEED
  5
571
  9
$SURFTAB1
 70
     6
  9
$SURFTAB2
 70
     6
  9
$SURFTYPE
 70
     6
  9
$SURFU
 70
     6
  9
$SURFV
 70
     6
  9
$UCSBASE
  2

  9
$UCSNAME
  2

  9
$UCSORG
 10
0.0
 20
0.0
 30
0.0
  9
$UCSXDIR
 10
1.0
 20
0.0
 30
0.0
  9
$UCSYDIR
 10
0.0
 20
1.0
 30
0.0
  9
$UCSORTHOREF
  2

  9
$UCSORTHOVIEW
 70
     0
  9
$UCSORGTOP
 10
0.0
 20
0.0
 30
0.0
  9
$UCSORGBOTTOM
 10
0.0
 20
0.0
 30
0.0
  9
$UCSORGLEFT
 10
0.0
 20
0.0
 30
0.0
  9
$UCSORGRIGHT
 10
0.0
 20
0.0
 30
0.0
  9
$UCSORGFRONT
 10
0.0
 20
0.0
 30
0.0
  9
$UCSORGBACK
 10
0.0
 20
0.0
 30
0.0
  9
$PUCSBASE
  2

  9
$PUCSNAME
  2

  9
$PUCSORG
 10
0.0
 20
0.0
 30
0.0
  9
$PUCSXDIR
 10
1.0
 20
0.0
 30
0.0
  9
$PUCSYDIR
 10
0.0
 20
1.0
 30
0.0
  9
$PUCSORTHOREF
  2

  9
$PUCSORTHOVIEW
 70
     0
  9
$PUCSORGTOP
 10
0.0
 20
0.0
 30
0.0
  9
$PUCSORGBOTTOM
 10
0.0
 20
0.0
 30
0.0
  9
$PUCSORGLEFT
 10
0.0
 20
0.0
 30
0.0
  9
$PUCSORGRIGHT
 10
0.0
 20
0.0
 30
0.0
  9
$PUCSORGFRONT
 10
0.0
 20
0.0
 30
0.0
  9
$PUCSORGBACK
 10
0.0
 20
0.0
 30
0.0
  9
$USERI1
 70
     0
  9
$USERI2
 70
     0
  9
$USERI3
 70
     0
  9
$USERI4
 70
     0
  9
$USERI5
 70
     0
  9
$USERR1
 40
0.0
  9
$USERR2
 40
0.0
  9
$USERR3
 40
0.0
  9
$USERR4
 40
0.0
  9
$USERR5
 40
0.0
  9
$WORLDVIEW
 70
     1
  9
$SHADEDGE
 70
     3
  9
$SHADEDIF
 70
    70
  9
$TILEMODE
 70
     1
  9
$MAXACTVP
 70
    64
  9
$PINSBASE
 10
0.0
 20
0.0
 30
0.0
  9
$PLIMCHECK
 70
     0
  9
$PEXTMIN
 10
0.0
 20
0.0
 30
0.0
  9
$PEXTMAX
 10
11.0
 20
8.5
 30
0.0
  9
$PLIMMIN
 10
0.0
 20
0.0
  9
$PLIMMAX
 10
11.0
 20
8.5
  9
$UNITMODE
 70
     0
  9
$VISRETAIN
 70
     1
  9
$PLINEGEN
 70
     0
  9
$PSLTSCALE
 70
     1
  9
$TREEDEPTH
 70
  3020
  9
$CMLSTYLE
  2
Standard
  9
$CMLJUST
 70
     0
  9
$CMLSCALE
 40
1.0
  9
$PROXYGRAPHICS
 70
     1
  9
$MEASUREMENT
 70
     0
  9
$CELWEIGHT
370
    -1
  9
$ENDCAPS
280
     0
  9
$JOINSTYLE
280
     0
  9
$LWDISPLAY
290
     0
  9
$INSUNITS
 70
     1
  9
$HYPERLINKBASE
  1

  9
$STYLESHEET
  1

  9
$XEDIT
290
     1
  9
$CEPSNTYPE
380
     0
  9
$PSTYLEMODE
290
     1
  9
$FINGERPRINTGUID
  2
{312F5DBA-44A2-4797-A1B0-A6E6D58C8EDA}
  9
$VERSIONGUID
  2
{FAEB1C32-E019-11D5-929B-00C0DF256EC4}
  9
$EXTNAMES
290
     1
  9
$PSVPSCALE
 40
0.0
  9
$OLESTARTUP
290
     0
  9
$SORTENTS
280
   127
  9
$INDEXCTL
280
     0
  9
$HIDETEXT
280
     1
  9
$XCLIPFRAME
290
     0
  9
$HALOGAP
280
     0
  9
$OBSCOLOR
 70
   257
  9
$OBSLTYPE
280
     0
  9
$INTERSECTIONDISPLAY
280
     0
  9
$INTERSECTIONCOLOR
 70
   257
  9
$DIMASSOC
280
     2
  9
$PROJECTNAME
  1

  9
$CAMERADISPLAY
290
     0
  9
$LENSLENGTH
 40
50.0
  9
$CAMERAHEIGHT
 40
0.0
  9
$STEPSPERSEC
 40
2.0
  9
$STEPSIZE
 40
6.0
  9
$3DDWFPREC
 40
2.0
  9
$PSOLWIDTH
 40
0.25
  9
$PSOLHEIGHT
 40
4.0
  9
$LOFTANG1
 40
1.570796326794897
  9
$LOFTANG2
 40
1.570796326794897
  9
$LOFTMAG1
 40
0.0
  9
$LOFTMAG2
 40
0.0
  9
$LOFTPARAM
 70
     7
  9
$LOFTNORMALS
280
     1
  9
$LATITUDE
 40
37.795
  9
$LONGITUDE
 40
-122.394
  9
$NORTHDIRECTION
 40
0.0
  9
$TIMEZONE
 70
 -8000
  9
$LIGHTGLYPHDISPLAY
280
     1
  9
$TILEMODELIGHTSYNCH
280
     1
  9
$SOLIDHIST
280
     1
  9
$SHOWHIST
280
     1
  9
$DWFFRAME
280
     2
  9
$DGNFRAME
280
     2
  9
$REALWORLDSCALE
290
     1
  9
$INTERFERECOLOR
 62
   256
  9
$CSHADOW
280
     0
  9
$SHADOWPLANELOCATION
 40
0.0
  0
ENDSEC
  0
SECTION
  2
CLASSES
  0
CLASS
  1
ACDBDICTIONARYWDFLT
  2
AcDbDictionaryWithDefault
  3
ObjectDBX Classes
 90
        0
 91
        4
280
     0
281
     0
  0
CLASS
  1
VISUALSTYLE
  2
AcDbVisualStyle
  3
ObjectDBX Classes
 90
     4095
 91
        4
280
     0
281
     0
  0
CLASS
  1
MATERIAL
  2
AcDbMaterial
  3
ObjectDBX Classes
 90
     1153
 91
        4
280
     0
281
     0
  0
CLASS
  1
AEC_VARS_DWG_SETUP
  2
AecDbVarsDwgSetup
  3
AecBase60
 90
      129
 91
        4
280
     0
281
     0
  0
CLASS
  1
AEC_DISP_REP_2D_SECTION
  2
AecDbDispRep2dSection
  3
AecBase60
 90
      129
 91
        4
280
     0
281
     0
  0
CLASS
  1
AEC_DISP_PROPS_2D_SECTION
  2
AecDbDispProps2dSection
  3
AecBase60
 90
      129
 91
        4
280
     0
281
     0
  0
CLASS
  1
AEC_DISP_REP_CLIP_VOLUME_MODEL
  2
AecDbDispRepClipVolModel
  3
AecBase60
 90
      129
 91
        6
280
     0
281
     0
  0
CLASS
  1
AEC_DISP_PROPS_CLIP_VOLUME
  2
AecDbDispPropsClipVol
  3
AecBase60
 90
      129
 91
        4
280
     0
281
     0
  0
CLASS
  1
AEC_DISP_REP_CLIP_VOLUME_PLAN
  2
AecDbDispRepClipVolPlan
  3
AecBase60
 90
      129
 91
        4
280
     0
281
     0
  0
CLASS
  1
AEC_DISP_REP_CLIP_VOLUME_RESULT
  2
AecDbDispRepClipVolResult
  3
AecBase60
 90
      129
 91
        6
280
     0
281
     0
  0
CLASS
  1
AEC_DISP_REP_CLIP_VOLUME_RESULT_SUBDIV
  2
AecDbDispRepClipVolResSubDiv
  3
AecBase60
 90
      129
 91
        5
280
     0
281
     0
  0
CLASS
  1
AEC_DISP_PROPS_CLIP_VOLUME_RESULT
  2
AecDbDispPropsClipVolResSubDiv
  3
AecBase60
 90
      129
 91
        4
280
     0
281
     0
  0
CLASS
  1
AEC_DISP_REP_DISPLAYTHEME
  2
AecDbDispRepDisplayTheme
  3
AecBase60
 90
      129
 91
        4
280
     0
281
     0
  0
CLASS
  1
AEC_DISP_REP_ENT_REF
  2
AecDbDispRepEntRef
  3
AecBase60
 90
      129
 91
        4
280
     0
281
     0
  0
CLASS
  1
AEC_DISP_PROPS_ENT_REF
  2
AecDbDispPropsEntRef
  3
AecBase60
 90
      129
 91
        4
280
     0
281
     0
  0
CLASS
  1
AEC_DISP_REP_LAYOUT_CURVE
  2
AecDbDispRepLayoutCurve
  3
AecBase60
 90
      129
 91
        4
280
     0
281
     0
  0
CLASS
  1
AEC_DISP_PROPS_LAYOUT_CURVE
  2
AecDbDispPropsLayoutCurve
  3
AecBase60
 90
      129
 91
        4
280
     0
281
     0
  0
CLASS
  1
AEC_DISP_REP_LAYOUT_GRID2D
  2
AecDbDispRepLayoutGrid2d
  3
AecBase60
 90
      129
 91
        6
280
     0
281
     0
  0
CLASS
  1
AEC_DISP_PROPS_LAYOUT_GRID2D
  2
AecDbDispPropsLayoutGrid2d
  3
AecBase60
 90
      129
 91
        5
280
     0
281
     0
  0
CLASS
  1
AEC_DISP_REP_LAYOUT_GRID3D
  2
AecDbDispRepLayoutGrid3d
  3
AecBase60
 90
      129
 91
        4
280
     0
281
     0
  0
CLASS
  1
AEC_DISP_PROPS_LAYOUT_GRID3D
  2
AecDbDispPropsLayoutGrid3d
  3
AecBase60
 90
      129
 91
        4
280
     0
281
     0
  0
CLASS
  1
AEC_DISP_REP_MASKBLOCK_REF
  2
AecDbDispRepMaskBlockRef
  3
AecBase60
 90
      129
 91
        5
280
     0
281
     0
  0
CLASS
  1
AEC_DISP_PROPS_MASKBLOCK
  2
AecDbDispPropsMaskBlock
  3
AecBase60
 90
      129
 91
        4
280
     0
281
     0
  0
CLASS
  1
AEC_DISP_REP_MASKBLOCK_REF_RCP
  2
AecDbDispRepMaskBlockRefRcp
  3
AecArchBase60
 90
      129
 91
        4
280
     0
281
     0
  0
CLASS
  1
AEC_DISP_REP_MASS_ELEM_MODEL
  2
AecDbDispRepMassElemModel
  3
AecBase60
 90
      129
 91
        4
280
     0
281
     0
  0
CLASS
  1
AEC_DISP_PROPS_MASS_ELEM_MODEL
  2
AecDbDispPropsMassElem
  3
AecBase60
 90
      129
 91
        5
280
     0
281
     0
  0
CLASS
  1
AEC_DISP_REP_MASS_ELEM_SCHEM
  2
AecDbDispRepMassElemSchem
  3
AecBase60
 90
      129
 91
        5
280
     0
281
     0
  0
CLASS
  1
AEC_DISPREPAECDBDISPREPMASSELEMPLAN50
  2
AecDbDispRepMassElemPlan50
  3
AecArchDACHBase60
 90
      129
 91
        4
280
     0
281
     0
  0
CLASS
  1
AEC_DISPROPSMASSELEMPLANCOMMON
  2
AecDbDispPropsMassElemPlanCommon
  3
AecArchDACHBase60
 90
      129
 91
        4
280
     0
281
     0
  0
CLASS
  1
AEC_DISPREPAECDBDISPREPMASSELEMPLAN100
  2
AecDbDispRepMassElemPlan100
  3
AecArchDACHBase60
 90
      129
 91
        4
280
     0
281
     0
  0
CLASS
  1
AEC_DISP_REP_MASS_ELEM_RCP
  2
AecDbDispRepMassElemRcp
  3
AecArchBase60
 90
      129
 91
        4
280
     0
281
     0
  0
CLASS
  1
AEC_DISP_REP_MASS_GROUP_MODEL
  2
AecDbDispRepMassGroupModel
  3
AecBase60
 90
      129
 91
        4
280
     0
281
     0
  0
CLASS
  1
AEC_DISP_PROPS_MASS_GROUP
  2
AecDbDispPropsMassGroup
  3
AecBase60
 90
      129
 91
        5
280
     0
281
     0
  0
CLASS
  1
AEC_DISP_REP_MASS_GROUP_PLAN
  2
AecDbDispRepMassGroupPlan
  3
AecBase60
 90
      129
 91
        8
280
     0
281
     0
  0
CLASS
  1
AEC_DISPREPAECDBDISPREPMASSGROUPPLAN50
  2
AecDbDispRepMassGroupPlan50
  3
AecArchDACHBase60
 90
      129
 91
        4
280
     0
281
     0
  0
CLASS
  1
AEC_DISPROPSMASSGROUPPLANCOMMON
  2
AecDbDispPropsMassGroupPlanCommon
  3
AecArchDACHBase60
 90
      129
 91
        4
280
     0
281
     0
  0
CLASS
  1
AEC_DISPREPAECDBDISPREPMASSGROUPPLAN100
  2
AecDbDispRepMassGroupPlan100
  3
AecArchDACHBase60
 90
      129
 91
        4
280
     0
281
     0
  0
CLASS
  1
AEC_DISP_REP_MASS_GROUP_RCP
  2
AecDbDispRepMassGroupRcp
  3
AecArchBase60
 90
      129
 91
        4
280
     0
281
     0
  0
CLASS
  1
AEC_DISP_REP_MVBLOCK_REF
  2
AecDbDispRepMvBlockRef
  3
AecBase60
 90
      129
 91
        8
280
     0
281
     0
  0
CLASS
  1
AEC_DISP_REP_MVBLOCK_REF_MODEL
  2
AecDbDispRepMvBlockRefModel
  3
AecBase60
 90
      129
 91
        4
280
     0
281
     0
  0
CLASS
  1
AEC_AECDBDISPREPMVBLOCKREFPLAN100
  2
AecDbDispRepMvBlockRefPlan100
  3
AecBase60
 90
      129
 91
        4
280
     0
281
     0
  0
CLASS
  1
AEC_AECDBDISPREPMVBLOCKREFPLAN50
  2
AecDbDispRepMvBlockRefPlan50
  3
AecBase60
 90
      129
 91
        4
280
     0
281
     0
  0
CLASS
  1
AEC_DISP_REP_POLYGON_MODEL
  2
AecDbDispRepPolygonModel
  3
AecBase60
 90
      129
 91
        4
280
     0
281
     0
  0
CLASS
  1
AEC_DISP_PROPS_POLYGON_MODEL
  2
AecDbDispPropsPolygonModel
  3
AecBase60
 90
      129
 91
        4
280
     0
281
     0
  0
CLASS
  1
AEC_DISP_REP_POLYGON_TRUECOLOUR
  2
AecDbDispRepPolygonTrueColour
  3
AecBase60
 90
      129
 91
        4
280
     0
281
     0
  0
CLASS
  1
AEC_DISP_PROPS_POLYGON_TRUECOLOUR
  2
AecDbDispPropsPolygonTrueColour
  3
AecBase60
 90
      129
 91
        4
280
     0
281
     0
  0
CLASS
  1
AEC_DISP_REP_SLICE
  2
AecDbDispRepSlice
  3
AecBase60
 90
      129
 91
        4
280
     0
281
     0
  0
CLASS
  1
AEC_DISP_PROPS_SLICE
  2
AecDbDispPropsSlice
  3
AecBase60
 90
      129
 91
        4
280
     0
281
     0
  0
CLASS
  1
AEC_DISP_REP_ANCHOR
  2
AecDbDispRepAnchor
  3
AecBase60
 90
      129
 91
        4
280
     0
281
     0
  0
CLASS
  1
AEC_DISP_REP_ANCHOR_ENT_TO_NODE
  2
AecDbDispRepAnchorEntToNode
  3
AecBase60
 90
      129
 91
        5
280
     0
281
     0
  0
CLASS
  1
AEC_DISP_PROPS_ENT
  2
AecDbDispPropsEnt
  3
AecBase60
 90
      129
 91
        4
280
     0
281
     0
  0
CLASS
  1
AEC_DISP_REP_MATERIAL
  2
AecDbDispRepMaterial
  3
AecBase60
 90
      129
 91
        4
280
     0
281
     0
  0
CLASS
  1
AEC_DISP_PROPS_MATERIAL
  2
AecDbDispPropsMaterial
  3
AecBase60
 90
      129
 91
        4
280
     0
281
     0
  0
CLASS
  1
AEC_DISP_REP_EDITINPLACEPROFILE
  2
AecDbDispRepEditInPlaceProfile
  3
AecBase60
 90
      129
 91
        4
280
     0
281
     0
  0
CLASS
  1
AEC_DISP_PROPS_EDITINPLACEPROFILE_MODEL
  2
AecDbDispPropsEditInPlaceProfile
  3
AecBase60
 90
      129
 91
        4
280
     0
281
     0
  0
CLASS
  1
AEC_VARS_ARCHBASE
  2
AecDbVarsArchBase
  3
AecArchBase60
 90
      129
 91
        4
280
     0
281
     0
  0
CLASS
  1
AEC_DISP_REP_BDG_ELEVLINE_PLAN
  2
AecDbDispRepBdgElevLinePlan
  3
AecArchBase60
 90
      129
 91
        7
280
     0
281
     0
  0
CLASS
  1
AEC_DISP_REP_BDG_ELEVLINE_MODEL
  2
AecDbDispRepBdgElevLineModel
  3
AecArchBase60
 90
      129
 91
        4
280
     0
281
     0
  0
CLASS
  1
AEC_DISP_REP_BDG_ELEVLINE_RCP
  2
AecDbDispRepBdgElevLineRcp
  3
AecArchBase60
 90
      129
 91
        4
280
     0
281
     0
  0
CLASS
  1
AEC_AECDBDISPREPBDGELEVLINEPLAN100
  2
AecDbDispRepBdgElevLinePlan100
  3
AecBase60
 90
      129
 91
        4
280
     0
281
     0
  0
CLASS
  1
AEC_AECDBDISPREPBDGELEVLINEPLAN50
  2
AecDbDispRepBdgElevLinePlan50
  3
AecBase60
 90
      129
 91
        4
280
     0
281
     0
  0
CLASS
  1
AEC_DISP_REP_BDG_SECTIONLINE_MODEL
  2
AecDbDispRepBdgSectionLineModel
  3
AecArchBase60
 90
      129
 91
        4
280
     0
281
     0
  0
CLASS
  1
AEC_DISP_REP_BDG_SECTIONLINE_PLAN
  2
AecDbDispRepBdgSectionLinePlan
  3
AecArchBase60
 90
      129
 91
        7
280
     0
281
     0
  0
CLASS
  1
AEC_DISP_REP_BDG_SECTIONLINE_RCP
  2
AecDbDispRepBdgSectionLineRcp
  3
AecArchBase60
 90
      129
 91
        4
280
     0
281
     0
  0
CLASS
  1
AEC_AECDBDISPREPBDGSECTIONLINEPLAN100
  2
AecDbDispRepBdgSectionLinePlan100
  3
AecBase60
 90
      129
 91
        4
280
     0
281
     0
  0
CLASS
  1
AEC_AECDBDISPREPBDGSECTIONLINEPLAN50
  2
AecDbDispRepBdgSectionLinePlan50
  3
AecBase60
 90
      129
 91
        4
280
     0
281
     0
  0
CLASS
  1
AEC_DISP_REP_BDG_SECTION_SUBDIV
  2
AecDbDispRepBdgSectionSubDiv
  3
AecArchBase60
 90
      129
 91
        4
280
     0
281
     0
  0
CLASS
  1
AEC_DISP_REP_BDG_SECTION_MODEL
  2
AecDbDispRepBdgSectionModel
  3
AecArchBase60
 90
      129
 91
        4
280
     0
281
     0
  0
CLASS
  1
AEC_DISP_REP_CEILING_GRID
  2
AecDbDispRepCeilingGrid
  3
AecArchBase60
 90
      893
 91
        8
280
     0
281
     0
  0
CLASS
  1
AEC_DISP_REP_CEILING_GRID_MODEL
  2
AecDbDispRepCeilingGridModel
  3
AecArchBase60
 90
      129
 91
        4
280
     0
281
     0
  0
CLASS
  1
AEC_DISP_REP_CEILING_GRID_RCP
  2
AecDbDispRepCeilingGridRcp
  3
AecArchBase60
 90
      129
 91
        4
280
     0
281
     0
  0
CLASS
  1
AEC_AECDBDISPREPCEILINGGRIDPLAN100
  2
AecDbDispRepCeilingGridPlan100
  3
AecBase60
 90
      129
 91
        4
280
     0
281
     0
  0
CLASS
  1
AEC_AECDBDISPREPCEILINGGRIDPLAN50
  2
AecDbDispRepCeilingGridPlan50
  3
AecBase60
 90
      129
 91
        4
280
     0
281
     0
  0
CLASS
  1
AEC_DISP_REP_CURTAIN_WALL_LAYOUT_MODEL
  2
AecDbDispRepCurtainWallLayoutModel
  3
AecArchBase60
 90
      129
 91
        4
280
     0
281
     0
  0
CLASS
  1
AEC_DISP_PROPS_GRID_ASSEMBLY_MODEL
  2
AecDbDispPropsGridAssemblyModel
  3
AecArchBase60
 90
      129
 91
        4
280
     0
281
     0
  0
CLASS
  1
AEC_DISP_REP_CURTAIN_WALL_LAYOUT_PLAN
  2
AecDbDispRepCurtainWallLayoutPlan
  3
AecArchBase60
 90
      129
 91
        6
280
     0
281
     0
  0
CLASS
  1
AEC_DISP_PROPS_GRID_ASSEMBLY_PLAN
  2
AecDbDispPropsGridAssemblyPlan
  3
AecArchBase60
 90
      129
 91
        4
280
     0
281
     0
  0
CLASS
  1
AEC_AECDBDISPREPCURTAINWALLLAYOUTPLAN100
  2
AecDbDispRepCurtainWallLayoutPlan100
  3
AecBase60
 90
      129
 91
        4
280
     0
281
     0
  0
CLASS
  1
AEC_AECDBDISPREPCURTAINWALLLAYOUTPLAN50
  2
AecDbDispRepCurtainWallLayoutPlan50
  3
AecBase60
 90
      129
 91
        4
280
     0
281
     0
  0
CLASS
  1
AEC_DISP_REP_CURTAIN_WALL_UNIT_MODEL
  2
AecDbDispRepCurtainWallUnitModel
  3
AecArchBase60
 90
      129
 91
        4
280
     0
281
     0
  0
CLASS
  1
AEC_DISP_REP_CURTAIN_WALL_UNIT_PLAN
  2
AecDbDispRepCurtainWallUnitPlan
  3
AecArchBase60
 90
      129
 91
        6
280
     0
281
     0
  0
CLASS
  1
AEC_AECDBDISPREPCURTAINWALLUNITPLAN100
  2
AecDbDispRepCurtainWallUnitPlan100
  3
AecBase60
 90
      129
 91
        4
280
     0
281
     0
  0
CLASS
  1
AEC_AECDBDISPREPCURTAINWALLUNITPLAN50
  2
AecDbDispRepCurtainWallUnitPlan50
  3
AecBase60
 90
      129
 91
        4
280
     0
281
     0
  0
CLASS
  1
AEC_DISP_REP_DOOR_MODEL
  2
AecDbDispRepDoorModel
  3
AecArchBase60
 90
      129
 91
        5
280
     0
281
     0
  0
CLASS
  1
AEC_DISP_PROPS_DOOR
  2
AecDbDispPropsDoor
  3
AecArchBase60
 90
      129
 91
        5
280
     0
281
     0
  0
CLASS
  1
AEC_DISP_REP_DOOR_ELEV
  2
AecDbDispRepDoorElev
  3
AecArchBase60
 90
      129
 91
        4
280
     0
281
     0
  0
CLASS
  1
AEC_DISP_REP_DOOR_PLAN
  2
AecDbDispRepDoorPlan
  3
AecArchBase60
 90
      129
 91
        8
280
     0
281
     0
  0
CLASS
  1
AEC_DISP_REP_DOOR_NOMINAL
  2
AecDbDispRepDoorNominal
  3
AecArchBase60
 90
      129
 91
        4
280
     0
281
     0
  0
CLASS
  1
AEC_DISP_PROPS_DOOR_NOMINAL
  2
AecDbDispPropsDoorNominal
  3
AecArchBase60
 90
      129
 91
        4
280
     0
281
     0
  0
CLASS
  1
AEC_DISP_REP_DOOR_THRESHOLD_PLAN
  2
AecDbDispRepDoorThresholdPlan
  3
AecArchBase60
 90
      129
 91
        4
280
     0
281
     0
  0
CLASS
  1
AEC_DISP_PROPS_DOOR_THRESHOLD_PLAN
  2
AecDbDispPropsDoorThresholdPlan
  3
AecArchBase60
 90
      129
 91
        4
280
     0
281
     0
  0
CLASS
  1
AEC_DISP_REP_DOOR_PLAN_50
  2
AecDbDispRepDoorPlan50
  3
AecArchDACHBase60
 90
      129
 91
        4
280
     0
281
     0
  0
CLASS
  1
AEC_DISP_PROPS_DOOR_PLAN_50
  2
AecDbDispPropsDoorPlan50
  3
AecArchDACHBase60
 90
      129
 91
        4
280
     0
281
     0
  0
CLASS
  1
AEC_DISP_REP_DOOR_PLAN_HEKTO
  2
AecDbDispRepDoorPlanHekto
  3
AecArchDACHBase60
 90
      129
 91
        4
280
     0
281
     0
  0
CLASS
  1
AEC_DISP_PROPS_DOOR_PLAN_100
  2
AecDbDispPropsDoorPlan100
  3
AecArchDACHBase60
 90
      129
 91
        4
280
     0
281
     0
  0
CLASS
  1
AEC_DISP_REP_DOOR_RCP
  2
AecDbDispRepDoorRcp
  3
AecArchBase60
 90
      129
 91
        4
280
     0
281
     0
  0
CLASS
  1
AEC_DISP_REP_DOOR_THRESHOLD_SYMBOL_PLAN
  2
AecDbDispRepDoorThresholdSymbolPlan
  3
AecArchDACHBase60
 90
      129
 91
        4
280
     0
281
     0
  0
CLASS
  1
AEC_DISP_PROPS_DOOR_THRESHOLD_SYMBOL_PLAN
  2
AecDbDispPropsDoorThresholdSymbolPlan
  3
AecArchDACHBase60
 90
      129
 91
        4
280
     0
281
     0
  0
CLASS
  1
AEC_DISP_REP_OPENING
  2
AecDbDispRepOpening
  3
AecArchBase60
 90
      129
 91
        6
280
     0
281
     0
  0
CLASS
  1
AEC_DISP_PROPS_OPENING
  2
AecDbDispPropsOpening
  3
AecArchBase60
 90
      129
 91
        5
280
     0
281
     0
  0
CLASS
  1
AEC_DISP_REP_OPENING_MODEL
  2
AecDbDispRepOpeningModel
  3
AecArchBase60
 90
      129
 91
        4
280
     0
281
     0
  0
CLASS
  1
AEC_DISPREPAECDBDISPREPOPENINGPLAN100
  2
AecDbDispRepOpeningPlan100
  3
AecArchDACHBase60
 90
      129
 91
        4
280
     0
281
     0
  0
CLASS
  1
AEC_DISPROPSOPENINGPLANCOMMONHATCHED
  2
AecDbDispPropsOpeningPlanCommonHatched
  3
AecArchDACHBase60
 90
      129
 91
        4
280
     0
281
     0
  0
CLASS
  1
AEC_DISPREPAECDBDISPREPOPENINGPLAN50
  2
AecDbDispRepOpeningPlan50
  3
AecArchDACHBase60
 90
      129
 91
        4
280
     0
281
     0
  0
CLASS
  1
AEC_DISPREPAECDBDISPREPOPENINGPLANREFLECTED
  2
AecDbDispRepOpeningPlanReflected
  3
AecArchDACHBase60
 90
      129
 91
        4
280
     0
281
     0
  0
CLASS
  1
AEC_DISPROPSOPENINGPLANCOMMON
  2
AecDbDispPropsOpeningPlanCommon
  3
AecArchDACHBase60
 90
      129
 91
        5
280
     0
281
     0
  0
CLASS
  1
AEC_DISPREPAECDBDISPREPOPENINGSILLPLAN
  2
AecDbDispRepOpeningSillPlan
  3
AecArchDACHBase60
 90
      129
 91
        4
280
     0
281
     0
  0
CLASS
  1
AEC_DISPROPSOPENINGSILLPLAN
  2
AecDbDispPropsOpeningSillPlan
  3
AecArchDACHBase60
 90
      129
 91
        4
280
     0
281
     0
  0
CLASS
  1
AEC_DISP_REP_RAILING_MODEL
  2
AecDbDispRepRailingModel
  3
AecArchBase60
 90
      129
 91
        4
280
     0
281
     0
  0
CLASS
  1
AEC_DISP_PROPS_RAILING_MODEL
  2
AecDbDispPropsRailingModel
  3
AecArchBase60
 90
      129
 91
        4
280
     0
281
     0
  0
CLASS
  1
AEC_DISP_REP_RAILING_PLAN
  2
AecDbDispRepRailingPlan
  3
AecArchBase60
 90
      129
 91
        5
280
     0
281
     0
  0
CLASS
  1
AEC_DISP_PROPS_RAILING_PLAN
  2
AecDbDispPropsRailingPlan
  3
AecArchBase60
 90
      129
 91
        5
280
     0
281
     0
  0
CLASS
  1
AEC_DISP_REP_RAILING_PLAN_100
  2
AecDbDispRepRailingPlan100
  3
AecArchDACHBase60
 90
      129
 91
        4
280
     0
281
     0
  0
CLASS
  1
AEC_DISP_ROPS_RAILING_PLAN_100
  2
AecDbDispPropsRailingPlan100
  3
AecArchDACHBase60
 90
      129
 91
        4
280
     0
281
     0
  0
CLASS
  1
AEC_DISP_REP_RAILING_PLAN_50
  2
AecDbDispRepRailingPlan50
  3
AecArchDACHBase60
 90
      129
 91
        4
280
     0
281
     0
  0
CLASS
  1
AEC_DISP_ROPS_RAILING_PLAN_50
  2
AecDbDispPropsRailingPlan50
  3
AecArchDACHBase60
 90
      129
 91
        4
280
     0
281
     0
  0
CLASS
  1
AEC_DISP_REP_ROOF_MODEL
  2
AecDbDispRepRoofModel
  3
AecArchBase60
 90
      129
 91
        4
280
     0
281
     0
  0
CLASS
  1
AEC_DISP_PROPS_ROOF
  2
AecDbDispPropsRoof
  3
AecArchBase60
 90
      129
 91
        4
280
     0
281
     0
  0
CLASS
  1
AEC_DISP_REP_ROOF_PLAN
  2
AecDbDispRepRoofPlan
  3
AecArchBase60
 90
      129
 91
        8
280
     0
281
     0
  0
CLASS
  1
AEC_DISP_REP_ROOF_RCP
  2
AecDbDispRepRoofRcp
  3
AecArchBase60
 90
      129
 91
        4
280
     0
281
     0
  0
CLASS
  1
AEC_AECDBDISPREPROOFPLAN100
  2
AecDbDispRepRoofPlan100
  3
AecBase60
 90
      129
 91
        4
280
     0
281
     0
  0
CLASS
  1
AEC_AECDBDISPREPROOFPLAN50
  2
AecDbDispRepRoofPlan50
  3
AecBase60
 90
      129
 91
        4
280
     0
281
     0
  0
CLASS
  1
AEC_DISP_REP_ROOFSLAB_MODEL
  2
AecDbDispRepRoofSlabModel
  3
AecArchBase60
 90
      129
 91
        4
280
     0
281
     0
  0
CLASS
  1
AEC_DISP_PROPS_ROOFSLAB
  2
AecDbDispPropsRoofSlab
  3
AecArchBase60
 90
      129
 91
        4
280
     0
281
     0
  0
CLASS
  1
AEC_DISP_REP_ROOFSLAB_PLAN
  2
AecDbDispRepRoofSlabPlan
  3
AecArchBase60
 90
      129
 91
        6
280
     0
281
     0
  0
CLASS
  1
AEC_DISP_PROPS_ROOFSLAB_PLAN
  2
AecDbDispPropsRoofSlabPlan
  3
AecArchBase60
 90
      129
 91
        4
280
     0
281
     0
  0
CLASS
  1
AEC_AECDBDISPREPROOFSLABPLAN100
  2
AecDbDispRepRoofSlabPlan100
  3
AecBase60
 90
      129
 91
        4
280
     0
281
     0
  0
CLASS
  1
AEC_AECDBDISPREPROOFSLABPLAN50
  2
AecDbDispRepRoofSlabPlan50
  3
AecBase60
 90
      129
 91
        4
280
     0
281
     0
  0
CLASS
  1
AEC_DISP_REP_SLAB_MODEL
  2
AecDbDispRepSlabModel
  3
AecArchBase60
 90
      129
 91
        5
280
     0
281
     0
  0
CLASS
  1
AEC_DISP_PROPS_SLAB
  2
AecDbDispPropsSlab
  3
AecArchBase60
 90
      129
 91
        6
280
     0
281
     0
  0
CLASS
  1
AEC_DISP_REP_SLAB_PLAN
  2
AecDbDispRepSlabPlan
  3
AecArchBase60
 90
      129
 91
        7
280
     0
281
     0
  0
CLASS
  1
AEC_DISP_PROPS_SLAB_PLAN
  2
AecDbDispPropsSlabPlan
  3
AecArchBase60
 90
      129
 91
        5
280
     0
281
     0
  0
CLASS
  1
AEC_AECDBDISPREPSLABPLAN100
  2
AecDbDispRepSlabPlan100
  3
AecBase60
 90
      129
 91
        4
280
     0
281
     0
  0
CLASS
  1
AEC_AECDBDISPREPSLABPLAN50
  2
AecDbDispRepSlabPlan50
  3
AecBase60
 90
      129
 91
        4
280
     0
281
     0
  0
CLASS
  1
AEC_DISP_REP_SPACE_MODEL
  2
AecDbDispRepSpaceModel
  3
AecArchBase60
 90
      129
 91
        4
280
     0
281
     0
  0
CLASS
  1
AEC_DISP_PROPS_SPACE_MODEL
  2
AecDbDispPropsSpaceModel
  3
AecArchBase60
 90
      129
 91
        4
280
     0
281
     0
  0
CLASS
  1
AEC_DISP_REP_SPACE_PLAN
  2
AecDbDispRepSpacePlan
  3
AecArchBase60
 90
      129
 91
        7
280
     0
281
     0
  0
CLASS
  1
AEC_DISP_PROPS_SPACE_PLAN
  2
AecDbDispPropsSpacePlan
  3
AecArchBase60
 90
      129
 91
        4
280
     0
281
     0
  0
CLASS
  1
AEC_DISP_REP_SPACE_RCP
  2
AecDbDispRepSpaceRcp
  3
AecArchBase60
 90
      129
 91
        4
280
     0
281
     0
  0
CLASS
  1
AEC_DISP_REP_SPACE_VOLUME
  2
AecDbDispRepSpaceVolume
  3
AecArchBase60
 90
      129
 91
        4
280
     0
281
     0
  0
CLASS
  1
AEC_DISP_REP_SPACE_DECOMPOSED
  2
AecDbDispRepSpaceDecomposed
  3
AecArchBase60
 90
      129
 91
        4
280
     0
281
     0
  0
CLASS
  1
AEC_DISP_PROPS_SPACE_DECOMPOSED
  2
AecDbDispPropsSpaceDecomposed
  3
AecArchBase60
 90
      129
 91
        4
280
     0
281
     0
  0
CLASS
  1
AEC_AECDBDISPREPSPACEPLAN100
  2
AecDbDispRepSpacePlan100
  3
AecBase60
 90
      129
 91
        4
280
     0
281
     0
  0
CLASS
  1
AEC_AECDBDISPREPSPACEPLAN50
  2
AecDbDispRepSpacePlan50
  3
AecBase60
 90
      129
 91
        4
280
     0
281
     0
  0
CLASS
  1
AEC_DISP_REP_STAIR_MODEL
  2
AecDbDispRepStairModel
  3
AecArchBase60
 90
      129
 91
        4
280
     0
281
     0
  0
CLASS
  1
AEC_DISP_PROPS_STAIR_MODEL
  2
AecDbDispPropsStairModel
  3
AecArchBase60
 90
      129
 91
        4
280
     0
281
     0
  0
CLASS
  1
AEC_DISP_REP_STAIR_PLAN
  2
AecDbDispRepStairPlan
  3
AecArchBase60
 90
      129
 91
        7
280
     0
281
     0
  0
CLASS
  1
AEC_DISP_PROPS_STAIR_PLAN
  2
AecDbDispPropsStairPlan
  3
AecArchBase60
 90
      129
 91
        6
280
     0
281
     0
  0
CLASS
  1
AEC_DISP_REP_STAIR_RCP
  2
AecDbDispRepStairRcp
  3
AecArchBase60
 90
      129
 91
        4
280
     0
281
     0
  0
CLASS
  1
AEC_DISP_REP_STAIR_PLAN_100
  2
AecDbDispRepStairPlan100
  3
AecArchDACHBase60
 90
      129
 91
        4
280
     0
281
     0
  0
CLASS
  1
AEC_DISP_ROPS_STAIR_PLAN_100
  2
AecDbDispPropsStairPlan100
  3
AecArchDACHBase60
 90
      129
 91
        4
280
     0
281
     0
  0
CLASS
  1
AEC_DISP_REP_STAIR_PLAN_50
  2
AecDbDispRepStairPlan50
  3
AecArchDACHBase60
 90
      129
 91
        4
280
     0
281
     0
  0
CLASS
  1
AEC_DISP_ROPS_STAIR_PLAN_50
  2
AecDbDispPropsStairPlan50
  3
AecArchDACHBase60
 90
      129
 91
        4
280
     0
281
     0
  0
CLASS
  1
AEC_DISP_REP_STAIR_PLAN_OVERLAPPING
  2
AecDbDispRepStairPlanOverlapping
  3
AecArchBase60
 90
      129
 91
        4
280
     0
281
     0
  0
CLASS
  1
AEC_DISP_PROPS_STAIR_PLAN_OVERLAPPING
  2
AecDbDispPropsStairPlanOverlapping
  3
AecArchBase60
 90
      129
 91
        4
280
     0
281
     0
  0
CLASS
  1
AEC_DISP_REP_WALL_GRAPH
  2
AecDbDispRepWallGraph
  3
AecArchBase60
 90
      129
 91
        4
280
     0
281
     0
  0
CLASS
  1
AEC_DISP_PROPS_WALL_GRAPH
  2
AecDbDispPropsWallGraph
  3
AecArchBase60
 90
      129
 91
        4
280
     0
281
     0
  0
CLASS
  1
AEC_DISP_REP_WALL_MODEL
  2
AecDbDispRepWallModel
  3
AecArchBase60
 90
      129
 91
        4
280
     0
281
     0
  0
CLASS
  1
AEC_DISP_PROPS_WALL_MODEL
  2
AecDbDispPropsWallModel
  3
AecArchBase60
 90
      129
 91
        4
280
     0
281
     0
  0
CLASS
  1
AEC_DISP_REP_WALL_PLAN
  2
AecDbDispRepWallPlan
  3
AecArchBase60
 90
      129
 91
        7
280
     0
281
     0
  0
CLASS
  1
AEC_DISP_PROPS_WALL_PLAN
  2
AecDbDispPropsWallPlan
  3
AecArchBase60
 90
      129
 91
        4
280
     0
281
     0
  0
CLASS
  1
AEC_DISP_REP_WALL_RCP
  2
AecDbDispRepWallRcp
  3
AecArchBase60
 90
      129
 91
        4
280
     0
281
     0
  0
CLASS
  1
AEC_DISP_REP_WALL_SCHEM
  2
AecDbDispRepWallSchem
  3
AecArchBase60
 90
      129
 91
        4
280
     0
281
     0
  0
CLASS
  1
AEC_DISP_PROPS_WALL_SCHEM
  2
AecDbDispPropsWallSchem
  3
AecArchBase60
 90
      129
 91
        4
280
     0
281
     0
  0
CLASS
  1
AEC_AECDBDISPREPWALLPLAN100
  2
AecDbDispRepWallPlan100
  3
AecBase60
 90
      129
 91
        4
280
     0
281
     0
  0
CLASS
  1
AEC_AECDBDISPREPWALLPLAN50
  2
AecDbDispRepWallPlan50
  3
AecBase60
 90
      129
 91
        4
280
     0
281
     0
  0
CLASS
  1
AEC_DISP_REP_WINDOW_MODEL
  2
AecDbDispRepWindowModel
  3
AecArchBase60
 90
      129
 91
        5
280
     0
281
     0
  0
CLASS
  1
AEC_DISP_PROPS_WINDOW
  2
AecDbDispPropsWindow
  3
AecArchBase60
 90
      129
 91
        6
280
     0
281
     0
  0
CLASS
  1
AEC_DISP_REP_WINDOW_ELEV
  2
AecDbDispRepWindowElev
  3
AecArchBase60
 90
      129
 91
        4
280
     0
281
     0
  0
CLASS
  1
AEC_DISP_REP_WINDOW_PLAN
  2
AecDbDispRepWindowPlan
  3
AecArchBase60
 90
      129
 91
        8
280
     0
281
     0
  0
CLASS
  1
AEC_DISP_REP_WINDOW_NOMINAL
  2
AecDbDispRepWindowNominal
  3
AecArchBase60
 90
      129
 91
        4
280
     0
281
     0
  0
CLASS
  1
AEC_DISP_PROPS_WINDOW_NOMINAL
  2
AecDbDispPropsWindowNominal
  3
AecArchBase60
 90
      129
 91
        4
280
     0
281
     0
  0
CLASS
  1
AEC_DISP_REP_WINDOW_RCP
  2
AecDbDispRepWindowRcp
  3
AecArchBase60
 90
      129
 91
        4
280
     0
281
     0
  0
CLASS
  1
AEC_DISP_REP_WINDOW_SILL_PLAN
  2
AecDbDispRepWindowSillPlan
  3
AecArchBase60
 90
      129
 91
        4
280
     0
281
     0
  0
CLASS
  1
AEC_DISP_PROPS_WINDOW_SILL_PLAN
  2
AecDbDispPropsWindowSillPlan
  3
AecArchBase60
 90
      129
 91
        4
280
     0
281
     0
  0
CLASS
  1
AEC_DISP_REP_WINDOW_PLAN_100
  2
AecDbDispRepWindowPlan100
  3
AecArchDACHBase60
 90
      129
 91
        4
280
     0
281
     0
  0
CLASS
  1
AEC_DISP_PROPS_WINDOW_PLAN_100
  2
AecDbDispPropsWindowPlan100
  3
AecArchDACHBase60
 90
      129
 91
        4
280
     0
281
     0
  0
CLASS
  1
AEC_DISP_REP_WINDOW_PLAN_50
  2
AecDbDispRepWindowPlan50
  3
AecArchDACHBase60
 90
      129
 91
        4
280
     0
281
     0
  0
CLASS
  1
AEC_DISP_PROPS_WINDOW_PLAN_50
  2
AecDbDispPropsWindowPlan50
  3
AecArchDACHBase60
 90
      129
 91
        4
280
     0
281
     0
  0
CLASS
  1
AEC_DISP_REP_WINDOW_ASSEMBLY_MODEL
  2
AecDbDispRepWindowAssemblyModel
  3
AecArchBase60
 90
      129
 91
        4
280
     0
281
     0
  0
CLASS
  1
AEC_DISP_REP_WINDOW_ASSEMBLY_PLAN
  2
AecDbDispRepWindowAssemblyPlan
  3
AecArchBase60
 90
      129
 91
        6
280
     0
281
     0
  0
CLASS
  1
AEC_DISP_REP_WINDOWASSEMBLY_SILL_PLAN
  2
AecDbDispRepWindowAssemblySillPlan
  3
AecArchBase60
 90
      129
 91
        4
280
     0
281
     0
  0
CLASS
  1
AEC_DISP_PROPS_WINDOW_ASSEMBLY_SILL_PLAN
  2
AecDbDispPropsWindowAssemblySillPlan
  3
AecArchBase60
 90
      129
 91
        4
280
     0
281
     0
  0
CLASS
  1
AEC_AECDBDISPREPWINDOWASSEMBLYPLAN100
  2
AecDbDispRepWindowAssemblyPlan100
  3
AecBase60
 90
      129
 91
        4
280
     0
281
     0
  0
CLASS
  1
AEC_AECDBDISPREPWINDOWASSEMBLYPLAN50
  2
AecDbDispRepWindowAssemblyPlan50
  3
AecBase60
 90
      129
 91
        4
280
     0
281
     0
  0
CLASS
  1
AEC_DB_DISP_REP_DIM_GROUP_PLAN
  2
AecDbDispRepDimGroupPlan
  3
AecArchDACHBase60
 90
      129
 91
        4
280
     0
281
     0
  0
CLASS
  1
AEC_DISP_PROPS_DIM
  2
AecDbDispPropsDimGroup
  3
AecArchDACHBase60
 90
      129
 91
        4
280
     0
281
     0
  0
CLASS
  1
AEC_DB_DISP_REP_DIM_GROUP_PLAN100
  2
AecDbDispRepDimGroupPlan100
  3
AecArchDACHBase60
 90
      129
 91
        4
280
     0
281
     0
  0
CLASS
  1
AEC_DB_DISP_REP_DIM_GROUP_PLAN50
  2
AecDbDispRepDimGroupPlan50
  3
AecArchDACHBase60
 90
      129
 91
        4
280
     0
281
     0
  0
CLASS
  1
AEC_DISP_REP_SCHEDULE_TABLE
  2
AecDbDispRepScheduleTable
  3
AecSchedule50
 90
      129
 91
        4
280
     0
281
     0
  0
CLASS
  1
AEC_DISP_PROPS_SCHEDULE_TABLE
  2
AecDbDispPropsScheduleTable
  3
AecSchedule50
 90
      129
 91
        4
280
     0
281
     0
  0
CLASS
  1
AEC_DISP_REP_ANCHOR_TAG_TO_ENT
  2
AecDbDispRepAnchorTagToEnt
  3
AecScheduleData60
 90
      129
 91
        5
280
     0
281
     0
  0
CLASS
  1
AEC_DISP_REP_ANCHOR_EXT_TAG_TO_ENT
  2
AecDbDispRepAnchorExtendedTagToEnt
  3
AecScheduleData60
 90
      129
 91
        4
280
     0
281
     0
  0
CLASS
  1
AEC_DISP_REP_SET
  2
AecDbDispRepSet
  3
AecBase60
 90
      129
 91
        4
280
     0
281
     0
  0
CLASS
  1
AECS_DISP_REP_MEMBER_MODEL_DESIGN
  2
AecsDbDispRepMemberModelDesign
  3
AecStructureBase60
 90
      129
 91
        4
280
     0
281
     0
  0
CLASS
  1
AECS_DISP_PROPS_MEMBER
  2
AecsDbDispPropsMember
  3
AecStructureBase60
 90
      129
 91
        6
280
     0
281
     0
  0
CLASS
  1
AECS_DISP_REP_MEMBER_PLAN_DESIGN
  2
AecsDbDispRepMemberPlanDesign
  3
AecStructureBase60
 90
      129
 91
        4
280
     0
281
     0
  0
CLASS
  1
AECS_DISP_PROPS_MEMBER_PLAN
  2
AecsDbDispPropsMemberPlan
  3
AecStructureBase60
 90
      129
 91
        5
280
     0
281
     0
  0
CLASS
  1
AEC_DISP_REP_CONFIG
  2
AecDbDispRepConfig
  3
AecBase60
 90
      129
 91
        4
280
     0
281
     0
  0
CLASS
  1
MLEADERSTYLE
  2
AcDbMLeaderStyle
  3
ACDB_MLEADERSTYLE_CLASS
 90
     4095
 91
        4
280
     0
281
     0
  0
CLASS
  1
AEC_WALL_STYLE
  2
AecDbWallStyle
  3
AecArchBase60
 90
      129
 91
        4
280
     0
281
     0
  0
CLASS
  1
AEC_CLEANUP_GROUP_DEF
  2
AecDbCleanupGroupDef
  3
AecArchBase60
 90
      129
 91
        4
280
     0
281
     0
  0
CLASS
  1
AEC_ENDCAP_STYLE
  2
AecDbEndcapStyle
  3
AecArchBase60
 90
      129
 91
        4
280
     0
281
     0
  0
CLASS
  1
AEC_FRAME_DEF
  2
AecDbOpeningEndcapStyle
  3
AecArchBase60
 90
      129
 91
        4
280
     0
281
     0
  0
CLASS
  1
AEC_MATERIAL_DEF
  2
AecDbMaterialDef
  3
AecBase60
 90
      129
 91
        4
280
     0
281
     0
  0
CLASS
  1
TABLESTYLE
  2
AcDbTableStyle
  3
ObjectDBX Classes
 90
     4095
 91
        4
280
     0
281
     0
  0
CLASS
  1
TCOPTIONALDATA
  2
TcOptionalData
  3
ExTcadCustObjs|Description: TurboCAD extension data object
 90
     4095
 91
        4
280
     0
281
     0
  0
CLASS
  1
SCALE
  2
AcDbScale
  3
ObjectDBX Classes
 90
     1153
 91
        4
280
     0
281
     0
  0
CLASS
  1
DICTIONARYVAR
  2
AcDbDictionaryVar
  3
ObjectDBX Classes
 90
        0
 91
        4
280
     0
281
     0
  0
CLASS
  1
CELLSTYLEMAP
  2
AcDbCellStyleMap
  3
ObjectDBX Classes
 90
     1152
 91
        4
280
     0
281
     0
  0
ENDSEC
  0
SECTION
  2
TABLES
  0
TABLE
  2
VPORT
  5
8
330
0
100
AcDbSymbolTable
 70
     1
  0
VPORT
  5
29
330
8
100
AcDbSymbolTableRecord
100
AcDbViewportTableRecord
  2
*Active
 70
     0
 10
0.0
 20
0.0
 11
1.0
 21
1.0
 12
0.0
 22
0.0
 13
0.0
 23
0.0
 14
50.0
 24
50.0
 15
50.0
 25
50.0
 16
0.0
 26
0.0
 36
1.0
 17
3607.411485044509
 27
5007.588870868728
 37
2.10405147075653
 40
3052.060049916896
 41
2.129587155963303
 42
50.0
 43
0.0
 44
0.0
 50
0.0
 51
0.0
 71
     0
 72
   100
 73
     1
 74
     3
 75
     0
 76
     1
 77
     0
 78
     0
281
     0
 65
     1
110
0.0
120
0.0
130
0.0
111
1.0
121
0.0
131
0.0
112
0.0
122
1.0
132
0.0
 79
     0
146
0.0
 60
     3
 61
     5
292
     1
282
     1
141
0.0
142
0.0
 63
   250
  0
ENDTAB
  0
TABLE
  2
LTYPE
  5
5
330
0
100
AcDbSymbolTable
 70
    14
  0
LTYPE
  5
14
330
5
100
AcDbSymbolTableRecord
100
AcDbLinetypeTableRecord
  2
ByBlock
 70
     0
  3

 72
    65
 73
     0
 40
0.0
  0
LTYPE
  5
15
330
5
100
AcDbSymbolTableRecord
100
AcDbLinetypeTableRecord
  2
ByLayer
 70
     0
  3

 72
    65
 73
     0
 40
0.0
  0
LTYPE
  5
16
330
5
100
AcDbSymbolTableRecord
100
AcDbLinetypeTableRecord
  2
Continuous
 70
     0
  3
Solid line
 72
    65
 73
     0
 40
0.0
  0
LTYPE
  5
14F
330
5
100
AcDbSymbolTableRecord
100
AcDbLinetypeTableRecord
  2
BORDER
 70
     0
  3
BORDER
 72
    65
 73
     6
 40
1.75
 49
0.5
 74
     0
 49
-0.25
 74
     0
 49
0.5
 74
     0
 49
-0.25
 74
     0
 49
0.0
 74
     0
 49
-0.25
 74
     0
  0
LTYPE
  5
150
330
5
100
AcDbSymbolTableRecord
100
AcDbLinetypeTableRecord
  2
CENTER
 70
     0
  3
CENTER
 72
    65
 73
     4
 40
2.0
 49
1.25
 74
     0
 49
-0.25
 74
     0
 49
0.25
 74
     0
 49
-0.25
 74
     0
  0
LTYPE
  5
151
330
5
100
AcDbSymbolTableRecord
100
AcDbLinetypeTableRecord
  2
DASHDOT
 70
     0
  3
DASHDOT
 72
    65
 73
     4
 40
1.0
 49
0.5
 74
     0
 49
-0.25
 74
     0
 49
0.0
 74
     0
 49
-0.25
 74
     0
  0
LTYPE
  5
152
330
5
100
AcDbSymbolTableRecord
100
AcDbLinetypeTableRecord
  2
DASHED
 70
     0
  3
DASHED
 72
    65
 73
     2
 40
0.75
 49
0.5
 74
     0
 49
-0.25
 74
     0
  0
LTYPE
  5
153
330
5
100
AcDbSymbolTableRecord
100
AcDbLinetypeTableRecord
  2
DIVIDE
 70
     0
  3
DIVIDE
 72
    65
 73
     6
 40
1.25
 49
0.5
 74
     0
 49
-0.25
 74
     0
 49
0.0
 74
     0
 49
-0.25
 74
     0
 49
0.0
 74
     0
 49
-0.25
 74
     0
  0
LTYPE
  5
154
330
5
100
AcDbSymbolTableRecord
100
AcDbLinetypeTableRecord
  2
DOT
 70
     0
  3
DOT
 72
    65
 73
     2
 40
0.25
 49
0.0
 74
     0
 49
-0.25
 74
     0
  0
LTYPE
  5
155
330
5
100
AcDbSymbolTableRecord
100
AcDbLinetypeTableRecord
  2
HIDDEN
 70
     0
  3
HIDDEN
 72
    65
 73
     2
 40
0.375
 49
0.25
 74
     0
 49
-0.125
 74
     0
  0
LTYPE
  5
156
330
5
100
AcDbSymbolTableRecord
100
AcDbLinetypeTableRecord
  2
PHANTOM
 70
     0
  3
PHANTOM
 72
    65
 73
     6
 40
2.5
 49
1.25
 74
     0
 49
-0.25
 74
     0
 49
0.25
 74
     0
 49
-0.25
 74
     0
 49
0.25
 74
     0
 49
-0.25
 74
     0
  0
LTYPE
  5
157
330
5
100
AcDbSymbolTableRecord
100
AcDbLinetypeTableRecord
  2
$INVISIBLE
 70
     0
  3
$INVISIBLE
 72
    65
 73
     2
 40
200.0
 49
-100.0
 74
     0
 49
-100.0
 74
     0
  0
LTYPE
  5
158
330
5
100
AcDbSymbolTableRecord
100
AcDbLinetypeTableRecord
  2
$MARGINS
 70
     0
  3
$MARGINS
 72
    65
 73
     2
 40
0.075
 49
0.05
 74
     0
 49
-0.025
 74
     0
  0
LTYPE
  5
159
330
5
100
AcDbSymbolTableRecord
100
AcDbLinetypeTableRecord
  2
$AUXILIARY
 70
     0
  3
$AUXILIARY
 72
    65
 73
     2
 40
0.1000000014901161
 49
0.0500000007450581
 74
     0
 49
-0.0500000007450581
 74
     0
  0
LTYPE
  5
15A
330
5
100
AcDbSymbolTableRecord
100
AcDbLinetypeTableRecord
  2
$CONSTRUCTION
 70
     0
  3
$CONSTRUCTION
 72
    65
 73
     4
 40
0.3
 49
0.2
 74
     0
 49
-0.05
 74
     0
 49
0.0
 74
     0
 49
-0.05
 74
     0
  0
LTYPE
  5
15B
330
5
100
AcDbSymbolTableRecord
100
AcDbLinetypeTableRecord
  2
$SNAPEXT
 70
     0
  3
$SNAPEXT
 72
    65
 73
     2
 40
0.04
 49
0.02
 74
     0
 49
-0.02
 74
     0
  0
ENDTAB
  0
TABLE
  2
LAYER
  5
2
330
0
100
AcDbSymbolTable
 70
     5
  0
LAYER
  5
10
330
2
100
AcDbSymbolTableRecord
100
AcDbLayerTableRecord
  2
0
 70
     0
 62
    18
420
        0
  6
Continuous
370
     0
390
F
347
3E
  0
LAYER
  5
15C
330
2
100
AcDbSymbolTableRecord
100
AcDbLayerTableRecord
  2
$CONSTRUCTION
 70
     0
 62
   254
420
 12572888
  6
$CONSTRUCTION
370
     0
390
F
347
3E
  0
LAYER
  5
15D
330
2
100
AcDbSymbolTableRecord
100
AcDbLayerTableRecord
  2
LAYER_0
 70
     0
 62
    18
420
        0
  6
Continuous
370
     0
390
F
347
3E
  0
LAYER
  5
15E
330
2
100
AcDbSymbolTableRecord
100
AcDbLayerTableRecord
  2
LAYER_100
 70
     0
 62
    18
420
        0
  6
Continuous
370
     0
390
F
347
3E
  0
LAYER
  5
15F
330
2
100
AcDbSymbolTableRecord
100
AcDbLayerTableRecord
  2
Defpoints
 70
     0
 62
    18
420
        0
  6
Continuous
290
     0
370
     0
390
F
347
3E
  0
ENDTAB
  0
TABLE
  2
STYLE
  5
3
330
0
100
AcDbSymbolTable
 70
    10
  0
STYLE
  5
11
330
3
100
AcDbSymbolTableRecord
100
AcDbTextStyleTableRecord
  2
Standard
 70
     0
 40
0.0
 41
1.0
 50
0.0
 71
     0
 42
0.1500000059604645
  3
times.ttf
  4

1001
ACAD
1000
Times New Roman
1071
      290
  0
STYLE
  5
164
330
3
100
AcDbSymbolTableRecord
100
AcDbTextStyleTableRecord
  2
Text Style 1
 70
     0
 40
0.0
 41
1.0
 50
0.0
 71
     0
 42
0.1500000059604645
  3

  4

1001
ACAD
1000
Times New Roman
1071
      290
  0
STYLE
  5
165
330
3
100
AcDbSymbolTableRecord
100
AcDbTextStyleTableRecord
  2
Text Style 2
 70
     0
 40
0.0
 41
1.0
 50
0.0
 71
     0
 42
0.1500000059604645
  3

  4

1001
ACAD
1000
Times New Roman
1071
      290
  0
STYLE
  5
20D
330
3
100
AcDbSymbolTableRecord
100
AcDbTextStyleTableRecord
  2
_TCW_TXTSTY_1
 70
     0
 40
16.86062049865723
 41
1.0
 50
0.0
 71
     0
 42
16.86062049865723
  3
arial.ttf
  4

1001
ACAD
1000
Arial
1071
       34
  0
STYLE
  5
211
330
3
100
AcDbSymbolTableRecord
100
AcDbTextStyleTableRecord
  2
_TCW_TXTSTY_2
 70
     0
 40
15.33333396911621
 41
1.0
 50
0.0
 71
     0
 42
15.33333396911621
  3

  4

1001
ACAD
1000
Arial
1071
       34
  0
STYLE
  5
2A0
330
3
100
AcDbSymbolTableRecord
100
AcDbTextStyleTableRecord
  2
_TCW_TXTSTY_3
 70
     0
 40
14.55768394470215
 41
1.0
 50
0.0
 71
     0
 42
14.55768394470215
  3

  4

1001
ACAD
1000
Arial
1071
       34
  0
STYLE
  5
2E8
330
3
100
AcDbSymbolTableRecord
100
AcDbTextStyleTableRecord
  2
_TCW_TXTSTY_4
 70
     0
 40
23.0
 41
1.0
 50
0.0
 71
     0
 42
23.0
  3

  4

1001
ACAD
1000
Arial
1071
       34
  0
STYLE
  5
4A2
330
3
100
AcDbSymbolTableRecord
100
AcDbTextStyleTableRecord
  2
_TCW_TXTSTY_5
 70
     0
 40
23.0
 41
1.0
 50
0.0
 71
     0
 42
23.0
  3

  4

1001
ACAD
1000
Arial
1071
 33554466
  0
STYLE
  5
4A9
330
3
100
AcDbSymbolTableRecord
100
AcDbTextStyleTableRecord
  2
_TCW_TXTSTY_6
 70
     0
 40
19.16666603088379
 41
1.0
 50
0.0
 71
     0
 42
19.16666603088379
  3

  4

1001
ACAD
1000
Arial
1071
       34
  0
STYLE
  5
524
330
3
100
AcDbSymbolTableRecord
100
AcDbTextStyleTableRecord
  2
_TCW_TXTSTY_7
 70
     0
 40
26.83333396911621
 41
1.0
 50
0.0
 71
     0
 42
26.83333396911621
  3

  4

1001
ACAD
1000
Arial
1071
       34
  0
ENDTAB
  0
TABLE
  2
VIEW
  5
6
330
0
100
AcDbSymbolTable
 70
     4
  0
VIEW
  5
160
330
6
100
AcDbSymbolTableRecord
100
AcDbViewTableRecord
  2
View_0
 70
     0
 40
8.267716535433072
 10
5.846456692913386
 20
4.133858267716536
 41
11.69291338582677
 11
0.0
 21
0.0
 31
1.0
 12
0.0
 22
0.0
 32
0.0
 42
50.0
 43
0.0
 44
0.0
 50
0.0
 71
     0
281
     0
 72
     0
 73
     0
  0
VIEW
  5
161
330
6
100
AcDbSymbolTableRecord
100
AcDbViewTableRecord
  2
Margin width bottom
 70
     0
 40
5.712264649569988
 10
5.251354204490781
 20
2.814647857099771
 41
10.58552744612098
 11
0.0
 21
0.0
 31
1.0
 12
0.0
 22
0.0
 32
0.0
 42
50.0
 43
0.0
 44
0.0
 50
0.0
 71
     0
281
     0
 72
     0
 73
     0
  0
VIEW
  5
162
330
6
100
AcDbSymbolTableRecord
100
AcDbViewTableRecord
  2
Margin width top
 70
     0
 40
5.711362838745117
 10
5.248193185776472
 20
5.180384635925293
 41
10.58281818777323
 11
0.0
 21
0.0
 31
1.0
 12
0.0
 22
0.0
 32
0.0
 42
50.0
 43
0.0
 44
0.0
 50
0.0
 71
     0
281
     0
 72
     0
 73
     0
  0
VIEW
  5
163
330
6
100
AcDbSymbolTableRecord
100
AcDbViewTableRecord
  2
View_3
 70
     0
 40
816.0
 10
504.0
 20
384.0
 41
1056.0
 11
0.0
 21
0.0
 31
1.0
 12
0.0
 22
0.0
 32
0.0
 42
50.0
 43
0.0
 44
0.0
 50
0.0
 71
     0
281
     0
 72
     0
 73
     0
  0
ENDTAB
  0
TABLE
  2
UCS
  5
7
330
0
100
AcDbSymbolTable
 70
     0
  0
ENDTAB
  0
TABLE
  2
APPID
  5
9
330
0
100
AcDbSymbolTable
 70
     6
  0
APPID
  5
12
330
9
100
AcDbSymbolTableRecord
100
AcDbRegAppTableRecord
  2
ACAD
 70
     0
  0
APPID
  5
3F
330
9
100
AcDbSymbolTableRecord
100
AcDbRegAppTableRecord
  2
TCAD
 70
     0
  0
APPID
  5
40
330
9
100
AcDbSymbolTableRecord
100
AcDbRegAppTableRecord
  2
AECBASE
 70
     0
  0
APPID
  5
41
330
9
100
AcDbSymbolTableRecord
100
AcDbRegAppTableRecord
  2
AEC_2DSECTION_XDATA
 70
     0
  0
APPID
  5
42
330
9
100
AcDbSymbolTableRecord
100
AcDbRegAppTableRecord
  2
AEC_MASSGROUP_XDADA
 70
     0
  0
APPID
  5
169
330
9
100
AcDbSymbolTableRecord
100
AcDbRegAppTableRecord
  2
ACAD_MLEADERVER
 70
     0
  0
ENDTAB
  0
TABLE
  2
DIMSTYLE
  5
A
330
0
100
AcDbSymbolTable
 70
     1
100
AcDbDimStyleTable
  0
DIMSTYLE
105
27
102
{ACAD_REACTORS
330
2FB
330
30A
330
319
330
329
330
338
330
348
330
358
330
4AF
330
4BF
330
4D5
330
4E5
102
}
330
A
100
AcDbSymbolTableRecord
100
AcDbDimStyleTableRecord
  2
Standard
 70
     0
  3
 "
  4
 "
 41
0.25
 43
0.375
 44
0.125
 45
0.01
 74
     0
 77
     1
 78
     1
140
0.15
141
0.0
143
1.0
147
0.0625
148
0.01
172
     1
179
     2
271
     2
272
     3
276
     2
278
     0
340
11
345
14
346
14
347
14
  0
ENDTAB
  0
TABLE
  2
BLOCK_RECORD
  5
1
330
0
100
AcDbSymbolTable
 70
    14
  0
BLOCK_RECORD
  5
1F
330
1
100
AcDbSymbolTableRecord
100
AcDbBlockTableRecord
  2
*Model_Space
340
22
 70
     0
280
     1
281
     0
  0
BLOCK_RECORD
  5
1B
330
1
100
AcDbSymbolTableRecord
100
AcDbBlockTableRecord
  2
*Paper_Space
340
1E
 70
     0
280
     1
281
     0
  0
BLOCK_RECORD
  5
2F7
330
1
100
AcDbSymbolTableRecord
100
AcDbBlockTableRecord
  2
TC_DIMARROW_FILLED30
340
0
102
{BLKREFS
331
300
331
301
331
30F
331
310
331
31F
331
320
331
32E
331
32F
331
33E
331
33F
331
34E
331
34F
331
35E
331
35F
331
4B5
331
4B6
331
4C5
331
4C6
331
4DB
331
4DC
331
4EA
331
4EB
102
}
 70
     0
280
     1
281
     0
  0
BLOCK_RECORD
  5
2FC
330
1
100
AcDbSymbolTableRecord
100
AcDbBlockTableRecord
  2
*D3
340
0
 70
     0
280
     1
281
     0
  0
BLOCK_RECORD
  5
30B
330
1
100
AcDbSymbolTableRecord
100
AcDbBlockTableRecord
  2
*D4
340
0
 70
     0
280
     1
281
     0
  0
BLOCK_RECORD
  5
31A
330
1
100
AcDbSymbolTableRecord
100
AcDbBlockTableRecord
  2
*D5
340
0
 70
     0
280
     1
281
     0
  0
BLOCK_RECORD
  5
32A
330
1
100
AcDbSymbolTableRecord
100
AcDbBlockTableRecord
  2
*D6
340
0
 70
     0
280
     1
281
     0
  0
BLOCK_RECORD
  5
339
330
1
100
AcDbSymbolTableRecord
100
AcDbBlockTableRecord
  2
*D7
340
0
 70
     0
280
     1
281
     0
  0
BLOCK_RECORD
  5
349
330
1
100
AcDbSymbolTableRecord
100
AcDbBlockTableRecord
  2
*D8
340
0
 70
     0
280
     1
281
     0
  0
BLOCK_RECORD
  5
359
330
1
100
AcDbSymbolTableRecord
100
AcDbBlockTableRecord
  2
*D9
340
0
 70
     0
280
     1
281
     0
  0
BLOCK_RECORD
  5
4B0
330
1
100
AcDbSymbolTableRecord
100
AcDbBlockTableRecord
  2
*D10
340
0
 70
     0
280
     1
281
     0
  0
BLOCK_RECORD
  5
4C0
330
1
100
AcDbSymbolTableRecord
100
AcDbBlockTableRecord
  2
*D11
340
0
 70
     0
280
     1
281
     0
  0
BLOCK_RECORD
  5
4D6
330
1
100
AcDbSymbolTableRecord
100
AcDbBlockTableRecord
  2
*D12
340
0
 70
     0
280
     1
281
     0
  0
BLOCK_RECORD
  5
4E6
330
1
100
AcDbSymbolTableRecord
100
AcDbBlockTableRecord
  2
*D13
340
0
 70
     0
280
     1
281
     0
  0
ENDTAB
  0
ENDSEC
  0
SECTION
  2
BLOCKS
  0
BLOCK
  5
20
330
1F
100
AcDbEntity
  8
0
100
AcDbBlockBegin
  2
*Model_Space
 70
     0
 10
0.0
 20
0.0
 30
0.0
  3
*Model_Space
  1

  0
ENDBLK
  5
21
330
1F
100
AcDbEntity
  8
0
100
AcDbBlockEnd
  0
BLOCK
  5
1C
330
1B
100
AcDbEntity
 67
     1
  8
0
100
AcDbBlockBegin
  2
*Paper_Space
 70
     0
 10
0.0
 20
0.0
 30
0.0
  3
*Paper_Space
  1

  0
ENDBLK
  5
1D
330
1B
100
AcDbEntity
 67
     1
  8
0
100
AcDbBlockEnd
  0
BLOCK
  5
2F9
330
2F7
100
AcDbEntity
  8
0
100
AcDbBlockBegin
  2
TC_DIMARROW_FILLED30
 70
     0
 10
0.0
 20
0.0
 30
0.0
  3
TC_DIMARROW_FILLED30
  1

  0
SOLID
  5
2F8
330
2F7
100
AcDbEntity
  8
0
  6
ByBlock
 62
     0
100
AcDbTrace
 10
0.0
 20
0.0
 30
0.0
 11
-1.0
 21
0.267949
 31
0.0
 12
-1.0
 22
-0.267949
 32
0.0
 13
-1.0
 23
-0.267949
 33
0.0
  0
ENDBLK
  5
2FA
330
2F7
100
AcDbEntity
  8
0
100
AcDbBlockEnd
  0
BLOCK
  5
306
330
2FC
100
AcDbEntity
  8
0
100
AcDbBlockBegin
  2
*D3
 70
     1
 10
0.0
 20
0.0
 30
0.0
  3
*D3
  1

  0
LINE
  5
2FD
330
2FC
100
AcDbEntity
  8
0
  6
ByBlock
 62
     7
370
    -2
100
AcDbLine
 10
2652.508563121587
 20
5082.174982276303
 30
0.0
 11
2652.508563121587
 21
5073.410327516
 31
0.0
  0
LINE
  5
2FE
330
2FC
100
AcDbEntity
  8
0
  6
ByBlock
 62
     7
370
    -2
100
AcDbLine
 10
3107.481266946229
 20
5082.174982292575
 30
0.0
 11
3107.481266946229
 21
5073.410327516
 31
0.0
  0
LINE
  5
2FF
330
2FC
100
AcDbEntity
  8
0
  6
ByBlock
 62
     7
370
    -2
100
AcDbLine
 10
2664.508563121587
 20
5085.410327516
 30
0.0
 11
3095.481266946229
 21
5085.410327516
 31
0.0
  0
INSERT
  5
300
330
2FC
100
AcDbEntity
  8
0
 62
     7
370
    -2
100
AcDbBlockReference
  2
TC_DIMARROW_FILLED30
 10
2652.508563121587
 20
5085.410327516
 30
0.0
 41
12.0
 42
12.0
 43
12.0
 50
180.0
  0
INSERT
  5
301
330
2FC
100
AcDbEntity
  8
0
 62
     7
370
    -2
100
AcDbBlockReference
  2
TC_DIMARROW_FILLED30
 10
3107.481266946229
 20
5085.410327516
 30
0.0
 41
12.0
 42
12.0
 43
12.0
  0
MTEXT
  5
302
330
2FC
100
AcDbEntity
  8
0
 62
     7
370
     0
100
AcDbMText
 10
2879.994915033908
 20
5105.982604268061
 30
0.0
 40
28.57253086419753
 41
0.0
 46
0.0
 71
     5
 72
     1
  1
\A1;37'-10"
 73
     1
 44
1.0
  0
POINT
  5
303
330
2FC
100
AcDbEntity
  8
Defpoints
 62
     0
100
AcDbPoint
 10
2652.508563121587
 20
5088.174982276303
 30
0.0
  0
POINT
  5
304
330
2FC
100
AcDbEntity
  8
Defpoints
 62
     0
100
AcDbPoint
 10
3107.481266946229
 20
5088.174982292575
 30
0.0
  0
POINT
  5
305
330
2FC
100
AcDbEntity
  8
Defpoints
 62
     0
100
AcDbPoint
 10
3107.481266946229
 20
5085.410327516
 30
0.0
  0
ENDBLK
  5
307
330
2FC
100
AcDbEntity
  8
0
100
AcDbBlockEnd
  0
BLOCK
  5
315
330
30B
100
AcDbEntity
  8
0
100
AcDbBlockBegin
  2
*D4
 70
     1
 10
0.0
 20
0.0
 30
0.0
  3
*D4
  1

  0
LINE
  5
30C
330
30B
100
AcDbEntity
  8
0
  6
ByBlock
 62
     7
370
    -2
100
AcDbLine
 10
2063.542849298652
 20
5080.049291046322
 30
0.0
 11
2063.542849298652
 21
5072.46948831685
 31
0.0
  0
LINE
  5
30D
330
30B
100
AcDbEntity
  8
0
  6
ByBlock
 62
     7
370
    -2
100
AcDbLine
 10
1535.786675121846
 20
5080.049291046322
 30
0.0
 11
1535.786675121846
 21
5072.46948831685
 31
0.0
  0
LINE
  5
30E
330
30B
100
AcDbEntity
  8
0
  6
ByBlock
 62
     7
370
    -2
100
AcDbLine
 10
2051.542849298652
 20
5084.46948831685
 30
0.0
 11
1547.786675121846
 21
5084.46948831685
 31
0.0
  0
INSERT
  5
30F
330
30B
100
AcDbEntity
  8
0
 62
     7
370
    -2
100
AcDbBlockReference
  2
TC_DIMARROW_FILLED30
 10
2063.542849298652
 20
5084.46948831685
 30
0.0
 41
12.0
 42
12.0
 43
12.0
  0
INSERT
  5
310
330
30B
100
AcDbEntity
  8
0
 62
     7
370
    -2
100
AcDbBlockReference
  2
TC_DIMARROW_FILLED30
 10
1535.786675121846
 20
5084.46948831685
 30
0.0
 41
12.0
 42
12.0
 43
12.0
 50
180.0
  0
MTEXT
  5
311
330
30B
100
AcDbEntity
  8
0
 62
     7
370
     0
100
AcDbMText
 10
1799.664762210249
 20
5104.998863370917
 30
0.0
 40
28.57253086419753
 41
0.0
 46
0.0
 71
     5
 72
     1
  1
\A1;44'-0"
 73
     1
 44
1.0
  0
POINT
  5
312
330
30B
100
AcDbEntity
  8
Defpoints
 62
     0
100
AcDbPoint
 10
2063.542849298652
 20
5086.049291046322
 30
0.0
  0
POINT
  5
313
330
30B
100
AcDbEntity
  8
Defpoints
 62
     0
100
AcDbPoint
 10
1535.786675121846
 20
5086.049291046322
 30
0.0
  0
POINT
  5
314
330
30B
100
AcDbEntity
  8
Defpoints
 62
     0
100
AcDbPoint
 10
1535.786675121846
 20
5084.46948831685
 30
0.0
  0
ENDBLK
  5
316
330
30B
100
AcDbEntity
  8
0
100
AcDbBlockEnd
  0
BLOCK
  5
325
330
31A
100
AcDbEntity
  8
0
100
AcDbBlockBegin
  2
*D5
 70
     1
 10
0.0
 20
0.0
 30
0.0
  3
*D5
  1

  0
LINE
  5
31B
330
31A
100
AcDbEntity
  8
0
  6
ByBlock
 62
     7
370
    -2
100
AcDbLine
 10
2651.326355982304
 20
5094.207740004909
 30
0.0
 11
2658.906158711776
 21
5094.207740004909
 31
0.0
  0
LINE
  5
31C
330
31A
100
AcDbEntity
  8
0
  6
ByBlock
 62
     7
370
    -2
100
AcDbLine
 10
2651.326355982304
 20
5349.536648553978
 30
0.0
 11
2658.906158711776
 21
5349.536648553978
 31
0.0
  0
LINE
  5
31D
330
31A
100
AcDbEntity
  8
0
  6
ByBlock
 62
     7
370
    -2
100
AcDbLine
 10
2646.906158711776
 20
5106.207740004909
 30
0.0
 11
2646.906158711776
 21
5201.342819225377
 31
0.0
  0
LINE
  5
31E
330
31A
100
AcDbEntity
  8
0
  6
ByBlock
 62
     7
370
    -2
100
AcDbLine
 10
2646.906158711776
 20
5337.536648553978
 30
0.0
 11
2646.906158711776
 21
5242.40156933351
 31
0.0
  0
INSERT
  5
31F
330
31A
100
AcDbEntity
  8
0
 62
     7
370
    -2
100
AcDbBlockReference
  2
TC_DIMARROW_FILLED30
 10
2646.906158711776
 20
5094.207740004909
 30
0.0
 41
12.0
 42
12.0
 43
12.0
 50
270.0
  0
INSERT
  5
320
330
31A
100
AcDbEntity
  8
0
 62
     7
370
    -2
100
AcDbBlockReference
  2
TC_DIMARROW_FILLED30
 10
2646.906158711776
 20
5349.536648553978
 30
0.0
 41
12.0
 42
12.0
 43
12.0
 50
90.0
  0
MTEXT
  5
321
330
31A
100
AcDbEntity
  8
0
 62
     7
370
     0
100
AcDbMText
 10
2646.906158711776
 20
5221.872194279444
 30
0.0
 40
28.57253086419753
 41
0.0
 46
0.0
 71
     5
 72
     1
  1
\A1;21'-3"
 73
     1
 44
1.0
  0
POINT
  5
322
330
31A
100
AcDbEntity
  8
Defpoints
 62
     0
100
AcDbPoint
 10
2645.326355982304
 20
5094.207740004909
 30
0.0
  0
POINT
  5
323
330
31A
100
AcDbEntity
  8
Defpoints
 62
     0
100
AcDbPoint
 10
2645.326355982304
 20
5349.536648553978
 30
0.0
  0
POINT
  5
324
330
31A
100
AcDbEntity
  8
Defpoints
 62
     0
100
AcDbPoint
 10
2646.906158711776
 20
5349.536648553978
 30
0.0
  0
ENDBLK
  5
326
330
31A
100
AcDbEntity
  8
0
100
AcDbBlockEnd
  0
BLOCK
  5
334
330
32A
100
AcDbEntity
  8
0
100
AcDbBlockBegin
  2
*D6
 70
     1
 10
0.0
 20
0.0
 30
0.0
  3
*D6
  1

  0
LINE
  5
32B
330
32A
100
AcDbEntity
  8
0
  6
ByBlock
 62
     7
370
    -2
100
AcDbLine
 10
2075.336804260696
 20
5090.388150693671
 30
0.0
 11
2075.336804260696
 21
5097.178052058407
 31
0.0
  0
LINE
  5
32C
330
32A
100
AcDbEntity
  8
0
  6
ByBlock
 62
     7
370
    -2
100
AcDbLine
 10
2643.585850502642
 20
5090.388150693671
 30
0.0
 11
2643.585850502642
 21
5097.178052058407
 31
0.0
  0
LINE
  5
32D
330
32A
100
AcDbEntity
  8
0
  6
ByBlock
 62
     7
370
    -2
100
AcDbLine
 10
2087.336804260696
 20
5085.178052058407
 30
0.0
 11
2631.585850502642
 21
5085.178052058407
 31
0.0
  0
INSERT
  5
32E
330
32A
100
AcDbEntity
  8
0
 62
     7
370
    -2
100
AcDbBlockReference
  2
TC_DIMARROW_FILLED30
 10
2075.336804260696
 20
5085.178052058407
 30
0.0
 41
12.0
 42
12.0
 43
12.0
 50
180.0
  0
INSERT
  5
32F
330
32A
100
AcDbEntity
  8
0
 62
     7
370
    -2
100
AcDbBlockReference
  2
TC_DIMARROW_FILLED30
 10
2643.585850502642
 20
5085.178052058407
 30
0.0
 41
12.0
 42
12.0
 43
12.0
  0
MTEXT
  5
330
330
32A
100
AcDbEntity
  8
0
 62
     7
370
     0
100
AcDbMText
 10
2359.461327381669
 20
5105.750328810468
 30
0.0
 40
28.57253086419753
 41
0.0
 46
0.0
 71
     5
 72
     1
  1
\A1;47'-4"
 73
     1
 44
1.0
  0
POINT
  5
331
330
32A
100
AcDbEntity
  8
Defpoints
 62
     0
100
AcDbPoint
 10
2075.336804260696
 20
5084.388150693671
 30
0.0
  0
POINT
  5
332
330
32A
100
AcDbEntity
  8
Defpoints
 62
     0
100
AcDbPoint
 10
2643.585850502642
 20
5084.388150693671
 30
0.0
  0
POINT
  5
333
330
32A
100
AcDbEntity
  8
Defpoints
 62
     0
100
AcDbPoint
 10
2643.585850502642
 20
5085.178052058407
 30
0.0
  0
ENDBLK
  5
335
330
32A
100
AcDbEntity
  8
0
100
AcDbBlockEnd
  0
BLOCK
  5
344
330
339
100
AcDbEntity
  8
0
100
AcDbBlockBegin
  2
*D7
 70
     1
 10
0.0
 20
0.0
 30
0.0
  3
*D7
  1

  0
LINE
  5
33A
330
339
100
AcDbEntity
  8
0
  6
ByBlock
 62
     7
370
    -2
100
AcDbLine
 10
2073.440610235428
 20
5092.779748315668
 30
0.0
 11
2081.0204129649
 21
5092.779748315668
 31
0.0
  0
LINE
  5
33B
330
339
100
AcDbEntity
  8
0
  6
ByBlock
 62
     7
370
    -2
100
AcDbLine
 10
2075.0204129649
 20
5659.595659943368
 30
0.0
 11
2081.0204129649
 21
5659.595659943368
 31
0.0
  0
LINE
  5
33C
330
339
100
AcDbEntity
  8
0
  6
ByBlock
 62
     7
370
    -2
100
AcDbLine
 10
2069.0204129649
 20
5104.779748315668
 30
0.0
 11
2069.0204129649
 21
5355.615427377456
 31
0.0
  0
LINE
  5
33D
330
339
100
AcDbEntity
  8
0
  6
ByBlock
 62
     7
370
    -2
100
AcDbLine
 10
2069.0204129649
 20
5647.595659943368
 30
0.0
 11
2069.0204129649
 21
5396.759980881578
 31
0.0
  0
INSERT
  5
33E
330
339
100
AcDbEntity
  8
0
 62
     7
370
    -2
100
AcDbBlockReference
  2
TC_DIMARROW_FILLED30
 10
2069.0204129649
 20
5092.779748315668
 30
0.0
 41
12.0
 42
12.0
 43
12.0
 50
270.0
  0
INSERT
  5
33F
330
339
100
AcDbEntity
  8
0
 62
     7
370
    -2
100
AcDbBlockReference
  2
TC_DIMARROW_FILLED30
 10
2069.0204129649
 20
5659.595659943368
 30
0.0
 41
12.0
 42
12.0
 43
12.0
 50
90.0
  0
MTEXT
  5
340
330
339
100
AcDbEntity
  8
0
 62
     7
370
     0
100
AcDbMText
 10
2069.0204129649
 20
5376.187704129517
 30
0.0
 40
28.57253086419753
 41
0.0
 46
0.0
 71
     5
 72
     1
  1
\A1;47'-2"
 73
     1
 44
1.0
  0
POINT
  5
341
330
339
100
AcDbEntity
  8
Defpoints
 62
     0
100
AcDbPoint
 10
2067.440610235428
 20
5092.779748315668
 30
0.0
  0
POINT
  5
342
330
339
100
AcDbEntity
  8
Defpoints
 62
     0
100
AcDbPoint
 10
2069.0204129649
 20
5659.595659943368
 30
0.0
  0
POINT
  5
343
330
339
100
AcDbEntity
  8
Defpoints
 62
     0
100
AcDbPoint
 10
2069.0204129649
 20
5659.595659943368
 30
0.0
  0
ENDBLK
  5
345
330
339
100
AcDbEntity
  8
0
100
AcDbBlockEnd
  0
BLOCK
  5
354
330
349
100
AcDbEntity
  8
0
100
AcDbBlockBegin
  2
*D8
 70
     1
 10
0.0
 20
0.0
 30
0.0
  3
*D8
  1

  0
LINE
  5
34A
330
349
100
AcDbEntity
  8
0
  6
ByBlock
 62
     7
370
    -2
100
AcDbLine
 10
2648.799502712024
 20
5081.899661955042
 30
0.0
 11
2658.106732080827
 21
5081.899661955042
 31
0.0
  0
LINE
  5
34B
330
349
100
AcDbEntity
  8
0
  6
ByBlock
 62
     7
370
    -2
100
AcDbLine
 10
2648.799502712024
 20
4514.462755315326
 30
0.0
 11
2658.106732080827
 21
4514.462755315326
 31
0.0
  0
LINE
  5
34C
330
349
100
AcDbEntity
  8
0
  6
ByBlock
 62
     7
370
    -2
100
AcDbLine
 10
2646.106732080827
 20
5069.899661955042
 30
0.0
 11
2646.106732080827
 21
4818.753485387245
 31
0.0
  0
LINE
  5
34D
330
349
100
AcDbEntity
  8
0
  6
ByBlock
 62
     7
370
    -2
100
AcDbLine
 10
2646.106732080827
 20
4526.462755315326
 30
0.0
 11
2646.106732080827
 21
4777.608931883123
 31
0.0
  0
INSERT
  5
34E
330
349
100
AcDbEntity
  8
0
 62
     7
370
    -2
100
AcDbBlockReference
  2
TC_DIMARROW_FILLED30
 10
2646.106732080827
 20
5081.899661955042
 30
0.0
 41
12.0
 42
12.0
 43
12.0
 50
90.0
  0
INSERT
  5
34F
330
349
100
AcDbEntity
  8
0
 62
     7
370
    -2
100
AcDbBlockReference
  2
TC_DIMARROW_FILLED30
 10
2646.106732080827
 20
4514.462755315326
 30
0.0
 41
12.0
 42
12.0
 43
12.0
 50
270.0
  0
MTEXT
  5
350
330
349
100
AcDbEntity
  8
0
 62
     7
370
     0
100
AcDbMText
 10
2646.106732080827
 20
4798.181208635184
 30
0.0
 40
28.57253086419753
 41
0.0
 46
0.0
 71
     5
 72
     1
  1
\A1;47'-4"
 73
     1
 44
1.0
  0
POINT
  5
351
330
349
100
AcDbEntity
  8
Defpoints
 62
     0
100
AcDbPoint
 10
2642.799502712024
 20
5081.899661955042
 30
0.0
  0
POINT
  5
352
330
349
100
AcDbEntity
  8
Defpoints
 62
     0
100
AcDbPoint
 10
2642.799502712024
 20
4514.462755315326
 30
0.0
  0
POINT
  5
353
330
349
100
AcDbEntity
  8
Defpoints
 62
     0
100
AcDbPoint
 10
2646.106732080827
 20
4514.462755315326
 30
0.0
  0
ENDBLK
  5
355
330
349
100
AcDbEntity
  8
0
100
AcDbBlockEnd
  0
BLOCK
  5
364
330
359
100
AcDbEntity
  8
0
100
AcDbBlockBegin
  2
*D9
 70
     1
 10
0.0
 20
0.0
 30
0.0
  3
*D9
  1

  0
LINE
  5
35A
330
359
100
AcDbEntity
  8
0
  6
ByBlock
 62
     7
370
    -2
100
AcDbLine
 10
2643.01124089191
 20
4502.039648532902
 30
0.0
 11
2634.641536797703
 21
4502.039648532902
 31
0.0
  0
LINE
  5
35B
330
359
100
AcDbEntity
  8
0
  6
ByBlock
 62
     7
370
    -2
100
AcDbLine
 10
2643.01124089191
 20
4053.214864657228
 30
0.0
 11
2634.641536797703
 21
4053.214864657228
 31
0.0
  0
LINE
  5
35C
330
359
100
AcDbEntity
  8
0
  6
ByBlock
 62
     7
370
    -2
100
AcDbLine
 10
2646.641536797703
 20
4490.039648532902
 30
0.0
 11
2646.641536797703
 21
4298.199533347126
 31
0.0
  0
LINE
  5
35D
330
359
100
AcDbEntity
  8
0
  6
ByBlock
 62
     7
370
    -2
100
AcDbLine
 10
2646.641536797703
 20
4065.214864657228
 30
0.0
 11
2646.641536797703
 21
4257.054979843004
 31
0.0
  0
INSERT
  5
35E
330
359
100
AcDbEntity
  8
0
 62
     7
370
    -2
100
AcDbBlockReference
  2
TC_DIMARROW_FILLED30
 10
2646.641536797703
 20
4502.039648532902
 30
0.0
 41
12.0
 42
12.0
 43
12.0
 50
90.0
  0
INSERT
  5
35F
330
359
100
AcDbEntity
  8
0
 62
     7
370
    -2
100
AcDbBlockReference
  2
TC_DIMARROW_FILLED30
 10
2646.641536797703
 20
4053.214864657228
 30
0.0
 41
12.0
 42
12.0
 43
12.0
 50
270.0
  0
MTEXT
  5
360
330
359
100
AcDbEntity
  8
0
 62
     7
370
     0
100
AcDbMText
 10
2646.641536797703
 20
4277.627256595065
 30
0.0
 40
28.57253086419753
 41
0.0
 46
0.0
 71
     5
 72
     1
  1
\A1;37'-6"
 73
     1
 44
1.0
  0
POINT
  5
361
330
359
100
AcDbEntity
  8
Defpoints
 62
     0
100
AcDbPoint
 10
2649.01124089191
 20
4502.039648532902
 30
0.0
  0
POINT
  5
362
330
359
100
AcDbEntity
  8
Defpoints
 62
     0
100
AcDbPoint
 10
2649.01124089191
 20
4053.214864657228
 30
0.0
  0
POINT
  5
363
330
359
100
AcDbEntity
  8
Defpoints
 62
     0
100
AcDbPoint
 10
2646.641536797703
 20
4053.214864657228
 30
0.0
  0
ENDBLK
  5
365
330
359
100
AcDbEntity
  8
0
100
AcDbBlockEnd
  0
BLOCK
  5
4BB
330
4B0
100
AcDbEntity
  8
0
100
AcDbBlockBegin
  2
*D10
 70
     1
 10
0.0
 20
0.0
 30
0.0
  3
*D10
  1

  0
LINE
  5
4B1
330
4B0
100
AcDbEntity
  8
0
  6
ByBlock
 62
     7
370
    -2
100
AcDbLine
 10
3140.797775575993
 20
4486.09522525493
 30
0.0
 11
3133.22574549831
 21
4486.09522525493
 31
0.0
  0
LINE
  5
4B2
330
4B0
100
AcDbEntity
  8
0
  6
ByBlock
 62
     7
370
    -2
100
AcDbLine
 10
3140.797775575993
 20
4244.805042796513
 30
0.0
 11
3133.22574549831
 21
4244.805042796513
 31
0.0
  0
LINE
  5
4B3
330
4B0
100
AcDbEntity
  8
0
  6
ByBlock
 62
     7
370
    -2
100
AcDbLine
 10
3145.22574549831
 20
4474.09522525493
 30
0.0
 11
3145.22574549831
 21
4385.979509079788
 31
0.0
  0
LINE
  5
4B4
330
4B0
100
AcDbEntity
  8
0
  6
ByBlock
 62
     7
370
    -2
100
AcDbLine
 10
3145.22574549831
 20
4256.805042796513
 30
0.0
 11
3145.22574549831
 21
4344.920758971654
 31
0.0
  0
INSERT
  5
4B5
330
4B0
100
AcDbEntity
  8
0
 62
     7
370
    -2
100
AcDbBlockReference
  2
TC_DIMARROW_FILLED30
 10
3145.22574549831
 20
4486.09522525493
 30
0.0
 41
12.0
 42
12.0
 43
12.0
 50
90.0
  0
INSERT
  5
4B6
330
4B0
100
AcDbEntity
  8
0
 62
     7
370
    -2
100
AcDbBlockReference
  2
TC_DIMARROW_FILLED30
 10
3145.22574549831
 20
4244.805042796513
 30
0.0
 41
12.0
 42
12.0
 43
12.0
 50
270.0
  0
MTEXT
  5
4B7
330
4B0
100
AcDbEntity
  8
0
 62
     7
370
     0
100
AcDbMText
 10
3145.22574549831
 20
4365.450134025721
 30
0.0
 40
28.57253086419753
 41
0.0
 46
0.0
 71
     5
 72
     1
  1
\A1;20'-0"
 73
     1
 44
1.0
  0
POINT
  5
4B8
330
4B0
100
AcDbEntity
  8
Defpoints
 62
     0
100
AcDbPoint
 10
3146.797775575993
 20
4486.09522525493
 30
0.0
  0
POINT
  5
4B9
330
4B0
100
AcDbEntity
  8
Defpoints
 62
     0
100
AcDbPoint
 10
3146.797775575993
 20
4244.805042796513
 30
0.0
  0
POINT
  5
4BA
330
4B0
100
AcDbEntity
  8
Defpoints
 62
     0
100
AcDbPoint
 10
3145.22574549831
 20
4244.805042796513
 30
0.0
  0
ENDBLK
  5
4BC
330
4B0
100
AcDbEntity
  8
0
100
AcDbBlockEnd
  0
BLOCK
  5
4CB
330
4C0
100
AcDbEntity
  8
0
100
AcDbBlockBegin
  2
*D11
 70
     1
 10
0.0
 20
0.0
 30
0.0
  3
*D11
  1

  0
LINE
  5
4C1
330
4C0
100
AcDbEntity
  8
0
  6
ByBlock
 62
     7
370
    -2
100
AcDbLine
 10
3144.006007670675
 20
5325.028268876436
 30
0.0
 11
3136.433977592993
 21
5325.028268876436
 31
0.0
  0
LINE
  5
4C2
330
4C0
100
AcDbEntity
  8
0
  6
ByBlock
 62
     7
370
    -2
100
AcDbLine
 10
3144.006007670675
 20
5083.738086418019
 30
0.0
 11
3136.433977592993
 21
5083.738086418019
 31
0.0
  0
LINE
  5
4C3
330
4C0
100
AcDbEntity
  8
0
  6
ByBlock
 62
     7
370
    -2
100
AcDbLine
 10
3148.433977592993
 20
5313.028268876436
 30
0.0
 11
3148.433977592993
 21
5224.912552701294
 31
0.0
  0
LINE
  5
4C4
330
4C0
100
AcDbEntity
  8
0
  6
ByBlock
 62
     7
370
    -2
100
AcDbLine
 10
3148.433977592993
 20
5095.738086418019
 30
0.0
 11
3148.433977592993
 21
5183.85380259316
 31
0.0
  0
INSERT
  5
4C5
330
4C0
100
AcDbEntity
  8
0
 62
     7
370
    -2
100
AcDbBlockReference
  2
TC_DIMARROW_FILLED30
 10
3148.433977592993
 20
5325.028268876436
 30
0.0
 41
12.0
 42
12.0
 43
12.0
 50
90.0
  0
INSERT
  5
4C6
330
4C0
100
AcDbEntity
  8
0
 62
     7
370
    -2
100
AcDbBlockReference
  2
TC_DIMARROW_FILLED30
 10
3148.433977592993
 20
5083.738086418019
 30
0.0
 41
12.0
 42
12.0
 43
12.0
 50
270.0
  0
MTEXT
  5
4C7
330
4C0
100
AcDbEntity
  8
0
 62
     7
370
     0
100
AcDbMText
 10
3148.433977592993
 20
5204.383177647227
 30
0.0
 40
28.57253086419753
 41
0.0
 46
0.0
 71
     5
 72
     1
  1
\A1;20'-0"
 73
     1
 44
1.0
  0
POINT
  5
4C8
330
4C0
100
AcDbEntity
  8
Defpoints
 62
     0
100
AcDbPoint
 10
3150.006007670675
 20
5325.028268876436
 30
0.0
  0
POINT
  5
4C9
330
4C0
100
AcDbEntity
  8
Defpoints
 62
     0
100
AcDbPoint
 10
3150.006007670675
 20
5083.738086418019
 30
0.0
  0
POINT
  5
4CA
330
4C0
100
AcDbEntity
  8
Defpoints
 62
     0
100
AcDbPoint
 10
3148.433977592993
 20
5083.738086418019
 30
0.0
  0
ENDBLK
  5
4CC
330
4C0
100
AcDbEntity
  8
0
100
AcDbBlockEnd
  0
BLOCK
  5
4E1
330
4D6
100
AcDbEntity
  8
0
100
AcDbBlockBegin
  2
*D12
 70
     1
 10
0.0
 20
0.0
 30
0.0
  3
*D12
  1

  0
LINE
  5
4D7
330
4D6
100
AcDbEntity
  8
0
  6
ByBlock
 62
     7
370
    -2
100
AcDbLine
 10
1397.635927361242
 20
5027.516520787985
 30
0.0
 11
1406.943156730045
 21
5027.516520787985
 31
0.0
  0
LINE
  5
4D8
330
4D6
100
AcDbEntity
  8
0
  6
ByBlock
 62
     7
370
    -2
100
AcDbLine
 10
1397.635927361242
 20
4549.626195205988
 30
0.0
 11
1406.943156730045
 21
4549.626195205988
 31
0.0
  0
LINE
  5
4D9
330
4D6
100
AcDbEntity
  8
0
  6
ByBlock
 62
     7
370
    -2
100
AcDbLine
 10
1394.943156730045
 20
5015.516520787985
 30
0.0
 11
1394.943156730045
 21
4809.100733051053
 31
0.0
  0
LINE
  5
4DA
330
4D6
100
AcDbEntity
  8
0
  6
ByBlock
 62
     7
370
    -2
100
AcDbLine
 10
1394.943156730045
 20
4561.626195205988
 30
0.0
 11
1394.943156730045
 21
4768.041982942919
 31
0.0
  0
INSERT
  5
4DB
330
4D6
100
AcDbEntity
  8
0
 62
     7
370
    -2
100
AcDbBlockReference
  2
TC_DIMARROW_FILLED30
 10
1394.943156730045
 20
5027.516520787985
 30
0.0
 41
12.0
 42
12.0
 43
12.0
 50
90.0
  0
INSERT
  5
4DC
330
4D6
100
AcDbEntity
  8
0
 62
     7
370
    -2
100
AcDbBlockReference
  2
TC_DIMARROW_FILLED30
 10
1394.943156730045
 20
4549.626195205988
 30
0.0
 41
12.0
 42
12.0
 43
12.0
 50
270.0
  0
MTEXT
  5
4DD
330
4D6
100
AcDbEntity
  8
0
 62
     7
370
     0
100
AcDbMText
 10
1394.943156730045
 20
4788.571357996986
 30
0.0
 40
28.57253086419753
 41
0.0
 46
0.0
 71
     5
 72
     1
  1
\A1;40'-0"
 73
     1
 44
1.0
  0
POINT
  5
4DE
330
4D6
100
AcDbEntity
  8
Defpoints
 62
     0
100
AcDbPoint
 10
1391.635927361242
 20
5027.516520787985
 30
0.0
  0
POINT
  5
4DF
330
4D6
100
AcDbEntity
  8
Defpoints
 62
     0
100
AcDbPoint
 10
1391.635927361242
 20
4549.626195205988
 30
0.0
  0
POINT
  5
4E0
330
4D6
100
AcDbEntity
  8
Defpoints
 62
     0
100
AcDbPoint
 10
1394.943156730045
 20
4549.626195205988
 30
0.0
  0
ENDBLK
  5
4E2
330
4D6
100
AcDbEntity
  8
0
100
AcDbBlockEnd
  0
BLOCK
  5
4F0
330
4E6
100
AcDbEntity
  8
0
100
AcDbBlockBegin
  2
*D13
 70
     1
 10
0.0
 20
0.0
 30
0.0
  3
*D13
  1

  0
LINE
  5
4E7
330
4E6
100
AcDbEntity
  8
0
  6
ByBlock
 62
     7
370
    -2
100
AcDbLine
 10
1921.21494100706
 20
5682.388249754599
 30
0.0
 11
1921.21494100706
 21
5674.808447025128
 31
0.0
  0
LINE
  5
4E8
330
4E6
100
AcDbEntity
  8
0
  6
ByBlock
 62
     7
370
    -2
100
AcDbLine
 10
1783.772103452921
 20
5682.388249754599
 30
0.0
 11
1783.772103452921
 21
5674.808447025128
 31
0.0
  0
LINE
  5
4E9
330
4E6
100
AcDbEntity
  8
0
  6
ByBlock
 62
     7
370
    -2
100
AcDbLine
 10
1909.21494100706
 20
5686.808447025128
 30
0.0
 11
1795.772103452921
 21
5686.808447025128
 31
0.0
  0
INSERT
  5
4EA
330
4E6
100
AcDbEntity
  8
0
 62
     7
370
    -2
100
AcDbBlockReference
  2
TC_DIMARROW_FILLED30
 10
1921.21494100706
 20
5686.808447025128
 30
0.0
 41
12.0
 42
12.0
 43
12.0
  0
INSERT
  5
4EB
330
4E6
100
AcDbEntity
  8
0
 62
     7
370
    -2
100
AcDbBlockReference
  2
TC_DIMARROW_FILLED30
 10
1783.772103452921
 20
5686.808447025128
 30
0.0
 41
12.0
 42
12.0
 43
12.0
 50
180.0
  0
MTEXT
  5
4EC
330
4E6
100
AcDbEntity
  8
0
 62
     7
370
     0
100
AcDbMText
 10
1852.493522229991
 20
5707.337822079195
 30
0.0
 40
28.57253086419753
 41
0.0
 46
0.0
 71
     5
 72
     1
  1
\A1;11'-6"
 73
     1
 44
1.0
  0
POINT
  5
4ED
330
4E6
100
AcDbEntity
  8
Defpoints
 62
     0
100
AcDbPoint
 10
1921.21494100706
 20
5688.388249754599
 30
0.0
  0
POINT
  5
4EE
330
4E6
100
AcDbEntity
  8
Defpoints
 62
     0
100
AcDbPoint
 10
1783.772103452921
 20
5688.388249754599
 30
0.0
  0
POINT
  5
4EF
330
4E6
100
AcDbEntity
  8
Defpoints
 62
     0
100
AcDbPoint
 10
1783.772103452921
 20
5686.808447025128
 30
0.0
  0
ENDBLK
  5
4F1
330
4E6
100
AcDbEntity
  8
0
100
AcDbBlockEnd
  0
ENDSEC
  0
SECTION
  2
ENTITIES
  0
LWPOLYLINE
  5
17B
330
1F
100
AcDbEntity
  8
0
  6
Continuous
 62
     7
370
     0
100
AcDbPolyline
 90
        2
 70
   128
 43
0.0
 10
1426.644874069788
 20
5026.784393615297
 10
1426.590488764708
 20
5361.037584575117
  0
LWPOLYLINE
  5
17C
330
1F
100
AcDbEntity
  8
0
  6
Continuous
 62
     7
370
     0
100
AcDbPolyline
 90
        2
 70
   128
 43
0.0
 10
1426.589011436143
 20
5370.117276159968
 10
1426.587039644726
 20
5382.235946531919
  0
LWPOLYLINE
  5
17D
330
1F
100
AcDbEntity
  8
0
  6
Continuous
 62
     7
370
     0
100
AcDbPolyline
 90
        2
 70
   128
 43
0.0
 10
1426.585575282532
 20
5391.235946531919
 10
1426.544661704822
 20
5642.691632025565
  0
LWPOLYLINE
  5
17E
330
1F
100
AcDbEntity
  8
0
  6
Continuous
 62
     7
370
     0
100
AcDbPolyline
 90
        2
 70
   128
 43
0.0
 10
1426.543184376256
 20
5651.771323610416
 10
1426.541479773344
 20
5662.24785448169
  0
LWPOLYLINE
  5
17F
330
1F
100
AcDbEntity
  8
0
  6
Continuous
 62
     7
370
     0
100
AcDbPolyline
 90
        2
 70
   128
 43
0.0
 10
1435.541479892475
 20
5662.24785448169
 10
1435.543184497505
 20
5651.771323610416
  0
LWPOLYLINE
  5
180
330
1F
100
AcDbEntity
  8
0
  6
Continuous
 62
     7
370
     0
100
AcDbPolyline
 90
        2
 70
   128
 43
0.0
 10
1435.544661826072
 20
5642.691632025565
 10
1435.6199755415
 20
5179.811996469935
  0
LWPOLYLINE
  5
181
330
1F
100
AcDbEntity
  8
0
  6
Continuous
 62
     7
370
     0
100
AcDbPolyline
 90
        2
 70
   129
 43
0.0
 10
1435.621452870066
 20
5170.732304885083
 10
1435.644874188919
 20
5026.784393615297
  0
LWPOLYLINE
  5
182
330
1F
100
AcDbEntity
  8
0
  6
Continuous
 62
     7
370
     0
100
AcDbPolyline
 90
        4
 70
   128
 43
0.0
 10
1426.804802747839
 20
4043.859466987108
 10
1426.722535287891
 20
4549.476958603398
 10
1435.722535407021
 20
4549.476958603398
 10
1435.723344912272
 20
4544.50172315952
  0
LWPOLYLINE
  5
183
330
1F
100
AcDbEntity
  8
0
  6
Continuous
 62
     7
370
     0
100
AcDbPolyline
 90
        2
 70
   128
 43
0.0
 10
1435.724809274525
 20
4535.50172315952
 10
1435.748614264079
 20
4389.195776196397
  0
LWPOLYLINE
  5
184
330
1F
100
AcDbEntity
  8
0
  6
Continuous
 62
     7
370
     0
100
AcDbPolyline
 90
        2
 70
   128
 43
0.0
 10
1435.750091592647
 20
4380.116084611544
 10
1435.803338375407
 20
4052.860262087501
  0
LWPOLYLINE
  5
187
102
{ACAD_XDICTIONARY
360
185
102
}
330
1F
100
AcDbEntity
  8
0
  6
Continuous
 62
     7
370
     0
100
AcDbPolyline
 90
        4
 70
   129
 43
0.0
 10
1426.30294593422
 20
4315.408302894397
 10
1426.30294593422
 20
4555.96321832747
 10
1421.491847625559
 20
4555.96321832747
 10
1421.491847625559
 20
4315.408302894397
  0
LWPOLYLINE
  5
18A
102
{ACAD_XDICTIONARY
360
188
102
}
330
1F
100
AcDbEntity
  8
0
  6
Continuous
 62
     7
370
     0
100
AcDbPolyline
 90
        4
 70
   129
 43
0.0
 10
1426.30294593422
 20
5014.421720709171
 10
1426.30294593422
 20
5254.976636142244
 10
1421.491847625559
 20
5254.976636142244
 10
1421.491847625559
 20
5014.421720709171
  0
LWPOLYLINE
  5
18B
330
1F
100
AcDbEntity
  8
0
  6
Continuous
 62
     7
370
     0
100
AcDbPolyline
 90
        4
 70
   128
 43
0.0
 10
3107.696513350823
 20
4053.007958200951
 10
3107.696513350823
 20
4244.743321416593
 10
3116.696513350823
 20
4244.743321416593
 10
3116.696513350823
 20
4053.008753267402
  0
LWPOLYLINE
  5
18C
330
1F
100
AcDbEntity
  8
0
  6
Continuous
 62
     7
370
     0
100
AcDbPolyline
 90
        4
 70
   128
 43
0.0
 10
3107.696513350823
 20
4486.094837236907
 10
3107.696513350823
 20
4941.421465680475
 10
3116.696513350823
 20
4941.421465680475
 10
3116.696513350823
 20
4935.638103545128
  0
LWPOLYLINE
  5
18D
330
1F
100
AcDbEntity
  8
0
  6
Continuous
 62
     7
370
     0
100
AcDbPolyline
 90
        2
 70
   129
 43
0.0
 10
3116.696513350823
 20
4929.638103545128
 10
3116.696513350823
 20
4486.094837236907
  0
LWPOLYLINE
  5
18E
330
1F
100
AcDbEntity
  8
0
  6
Continuous
 62
     7
370
     0
100
AcDbPolyline
 90
        4
 70
   128
 43
0.0
 10
3107.696513350823
 20
4978.273398080254
 10
3107.696513350823
 20
5086.418544317202
 10
3116.696513350823
 20
5086.418544317202
 10
3116.696513350823
 20
4989.865817537307
  0
LWPOLYLINE
  5
18F
330
1F
100
AcDbEntity
  8
0
  6
Continuous
 62
     7
370
     0
100
AcDbPolyline
 90
        2
 70
   129
 43
0.0
 10
3116.696513350823
 20
4983.865817537308
 10
3116.696513350823
 20
4978.273398080254
  0
LWPOLYLINE
  5
190
330
1F
100
AcDbEntity
  8
0
  6
Continuous
 62
     7
370
     0
100
AcDbPolyline
 90
        2
 70
   128
 43
0.0
 10
3107.696513350823
 20
5327.770060137518
 10
3107.696513350823
 20
5346.37412127618
  0
LWPOLYLINE
  5
191
330
1F
100
AcDbEntity
  8
0
  6
Continuous
 62
     7
370
     0
100
AcDbPolyline
 90
        2
 70
   128
 43
0.0
 10
3107.696513350823
 20
5358.469548868607
 10
3107.696513350823
 20
5659.806489297994
  0
LWPOLYLINE
  5
192
330
1F
100
AcDbEntity
  8
0
  6
Continuous
 62
     7
370
     0
100
AcDbPolyline
 90
        2
 70
   128
 43
0.0
 10
3107.696513350823
 20
5671.247854481691
 10
3107.696513350823
 20
5765.217102810268
  0
LWPOLYLINE
  5
193
330
1F
100
AcDbEntity
  8
0
  6
Continuous
 62
     7
370
     0
100
AcDbPolyline
 90
        3
 70
   128
 43
0.0
 10
3116.696513350823
 20
5765.217102810268
 10
3116.696513350823
 20
5327.770060137518
 10
3107.696513350823
 20
5327.770060137518
  0
LWPOLYLINE
  5
194
330
1F
100
AcDbEntity
  8
0
  6
Continuous
 62
     7
370
     0
100
AcDbPolyline
 90
        2
 70
   128
 43
0.0
 10
1530.057063087037
 20
5371.544812624487
 10
1705.886639734215
 20
5371.544812624487
  0
LWPOLYLINE
  5
195
330
1F
100
AcDbEntity
  8
0
  6
Continuous
 62
     7
370
     0
100
AcDbPolyline
 90
        2
 70
   128
 43
0.0
 10
1714.886639734215
 20
5362.544812624487
 10
1530.057063087037
 20
5362.544812624487
  0
LWPOLYLINE
  5
196
330
1F
100
AcDbEntity
  8
0
  6
Continuous
 62
     7
370
     0
100
AcDbPolyline
 90
        2
 70
   128
 43
0.0
 10
1705.886639734215
 20
5657.25259947351
 10
1705.886639734215
 20
5661.627778151085
  0
LWPOLYLINE
  5
197
330
1F
100
AcDbEntity
  8
0
  6
Continuous
 62
     7
370
     0
100
AcDbPolyline
 90
        2
 70
   129
 43
0.0
 10
1714.886639734215
 20
5661.627778151085
 10
1714.886639734215
 20
5657.25259947351
  0
LWPOLYLINE
  5
198
330
1F
100
AcDbEntity
  8
0
  6
Continuous
 62
     7
370
     0
100
AcDbPolyline
 90
        4
 70
   128
 43
0.0
 10
1705.886639734215
 20
5371.544812624488
 10
1705.886639734215
 20
5547.313711134855
 10
1714.886639734215
 20
5547.313711134855
 10
1714.886639734215
 20
5362.544812624488
  0
LWPOLYLINE
  5
199
330
1F
100
AcDbEntity
  8
0
  6
Continuous
 62
     7
370
     0
100
AcDbPolyline
 90
        4
 70
   129
 43
0.0
 10
1705.886639734215
 20
5613.76175504741
 10
1705.886639734215
 20
5621.25259947351
 10
1714.886639734215
 20
5621.25259947351
 10
1714.886639734215
 20
5613.76175504741
  0
LWPOLYLINE
  5
19A
330
1F
100
AcDbEntity
  8
0
  6
Continuous
 62
     7
370
     0
100
AcDbPolyline
 90
        2
 70
   128
 43
0.0
 10
2842.243240048988
 20
4052.984507868488
 10
3107.696513350823
 20
4053.007958200951
  0
LWPOLYLINE
  5
19B
330
1F
100
AcDbEntity
  8
0
  6
Continuous
 62
     7
370
     0
100
AcDbPolyline
 90
        2
 70
   128
 43
0.0
 10
3116.696513350823
 20
4053.008753267402
 10
3159.264565090357
 20
4053.01251375961
  0
LWPOLYLINE
  5
19C
330
1F
100
AcDbEntity
  8
0
  6
Continuous
 62
     7
370
     0
100
AcDbPolyline
 90
        3
 70
   128
 43
0.0
 10
3168.382257289383
 20
4044.013319187957
 10
2842.243240048988
 20
4043.98450783337
 10
2842.243240048988
 20
4052.984507868488
  0
LWPOLYLINE
  5
19D
330
1F
100
AcDbEntity
  8
0
  6
Continuous
 62
     7
370
     0
100
AcDbPolyline
 90
        2
 70
   128
 43
0.0
 10
1435.804789290539
 20
4052.860262087495
 10
1521.072260229884
 20
4052.86779467701
  0
LWPOLYLINE
  5
19E
330
1F
100
AcDbEntity
  8
0
  6
Continuous
 62
     7
370
     0
100
AcDbPolyline
 90
        4
 70
   128
 43
0.0
 10
1530.073711381137
 20
4052.868589871658
 10
1723.507920881577
 20
4052.88567798839
 10
1723.507920881577
 20
4043.885677953271
 10
1426.804802747846
 20
4043.859466987114
  0
LWPOLYLINE
  5
19F
330
1F
100
AcDbEntity
  8
0
  6
Continuous
 62
     7
370
     0
100
AcDbPolyline
 90
        4
 70
   129
 43
0.0
 10
1760.115752009232
 20
4052.888911950435
 10
2805.472707449654
 20
4052.981259533278
 10
2805.472707449654
 20
4043.98125949816
 10
1760.115752009232
 20
4043.888911915317
  0
LWPOLYLINE
  5
1A0
330
1F
100
AcDbEntity
  8
0
  6
Continuous
 62
     7
370
     0
100
AcDbPolyline
 90
        2
 70
   128
 43
0.0
 10
1521.057063087037
 20
4052.86779467701
 10
1521.057063087037
 20
4376.967079922964
  0
LWPOLYLINE
  5
1A1
330
1F
100
AcDbEntity
  8
0
  6
Continuous
 62
     7
370
     0
100
AcDbPolyline
 90
        2
 70
   128
 43
0.0
 10
1521.057063087037
 20
4385.967079922964
 10
1521.057063087037
 20
4535.50172315952
  0
LWPOLYLINE
  5
1A2
330
1F
100
AcDbEntity
  8
0
  6
Continuous
 62
     7
370
     0
100
AcDbPolyline
 90
        4
 70
   128
 43
0.0
 10
1521.057063087037
 20
4544.50172315952
 10
1521.057063087037
 20
4549.36571130938
 10
1530.057063087037
 20
4549.36571130938
 10
1530.057063087037
 20
4052.868589871658
  0
LWPOLYLINE
  5
1A3
330
1F
100
AcDbEntity
  8
0
  6
Continuous
 62
     7
370
     0
100
AcDbPolyline
 90
        2
 70
   128
 43
0.0
 10
1521.057063087037
 20
5026.669874133278
 10
1521.057063087037
 20
5160.644137228853
  0
LWPOLYLINE
  5
1A4
330
1F
100
AcDbEntity
  8
0
  6
Continuous
 62
     7
370
     0
100
AcDbPolyline
 90
        2
 70
   128
 43
0.0
 10
1521.057063087037
 20
5169.644137228853
 10
1521.057063087037
 20
5353.125969475649
  0
LWPOLYLINE
  5
1A5
330
1F
100
AcDbEntity
  8
0
  6
Continuous
 62
     7
370
     0
100
AcDbPolyline
 90
        2
 70
   128
 43
0.0
 10
1521.057063087037
 20
5362.125969475649
 10
1521.057063087037
 20
5662.24785448169
  0
LWPOLYLINE
  5
1A6
330
1F
100
AcDbEntity
  8
0
  6
Continuous
 62
     7
370
     0
100
AcDbPolyline
 90
        2
 70
   128
 43
0.0
 10
1530.057063087037
 20
5662.24785448169
 10
1530.057063087037
 20
5371.544812624487
  0
LWPOLYLINE
  5
1A7
330
1F
100
AcDbEntity
  8
0
  6
Continuous
 62
     7
370
     0
100
AcDbPolyline
 90
        2
 70
   129
 43
0.0
 10
1530.057063087037
 20
5362.544812624487
 10
1530.057063087037
 20
5026.669874133278
  0
LWPOLYLINE
  5
1A8
330
1F
100
AcDbEntity
  8
0
  6
Continuous
 62
     7
370
     0
100
AcDbPolyline
 90
        2
 70
   128
 43
0.0
 10
2847.894430518027
 20
4053.012921643317
 10
2847.894430518027
 20
4103.034396834319
  0
LWPOLYLINE
  5
1A9
330
1F
100
AcDbEntity
  8
0
  6
Continuous
 62
     7
370
     0
100
AcDbPolyline
 90
        2
 70
   128
 43
0.0
 10
2853.894430518027
 20
4109.034396834319
 10
2853.894430518027
 20
4053.012921643317
  0
LWPOLYLINE
  5
1AA
330
1F
100
AcDbEntity
  8
0
  6
Continuous
 62
     7
370
     0
100
AcDbPolyline
 90
        4
 70
   128
 43
0.0
 10
2793.666716525847
 20
4109.034396834319
 10
2805.354607322057
 20
4109.034396834319
 10
2805.354607322057
 20
4103.034396834319
 10
2799.666716525847
 20
4103.034396834319
  0
LWPOLYLINE
  5
1AB
330
1F
100
AcDbEntity
  8
0
  6
Continuous
 62
     7
370
     0
100
AcDbPolyline
 90
        2
 70
   128
 43
0.0
 10
2842.015597066915
 20
4109.034396834319
 10
2853.894430518027
 20
4109.034396834319
  0
LWPOLYLINE
  5
1AC
330
1F
100
AcDbEntity
  8
0
  6
Continuous
 62
     7
370
     0
100
AcDbPolyline
 90
        2
 70
   129
 43
0.0
 10
2847.894430518027
 20
4103.034396834319
 10
2842.015597066915
 20
4103.034396834319
  0
LWPOLYLINE
  5
1AD
330
1F
100
AcDbEntity
  8
0
  6
Continuous
 62
     7
370
     0
100
AcDbPolyline
 90
        2
 70
   128
 43
0.0
 10
2793.666716525847
 20
4053.012921643317
 10
2793.666716525847
 20
4109.034396834319
  0
LWPOLYLINE
  5
1AE
330
1F
100
AcDbEntity
  8
0
  6
Continuous
 62
     7
370
     0
100
AcDbPolyline
 90
        2
 70
   128
 43
0.0
 10
2799.666716525847
 20
4103.034396834319
 10
2799.666716525847
 20
4053.012921643317
  0
LWPOLYLINE
  5
1AF
330
1F
100
AcDbEntity
  8
0
  6
Continuous
 62
     7
370
     0
100
AcDbPolyline
 90
        2
 70
   128
 43
0.0
 10
1766.299761825418
 20
4053.012921643317
 10
1766.299761825418
 20
4102.938925506867
  0
LWPOLYLINE
  5
1B0
330
1F
100
AcDbEntity
  8
0
  6
Continuous
 62
     7
370
     0
100
AcDbPolyline
 90
        2
 70
   128
 43
0.0
 10
1772.299761825418
 20
4108.938925506867
 10
1772.299761825418
 20
4053.012921643317
  0
LWPOLYLINE
  5
1B1
330
1F
100
AcDbEntity
  8
0
  6
Continuous
 62
     7
370
     0
100
AcDbPolyline
 90
        4
 70
   128
 43
0.0
 10
1712.07204783324
 20
4108.938925506867
 10
1723.473524647096
 20
4108.938925506867
 10
1723.473524647096
 20
4102.938925506867
 10
1718.07204783324
 20
4102.938925506867
  0
LWPOLYLINE
  5
1B2
330
1F
100
AcDbEntity
  8
0
  6
Continuous
 62
     7
370
     0
100
AcDbPolyline
 90
        2
 70
   128
 43
0.0
 10
1760.134514391953
 20
4108.938925506867
 10
1772.299761825418
 20
4108.938925506867
  0
LWPOLYLINE
  5
1B3
330
1F
100
AcDbEntity
  8
0
  6
Continuous
 62
     7
370
     0
100
AcDbPolyline
 90
        2
 70
   129
 43
0.0
 10
1766.299761825418
 20
4102.938925506867
 10
1760.134514391953
 20
4102.938925506867
  0
LWPOLYLINE
  5
1B4
330
1F
100
AcDbEntity
  8
0
  6
Continuous
 62
     7
370
     0
100
AcDbPolyline
 90
        2
 70
   128
 43
0.0
 10
1712.07204783324
 20
4053.012921643317
 10
1712.07204783324
 20
4108.938925506867
  0
LWPOLYLINE
  5
1B5
330
1F
100
AcDbEntity
  8
0
  6
Continuous
 62
     7
370
     0
100
AcDbPolyline
 90
        2
 70
   128
 43
0.0
 10
1718.07204783324
 20
4102.938925506867
 10
1718.07204783324
 20
4053.012921643317
  0
LINE
  5
1B8
102
{ACAD_XDICTIONARY
360
1B6
102
}
330
1F
100
AcDbEntity
  8
0
  6
Continuous
 62
     7
370
     0
100
AcDbLine
 10
2642.607754362453
 20
5039.536176937566
 30
4.778888463973999
 11
2643.833110615023
 21
5039.536176937566
 31
4.778888463973999
  0
LWPOLYLINE
  5
1BB
102
{ACAD_XDICTIONARY
360
1B9
102
}
330
1F
100
AcDbEntity
  8
0
  6
Continuous
 62
     7
370
     0
100
AcDbPolyline
 90
        4
 70
   129
 43
0.0
 10
1723.336963892137
 20
4105.171017220846
 10
1724.639687612146
 20
4106.818579572622
 10
1753.397139570433
 20
4084.080129187
 10
1752.094415850424
 20
4082.432566835224
  0
ARC
  5
1BE
102
{ACAD_XDICTIONARY
360
1BC
102
}
330
1F
100
AcDbEntity
  8
0
  6
Continuous
 62
     7
370
     0
100
AcDbCircle
 10
1723.311961634887
 20
4106.276409905455
 30
0.0
 40
36.58234043459456
100
AcDbArc
 50
316.0648546934605
 51
1.009512782616482
  0
LWPOLYLINE
  5
1C1
102
{ACAD_XDICTIONARY
360
1BF
102
}
330
1F
100
AcDbEntity
  8
0
  6
Continuous
 62
     7
370
     0
100
AcDbPolyline
 90
        4
 70
   129
 43
0.0
 10
1723.540040249783
 20
4048.468236870399
 10
1724.84276396979
 20
4050.115799222175
 10
1753.600215928079
 20
4027.377348836554
 10
1752.297492208069
 20
4025.729786484778
  0
ARC
  5
1C4
102
{ACAD_XDICTIONARY
360
1C2
102
}
330
1F
100
AcDbEntity
  8
0
  6
Continuous
 62
     7
370
     0
100
AcDbCircle
 10
1723.867543664471
 20
4048.806524200708
 30
0.0
 40
36.58234043459568
100
AcDbArc
 50
316.0648546934597
 51
1.009512782616453
  0
LWPOLYLINE
  5
1C7
102
{ACAD_XDICTIONARY
360
1C5
102
}
330
1F
100
AcDbEntity
  8
0
  6
Continuous
 62
     7
370
     0
100
AcDbPolyline
 90
        4
 70
   129
 43
0.0
 10
2805.134708942388
 20
4106.467068296894
 10
2806.437432662398
 20
4108.11463064867
 10
2835.194884620685
 20
4085.37618026305
 10
2833.892160900676
 20
4083.728617911272
  0
ARC
  5
1CA
102
{ACAD_XDICTIONARY
360
1C8
102
}
330
1F
100
AcDbEntity
  8
0
  6
Continuous
 62
     7
370
     0
100
AcDbCircle
 10
2805.462212357077
 20
4106.805355627203
 30
0.0
 40
36.58234043459422
100
AcDbArc
 50
316.064854693458
 51
1.009512782616487
  0
LWPOLYLINE
  5
1CD
102
{ACAD_XDICTIONARY
360
1CB
102
}
330
1F
100
AcDbEntity
  8
0
  6
Continuous
 62
     7
370
     0
100
AcDbPolyline
 90
        4
 70
   129
 43
0.0
 10
2842.235495446574
 20
4046.702017312556
 10
2840.932771726564
 20
4048.349579664332
 10
2812.175319768277
 20
4025.611129278711
 10
2813.478043488287
 20
4023.963566926935
  0
ARC
  5
1D0
102
{ACAD_XDICTIONARY
360
1CE
102
}
330
1F
100
AcDbEntity
  8
0
  6
Continuous
 62
     7
370
     0
100
AcDbCircle
 10
2841.907992031885
 20
4047.040304642865
 30
0.0
 40
36.58234043459461
100
AcDbArc
 50
178.9904872173835
 51
223.9351453065411
  0
LWPOLYLINE
  5
1D3
102
{ACAD_XDICTIONARY
360
1D1
102
}
330
1F
100
AcDbEntity
  8
0
  6
Continuous
 62
     7
370
     0
100
AcDbPolyline
 90
        4
 70
   129
 43
0.0
 10
3099.302102753555
 20
5356.164792783511
 10
3097.999379033545
 20
5354.517230431733
 10
3069.241927075258
 20
5377.255680817356
 10
3070.544650795268
 20
5378.903243169132
  0
ARC
  5
1D6
102
{ACAD_XDICTIONARY
360
1D4
102
}
330
1F
100
AcDbEntity
  8
0
  6
Continuous
 62
     7
370
     0
100
AcDbCircle
 10
3096.098371840164
 20
5352.454911260483
 30
0.0
 40
36.58234043459439
100
AcDbArc
 50
136.0648546934598
 51
181.0095127826165
  0
LWPOLYLINE
  5
1D9
102
{ACAD_XDICTIONARY
360
1D7
102
}
330
1F
100
AcDbEntity
  8
0
  6
Continuous
 62
     7
370
     0
100
AcDbPolyline
 90
        4
 70
   129
 43
0.0
 10
1715.160206106653
 20
5480.531517582544
 10
1715.160206106653
 20
5553.471611762418
 10
1717.260575310787
 20
5553.471611762418
 10
1717.260575310787
 20
5480.531517582544
  0
LWPOLYLINE
  5
1DC
102
{ACAD_XDICTIONARY
360
1DA
102
}
330
1F
100
AcDbEntity
  8
0
  6
Continuous
 62
     7
370
     0
100
AcDbPolyline
 90
        4
 70
   129
 43
0.0
 10
2565.821843423423
 20
5368.295223309314
 10
2564.162577210917
 20
5369.583006843029
 10
2586.640253435733
 20
5398.544744370408
 10
2588.299519648239
 20
5397.256960836695
  0
ARC
  5
1DF
102
{ACAD_XDICTIONARY
360
1DD
102
}
330
1F
100
AcDbEntity
  8
0
  6
Continuous
 62
     7
370
     0
100
AcDbCircle
 10
2565.480610655628
 20
5368.61965666559
 30
0.0
 40
36.58234043459436
100
AcDbArc
 50
46.58257357667743
 51
91.52723166583493
  0
LWPOLYLINE
  5
1E0
330
1F
100
AcDbEntity
  8
0
  6
Continuous
 62
     7
370
     0
100
AcDbPolyline
 90
        2
 70
   128
 43
0.0
 10
2645.930534796134
 20
5358.469548868607
 10
2645.930534796134
 20
5662.247854481688
  0
LWPOLYLINE
  5
1E1
330
1F
100
AcDbEntity
  8
0
  6
Continuous
 62
     7
370
     0
100
AcDbPolyline
 90
        2
 70
   128
 43
0.0
 10
2654.930534796134
 20
5662.247854481689
 10
2654.930534796134
 20
5358.469548868607
  0
LWPOLYLINE
  5
1E4
102
{ACAD_XDICTIONARY
360
1E2
102
}
330
1F
100
AcDbEntity
  8
0
  6
Continuous
 62
     7
370
     0
100
AcDbPolyline
 90
        4
 70
   129
 43
0.0
 10
2984.696215626297
 20
5347.110791269035
 10
2920.348540912547
 20
5347.110791269035
 10
2920.348540912547
 20
5349.115689159931
 10
2984.696215626297
 20
5349.115689159931
  0
LWPOLYLINE
  5
1E7
102
{ACAD_XDICTIONARY
360
1E5
102
}
330
1F
100
AcDbEntity
  8
0
  6
Continuous
 62
     7
370
     0
100
AcDbPolyline
 90
        4
 70
   129
 43
0.0
 10
3105.773787027391
 20
4483.417223326569
 10
3105.773787027391
 20
4738.898495611047
 10
3102.718704548653
 20
4738.898495611047
 10
3102.718704548653
 20
4483.417223326569
  0
LWPOLYLINE
  5
1E8
330
1F
100
AcDbEntity
  8
0
  6
Continuous
 62
     7
370
     0
100
AcDbPolyline
 90
        2
 70
   128
 43
0.0
 10
3116.696513350823
 20
4935.638103545128
 10
3166.830933011935
 20
4935.638103545128
  0
LWPOLYLINE
  5
1E9
330
1F
100
AcDbEntity
  8
0
  6
Continuous
 62
     7
370
     0
100
AcDbPolyline
 90
        2
 70
   128
 43
0.0
 10
3172.830933011934
 20
4929.638103545128
 10
3116.696513350823
 20
4929.638103545128
  0
LWPOLYLINE
  5
1EA
330
1F
100
AcDbEntity
  8
0
  6
Continuous
 62
     7
370
     0
100
AcDbPolyline
 90
        4
 70
   128
 43
0.0
 10
3172.830933011934
 20
4989.865817537307
 10
3172.830933011934
 20
4978.177926741098
 10
3166.830933011934
 20
4978.177926741098
 10
3166.830933011934
 20
4983.865817537307
  0
LWPOLYLINE
  5
1EB
330
1F
100
AcDbEntity
  8
0
  6
Continuous
 62
     7
370
     0
100
AcDbPolyline
 90
        2
 70
   128
 43
0.0
 10
3172.830933011934
 20
4941.51693699624
 10
3172.830933011934
 20
4929.638103545128
  0
LWPOLYLINE
  5
1EC
330
1F
100
AcDbEntity
  8
0
  6
Continuous
 62
     7
370
     0
100
AcDbPolyline
 90
        2
 70
   129
 43
0.0
 10
3166.830933011934
 20
4935.638103545128
 10
3166.830933011934
 20
4941.51693699624
  0
LWPOLYLINE
  5
1ED
330
1F
100
AcDbEntity
  8
0
  6
Continuous
 62
     7
370
     0
100
AcDbPolyline
 90
        2
 70
   128
 43
0.0
 10
3116.696513350823
 20
4989.865817537307
 10
3172.830933011934
 20
4989.865817537307
  0
LWPOLYLINE
  5
1EE
330
1F
100
AcDbEntity
  8
0
  6
Continuous
 62
     7
370
     0
100
AcDbPolyline
 90
        2
 70
   128
 43
0.0
 10
3166.830933011934
 20
4983.865817537307
 10
3116.696513350823
 20
4983.865817537307
  0
LWPOLYLINE
  5
1F1
102
{ACAD_XDICTIONARY
360
1EF
102
}
330
1F
100
AcDbEntity
  8
0
  6
Continuous
 62
     7
370
     0
100
AcDbPolyline
 90
        4
 70
   129
 43
0.0
 10
3111.811577551965
 20
4978.30235379331
 10
3110.164015200189
 20
4976.999630073301
 10
3132.90246558581
 20
4948.242178115014
 10
3134.550027937587
 20
4949.544901835024
  0
ARC
  5
1F4
102
{ACAD_XDICTIONARY
360
1F2
102
}
330
1F
100
AcDbEntity
  8
0
  6
Continuous
 62
     7
370
     0
100
AcDbCircle
 10
3163.04134196119
 20
4980.414979009831
 30
0.0
 40
36.58234043459552
100
AcDbArc
 50
268.9904872173835
 51
313.9351453065422
  0
LWPOLYLINE
  5
1F7
102
{ACAD_XDICTIONARY
360
1F5
102
}
330
1F
100
AcDbEntity
  8
0
  6
Continuous
 62
     7
370
     0
100
AcDbPolyline
 90
        4
 70
   129
 43
0.0
 10
3171.576628536304
 20
4941.201567289126
 10
3169.929066184527
 20
4942.504291009135
 10
3192.667516570149
 20
4971.261742967422
 10
3194.315078921925
 20
4969.959019247412
  0
ARC
  5
1FA
102
{ACAD_XDICTIONARY
360
1F8
102
}
330
1F
100
AcDbEntity
  8
0
  6
Continuous
 62
     7
370
     0
100
AcDbCircle
 10
3171.238341205995
 20
4941.529070703814
 30
0.0
 40
36.58234043459423
100
AcDbArc
 50
46.06485469345948
 51
91.0095127826165
  0
LWPOLYLINE
  5
1FD
102
{ACAD_XDICTIONARY
360
1FB
102
}
330
1F
100
AcDbEntity
  8
0
  6
Continuous
 62
     7
370
     0
100
AcDbPolyline
 90
        4
 70
   129
 43
0.0
 10
3106.420498040179
 20
4838.312432010746
 10
3106.420498040179
 20
5093.793704295224
 10
3103.365415561441
 20
5093.793704295224
 10
3103.365415561441
 20
4838.312432010746
  0
SOLID
  5
200
102
{ACAD_XDICTIONARY
360
1FE
102
}
330
1F
100
AcDbEntity
  8
0
  6
Continuous
 62
     7
100
AcDbTrace
 10
2062.617432561699
 20
4502.641377681181
 30
0.0
 11
2073.321172916735
 21
4502.641377685219
 31
0.0
 12
2062.617432557052
 22
4514.960335912425
 32
0.0
 13
2073.321172912087
 23
4514.960335916463
 33
0.0
  0
LWPOLYLINE
  5
203
102
{ACAD_XDICTIONARY
360
201
102
}
330
1F
100
AcDbEntity
  8
0
  6
Continuous
 62
     7
370
     0
100
AcDbPolyline
 90
        4
 70
   129
 43
0.0
 10
1530.647335065591
 20
4313.93341776908
 10
1530.647335065591
 20
4554.330220314789
 10
1535.42090143862
 20
4554.330220314789
 10
1535.42090143862
 20
4313.93341776908
  0
LWPOLYLINE
  5
206
102
{ACAD_XDICTIONARY
360
204
102
}
330
1F
100
AcDbEntity
  8
0
  6
Continuous
 62
     7
370
     0
100
AcDbPolyline
 90
        4
 70
   129
 43
0.0
 10
1531.029220375394
 20
5014.502018604666
 10
1531.029220375394
 20
5254.898821150374
 10
1535.802786748423
 20
5254.898821150374
 10
1535.802786748423
 20
5014.502018604666
  0
SOLID
  5
209
102
{ACAD_XDICTIONARY
360
207
102
}
330
1F
100
AcDbEntity
  8
0
  6
Continuous
 62
     7
100
AcDbTrace
 10
2063.681071096649
 20
5080.437718455955
 30
0.0
 11
2074.384811451684
 21
5080.437718459993
 31
0.0
 12
2063.681071092002
 22
5092.7566766872
 32
0.0
 13
2074.384811447037
 23
5092.756676691238
 33
0.0
  0
SOLID
  5
20C
102
{ACAD_XDICTIONARY
360
20A
102
}
330
1F
100
AcDbEntity
  8
0
  6
Continuous
 62
     7
100
AcDbTrace
 10
2643.151110682956
 20
4501.861095957266
 30
0.0
 11
2653.854851037991
 21
4501.861095961304
 31
0.0
 12
2643.151110678308
 22
4514.180054188512
 32
0.0
 13
2653.854851033343
 23
4514.18005419255
 33
0.0
  0
TEXT
  5
210
102
{ACAD_XDICTIONARY
360
20E
102
}
330
1F
100
AcDbEntity
  8
0
  6
Continuous
 62
     7
100
AcDbText
 10
2616.791153778209
 20
5383.640584145978
 30
0.0
 40
16.86062102847629
  1
ELECTRICAL CLOSET
 50
90.0
  7
_TCW_TXTSTY_1
 11
2599.930532749733
 21
5383.640584145978
 31
0.0
100
AcDbText
 73
     3
  0
TEXT
  5
214
102
{ACAD_XDICTIONARY
360
212
102
}
330
1F
100
AcDbEntity
  8
0
  6
Continuous
 62
     7
100
AcDbText
 10
1748.875710912311
 20
4048.408927629928
 30
0.0
 40
15.33333333333333
  1
EXIT
 50
90.0
  7
_TCW_TXTSTY_2
 11
1733.542377578978
 21
4048.408927629928
 31
0.0
100
AcDbText
 73
     3
  0
TEXT
  5
217
102
{ACAD_XDICTIONARY
360
215
102
}
330
1F
100
AcDbEntity
  8
0
  6
Continuous
 62
     7
100
AcDbText
 10
2829.61113764938
 20
4049.936468842413
 30
0.0
 40
15.33333333333333
  1
EXIT
 50
90.0
  7
_TCW_TXTSTY_2
 11
2814.277804316046
 21
4049.936468842413
 31
0.0
100
AcDbText
 73
     3
  0
TEXT
  5
21A
102
{ACAD_XDICTIONARY
360
218
102
}
330
1F
100
AcDbEntity
  8
0
  6
Continuous
 62
     7
100
AcDbText
 10
3156.591070168366
 20
4941.048530872077
 30
0.0
 40
15.33333333333333
  1
EXIT
 50
90.0
  7
_TCW_TXTSTY_2
 11
3141.257736835032
 21
4941.048530872077
 31
0.0
100
AcDbText
 73
     3
  0
LWPOLYLINE
  5
21F
102
{ACAD_XDICTIONARY
360
21B
102
}
330
1F
100
AcDbEntity
  8
0
  6
Continuous
 62
     7
370
     0
100
AcDbPolyline
 90
        4
 70
   128
 43
0.0
 10
1435.723344912272
 20
4544.50172315952
 10
1459.179733219284
 20
4544.50172315952
 10
1459.179733219284
 20
4535.50172315952
 10
1435.724809274525
 20
4535.50172315952
  0
LWPOLYLINE
  5
224
102
{ACAD_XDICTIONARY
360
220
102
}
330
1F
100
AcDbEntity
  8
0
  6
Continuous
 62
     7
370
     0
100
AcDbPolyline
 90
        2
 70
   128
 43
0.0
 10
1495.285795055364
 20
4544.50172315952
 10
1521.057063087037
 20
4544.50172315952
  0
LWPOLYLINE
  5
225
102
{ACAD_XDICTIONARY
360
222
102
}
330
1F
100
AcDbEntity
  8
0
  6
Continuous
 62
     7
370
     0
100
AcDbPolyline
 90
        2
 70
   129
 43
0.0
 10
1521.057063087037
 20
4535.50172315952
 10
1495.285795055364
 20
4535.50172315952
  0
LWPOLYLINE
  5
22A
102
{ACAD_XDICTIONARY
360
226
102
}
330
1F
100
AcDbEntity
  8
0
  6
Continuous
 62
     7
370
     0
100
AcDbPolyline
 90
        4
 70
   128
 43
0.0
 10
1435.50789633872
 20
5040.684699631141
 10
1459.692740609511
 20
5040.684699631141
 10
1459.692740609511
 20
5031.684699631141
 10
1435.509373667286
 20
5031.684699631141
  0
LWPOLYLINE
  5
22F
102
{ACAD_XDICTIONARY
360
22B
102
}
330
1F
100
AcDbEntity
  8
0
  6
Continuous
 62
     7
370
     0
100
AcDbPolyline
 90
        2
 70
   128
 43
0.0
 10
1495.798802445592
 20
5040.684699631141
 10
1520.944983884257
 20
5040.684699631141
  0
LWPOLYLINE
  5
230
102
{ACAD_XDICTIONARY
360
22D
102
}
330
1F
100
AcDbEntity
  8
0
  6
Continuous
 62
     7
370
     0
100
AcDbPolyline
 90
        2
 70
   129
 43
0.0
 10
1520.944983884257
 20
5031.684699631141
 10
1495.798802445592
 20
5031.684699631141
  0
LWPOLYLINE
  5
233
102
{ACAD_XDICTIONARY
360
231
102
}
330
1F
100
AcDbEntity
  8
0
  6
Continuous
 62
     7
370
     0
100
AcDbPolyline
 90
        4
 70
     1
 43
0.0
 10
1459.179733223395
 20
4538.309251481925
 10
1459.179733223395
 20
4540.941985157471
 10
1495.285795059477
 20
4540.941985157471
 10
1495.285795059477
 20
4538.309251481925
  0
LWPOLYLINE
  5
236
102
{ACAD_XDICTIONARY
360
234
102
}
330
1F
100
AcDbEntity
  8
0
  6
Continuous
 62
     7
370
     0
100
AcDbPolyline
 90
        4
 70
     1
 43
0.0
 10
1459.692740609511
 20
5034.993701063618
 10
1459.692740609511
 20
5037.626434739164
 10
1495.79880244559
 20
5037.626434739164
 10
1495.79880244559
 20
5034.993701063618
  0
LINE
  5
239
102
{ACAD_XDICTIONARY
360
237
102
}
330
1F
100
AcDbEntity
  8
0
  6
Continuous
 62
     7
370
     0
100
AcDbLine
 10
1521.047219833628
 20
5352.663727460917
 30
0.0
 11
1521.047219833628
 21
5362.943925622579
 31
0.0
  0
LINE
  5
23C
102
{ACAD_XDICTIONARY
360
23A
102
}
330
1F
100
AcDbEntity
  8
0
  6
Continuous
 62
     7
370
     0
100
AcDbLine
 10
1426.550151550311
 20
5628.339983645174
 30
0.0
 11
1426.550151550311
 21
5637.648577712289
 31
0.0
  0
LINE
  5
23F
102
{ACAD_XDICTIONARY
360
23D
102
}
330
1F
100
AcDbEntity
  8
0
  6
Continuous
 62
     7
370
     0
100
AcDbLine
 10
1435.545324941764
 20
5628.230286408693
 30
0.0
 11
1435.545324941764
 21
5637.585893577157
 31
0.0
  0
LWPOLYLINE
  5
242
102
{ACAD_XDICTIONARY
360
240
102
}
330
1F
100
AcDbEntity
  8
0
  6
Continuous
 62
     7
370
     0
100
AcDbPolyline
 90
        4
 70
   129
 43
0.0
 10
2165.638961639411
 20
5667.742819715204
 10
2164.336237919401
 20
5666.095257363428
 10
2135.578785961116
 20
5688.833707749049
 10
2136.881509681124
 20
5690.481270100827
  0
ARC
  5
245
102
{ACAD_XDICTIONARY
360
243
102
}
330
1F
100
AcDbEntity
  8
0
  6
$MARGINS
 62
     7
370
     0
100
AcDbCircle
 10
2165.311458224723
 20
5667.404532384895
 30
0.0
 40
36.58234043459437
100
AcDbArc
 50
136.0648546934577
 51
181.0095127826136
  0
LWPOLYLINE
  5
246
330
1F
100
AcDbEntity
  8
0
  6
Continuous
 62
     7
370
     0
100
AcDbPolyline
 90
        2
 70
   128
 43
0.0
 10
2171.295918228142
 20
5671.247854481691
 10
2171.295918228142
 20
5721.286425284485
  0
LWPOLYLINE
  5
247
330
1F
100
AcDbEntity
  8
0
  6
Continuous
 62
     7
370
     0
100
AcDbPolyline
 90
        2
 70
   128
 43
0.0
 10
2177.295918228142
 20
5727.286425284481
 10
2177.295918228142
 20
5671.247854481691
  0
LWPOLYLINE
  5
248
330
1F
100
AcDbEntity
  8
0
  6
Continuous
 62
     7
370
     0
100
AcDbPolyline
 90
        4
 70
   128
 43
0.0
 10
2117.068204235963
 20
5727.286425284481
 10
2128.756095032172
 20
5727.286425284481
 10
2128.756095032172
 20
5721.286425284481
 10
2123.068204235961
 20
5721.286425284481
  0
LWPOLYLINE
  5
249
330
1F
100
AcDbEntity
  8
0
  6
Continuous
 62
     7
370
     0
100
AcDbPolyline
 90
        2
 70
   128
 43
0.0
 10
2165.41708477703
 20
5727.286425284481
 10
2177.295918228142
 20
5727.286425284481
  0
LWPOLYLINE
  5
24A
330
1F
100
AcDbEntity
  8
0
  6
Continuous
 62
     7
370
     0
100
AcDbPolyline
 90
        2
 70
   129
 43
0.0
 10
2171.29591822814
 20
5721.286425284481
 10
2165.41708477703
 20
5721.286425284481
  0
LWPOLYLINE
  5
24B
330
1F
100
AcDbEntity
  8
0
  6
Continuous
 62
     7
370
     0
100
AcDbPolyline
 90
        2
 70
   128
 43
0.0
 10
2117.068204235963
 20
5671.247854481691
 10
2117.068204235963
 20
5727.286425284481
  0
LWPOLYLINE
  5
24C
330
1F
100
AcDbEntity
  8
0
  6
Continuous
 62
     7
370
     0
100
AcDbPolyline
 90
        2
 70
   128
 43
0.0
 10
2123.068204235963
 20
5721.286425284481
 10
2123.068204235963
 20
5671.24785448169
  0
LWPOLYLINE
  5
24F
102
{ACAD_XDICTIONARY
360
24D
102
}
330
1F
100
AcDbEntity
  8
0
  6
Continuous
 62
     7
370
     0
100
AcDbPolyline
 90
        4
 70
   129
 43
0.0
 10
2165.732454484146
 20
5725.097631275436
 10
2164.429730764135
 20
5723.450068923659
 10
2135.672278805848
 20
5746.188519309282
 10
2136.975002525859
 20
5747.836081661058
  0
ARC
  5
252
102
{ACAD_XDICTIONARY
360
250
102
}
330
1F
100
AcDbEntity
  8
0
  6
$MARGINS
 62
     7
370
     0
100
AcDbCircle
 10
2165.404951069458
 20
5724.759343945127
 30
0.0
 40
36.58234043459503
100
AcDbArc
 50
136.0648546934587
 51
181.0095127826136
  0
LWPOLYLINE
  5
255
102
{ACAD_XDICTIONARY
360
253
102
}
330
1F
100
AcDbEntity
  8
0
  6
Continuous
 62
     7
370
     0
100
AcDbPolyline
 90
        4
 70
   129
 43
0.0
 10
1709.36304534344
 20
5658.420411645817
 10
1711.015868334978
 20
5657.124368840847
 10
1688.394030284579
 20
5628.275094806755
 10
1686.74120729304
 20
5629.571137611725
  0
ARC
  5
258
102
{ACAD_XDICTIONARY
360
256
102
}
330
1F
100
AcDbEntity
  8
0
  6
Continuous
 62
     7
370
     0
100
AcDbCircle
 10
1709.702655815317
 20
5658.094280488351
 30
0.0
 40
36.58234043459588
100
AcDbArc
 50
226.2968201595116
 51
271.2414782486712
  0
LWPOLYLINE
  5
25B
102
{ACAD_XDICTIONARY
360
259
102
}
330
1F
100
AcDbEntity
  8
0
  6
Continuous
 62
     7
370
     0
100
AcDbPolyline
 90
        4
 70
   129
 43
0.0
 10
1920.521911389223
 20
5661.050261497392
 10
1920.521911389221
 20
5657.23140839897
 10
2064.110787889916
 20
5657.23140839897
 10
2064.110787889916
 20
5661.050261497392
  0
SOLID
  5
25E
102
{ACAD_XDICTIONARY
360
25C
102
}
330
1F
100
AcDbEntity
  8
0
  6
Continuous
 62
     7
100
AcDbTrace
 10
1716.267107353387
 20
5682.309035050421
 30
0.0
 11
1725.48417910241
 21
5682.309035050421
 31
0.0
 12
1716.267107353384
 22
5673.546919322625
 32
0.0
 13
1725.48417910241
 23
5673.546919322625
 33
0.0
  0
LWPOLYLINE
  5
25F
330
1F
100
AcDbEntity
  8
0
  6
Continuous
 62
     7
370
     0
100
AcDbPolyline
 90
        2
 70
   128
 43
0.0
 10
1387.576181655399
 20
5671.247854481691
 10
1507.663945262347
 20
5671.247854481691
  0
LWPOLYLINE
  5
260
330
1F
100
AcDbEntity
  8
0
  6
Continuous
 62
     7
370
     0
100
AcDbPolyline
 90
        2
 70
   128
 43
0.0
 10
1513.663945262347
 20
5671.247854481691
 10
1579.770750854009
 20
5671.247854481691
  0
LWPOLYLINE
  5
261
330
1F
100
AcDbEntity
  8
0
  6
Continuous
 62
     7
370
     0
100
AcDbPolyline
 90
        2
 70
   128
 43
0.0
 10
1585.770750854009
 20
5671.247854481691
 10
1667.229673959131
 20
5671.247854481691
  0
LWPOLYLINE
  5
262
330
1F
100
AcDbEntity
  8
0
  6
Continuous
 62
     7
370
     0
100
AcDbPolyline
 90
        4
 70
   128
 43
0.0
 10
1673.229673959131
 20
5671.247854481691
 10
1783.518111261988
 20
5671.247854481691
 10
1783.518111261987
 20
5662.247854481691
 10
1530.057063087037
 20
5662.24785448169
  0
LWPOLYLINE
  5
263
330
1F
100
AcDbEntity
  8
0
  6
Continuous
 62
     7
370
     0
100
AcDbPolyline
 90
        2
 70
   128
 43
0.0
 10
1521.057063087037
 20
5662.24785448169
 10
1435.541479892476
 20
5662.24785448169
  0
LWPOLYLINE
  5
264
330
1F
100
AcDbEntity
  8
0
  6
Continuous
 62
     7
370
     0
100
AcDbPolyline
 90
        2
 70
   128
 43
0.0
 10
1426.541479773345
 20
5662.24785448169
 10
1387.576181655399
 20
5662.247854481691
  0
LWPOLYLINE
  5
265
330
1F
100
AcDbEntity
  8
0
  6
Continuous
 62
     7
370
     0
100
AcDbPolyline
 90
        2
 70
   128
 43
0.0
 10
1921.555134419853
 20
5671.247854481691
 10
2117.068204235963
 20
5671.247854481691
  0
LWPOLYLINE
  5
266
330
1F
100
AcDbEntity
  8
0
  6
Continuous
 62
     7
370
     0
100
AcDbPolyline
 90
        4
 70
   129
 43
0.0
 10
2123.068204235965
 20
5671.24785448169
 10
2128.844136606397
 20
5671.247854481691
 10
2128.844136606399
 20
5662.247854481691
 10
1921.555134419853
 20
5662.247854481691
  0
LWPOLYLINE
  5
267
330
1F
100
AcDbEntity
  8
0
  6
Continuous
 62
     7
370
     0
100
AcDbPolyline
 90
        2
 70
   128
 43
0.0
 10
2165.801820184291
 20
5671.247854481691
 10
2171.295918228142
 20
5671.247854481691
  0
LWPOLYLINE
  5
268
330
1F
100
AcDbEntity
  8
0
  6
Continuous
 62
     7
370
     0
100
AcDbPolyline
 90
        2
 70
   128
 43
0.0
 10
2177.295918228142
 20
5671.247854481691
 10
3107.696513350823
 20
5671.247854481691
  0
LWPOLYLINE
  5
269
330
1F
100
AcDbEntity
  8
0
  6
Continuous
 62
     7
370
     0
100
AcDbPolyline
 90
        2
 70
   128
 43
0.0
 10
3107.696513350823
 20
5662.247854481691
 10
2707.676301848919
 20
5662.247854481691
  0
LWPOLYLINE
  5
26A
330
1F
100
AcDbEntity
  8
0
  6
Continuous
 62
     7
370
     0
100
AcDbPolyline
 90
        2
 70
   128
 43
0.0
 10
2698.676301848919
 20
5662.24785448169
 10
2654.930534796134
 20
5662.247854481689
  0
LWPOLYLINE
  5
26B
330
1F
100
AcDbEntity
  8
0
  6
Continuous
 62
     7
370
     0
100
AcDbPolyline
 90
        2
 70
   128
 43
0.0
 10
2645.930534796134
 20
5662.247854481688
 10
2622.850027351414
 20
5662.247854481688
  0
LWPOLYLINE
  5
26C
330
1F
100
AcDbEntity
  8
0
  6
Continuous
 62
     7
370
     0
100
AcDbPolyline
 90
        2
 70
   128
 43
0.0
 10
2613.850027351414
 20
5662.24785448169
 10
2570.104260298627
 20
5662.24785448169
  0
LWPOLYLINE
  5
26D
330
1F
100
AcDbEntity
  8
0
  6
Continuous
 62
     7
370
     0
100
AcDbPolyline
 90
        3
 70
   128
 43
0.0
 10
2560.489282861601
 20
5662.24785448169
 10
2165.801820184291
 20
5662.247854481691
 10
2165.801820184291
 20
5671.247854481691
  0
SOLID
  5
270
102
{ACAD_XDICTIONARY
360
26E
102
}
330
1F
100
AcDbEntity
  8
0
  6
Continuous
 62
     7
100
AcDbTrace
 10
1958.28264130875
 20
5682.519662832314
 30
0.0
 11
1967.499713057775
 21
5682.519662832314
 31
0.0
 12
1958.28264130875
 22
5673.75754710452
 32
0.0
 13
1967.499713057777
 23
5673.75754710452
 33
0.0
  0
SOLID
  5
273
102
{ACAD_XDICTIONARY
360
271
102
}
330
1F
100
AcDbEntity
  8
0
  6
Continuous
 62
     7
100
AcDbTrace
 10
2197.786111968119
 20
5682.243484552535
 30
0.0
 11
2207.003183717144
 21
5682.243484552535
 31
0.0
 12
2197.786111968119
 22
5673.481368824741
 32
0.0
 13
2207.003183717145
 23
5673.48136882474
 33
0.0
  0
SOLID
  5
276
102
{ACAD_XDICTIONARY
360
274
102
}
330
1F
100
AcDbEntity
  8
0
  6
Continuous
 62
     7
100
AcDbTrace
 10
2439.515737694918
 20
5683.006038576908
 30
0.0
 11
2448.732809443943
 21
5683.006038576907
 31
0.0
 12
2439.515737694918
 22
5674.243922849113
 32
0.0
 13
2448.732809443943
 23
5674.243922849113
 33
0.0
  0
SOLID
  5
279
102
{ACAD_XDICTIONARY
360
277
102
}
330
1F
100
AcDbEntity
  8
0
  6
Continuous
 62
     7
100
AcDbTrace
 10
2709.639165769368
 20
5693.737460164826
 30
0.0
 11
2718.856237518393
 21
5693.73746016483
 31
0.0
 12
2709.639165769368
 22
5684.975344437033
 32
0.0
 13
2718.856237518393
 23
5684.975344437033
 33
0.0
  0
LWPOLYLINE
  5
27E
102
{ACAD_XDICTIONARY
360
27A
102
}
330
1F
100
AcDbEntity
  8
0
  6
Continuous
 62
     7
370
     0
100
AcDbPolyline
 90
        2
 70
   128
 43
0.0
 10
1426.546431800694
 20
5638.971800624726
 10
1426.546431800694
 20
5654.893570948275
  0
LWPOLYLINE
  5
281
102
{ACAD_XDICTIONARY
360
27C
102
}
330
1F
100
AcDbEntity
  8
0
  6
Continuous
 62
     7
370
     0
100
AcDbPolyline
 90
        2
 70
   128
 43
0.0
 10
1435.546431800694
 20
5654.893570948275
 10
1435.546431800694
 20
5638.971800624726
  0
LINE
  5
284
102
{ACAD_XDICTIONARY
360
282
102
}
330
1F
100
AcDbEntity
  8
0
  6
Continuous
 62
     7
370
     0
100
AcDbLine
 10
1426.56451614143
 20
5360.607227570338
 30
0.0
 11
1426.56451614143
 21
5370.385952650943
 31
0.0
  0
LINE
  5
287
102
{ACAD_XDICTIONARY
360
285
102
}
330
1F
100
AcDbEntity
  8
0
  6
Continuous
 62
     7
370
     0
100
AcDbLine
 10
1435.591031601352
 20
5169.922088519632
 30
0.0
 11
1435.591031601352
 21
5182.960388627105
 31
0.0
  0
LWPOLYLINE
  5
28C
102
{ACAD_XDICTIONARY
360
288
102
}
330
1F
100
AcDbEntity
  8
0
  6
Continuous
 62
     7
370
     0
100
AcDbPolyline
 90
        4
 70
   128
 43
0.0
 10
3168.101889848276
 20
4053.144116669157
 10
3743.864777051373
 20
4053.144116669157
 10
3743.864777051373
 20
4044.144116669157
 10
3168.101889848276
 20
4044.144116669157
  0
LWPOLYLINE
  5
291
102
{ACAD_XDICTIONARY
360
28D
102
}
330
1F
100
AcDbEntity
  8
0
  6
Continuous
 62
     7
370
     0
100
AcDbPolyline
 90
        2
 70
   128
 43
0.0
 10
1319.353519680163
 20
3647.894367777601
 10
2077.21164720986
 20
3647.894367777601
  0
LWPOLYLINE
  5
294
102
{ACAD_XDICTIONARY
360
28F
102
}
330
1F
100
AcDbEntity
  8
0
  6
Continuous
 62
     7
370
     0
100
AcDbPolyline
 90
        2
 70
   128
 43
0.0
 10
2077.21164720986
 20
3641.894367777601
 10
1313.830951900926
 20
3641.894367777601
  0
LWPOLYLINE
  5
299
102
{ACAD_XDICTIONARY
360
295
102
}
330
1F
100
AcDbEntity
  8
0
  6
Continuous
 62
     7
370
     0
100
AcDbPolyline
 90
        2
 70
   128
 43
0.0
 10
1306.492580993324
 20
3802.823815214424
 10
1319.353519680163
 20
3647.894367777602
  0
LWPOLYLINE
  5
29C
102
{ACAD_XDICTIONARY
360
297
102
}
330
1F
100
AcDbEntity
  8
0
  6
Continuous
 62
     7
370
     0
100
AcDbPolyline
 90
        2
 70
   128
 43
0.0
 10
1313.830951900924
 20
3641.894367777605
 10
1300.970013214085
 20
3796.823815214428
  0
LWPOLYLINE
  5
29F
102
{ACAD_XDICTIONARY
360
29D
102
}
330
1F
100
AcDbEntity
  8
0
  6
Continuous
 62
     7
370
     0
100
AcDbPolyline
 90
        4
 70
     0
 43
0.0
 10
1853.72512393262
 20
4043.988806884
 10
1853.695299186368
 20
3994.454927717386
 10
1609.082936878952
 20
3994.524518714141
 10
1609.291775751447
 20
3647.918993215322
  0
TEXT
  5
2A3
102
{ACAD_XDICTIONARY
360
2A1
102
}
330
1F
100
AcDbEntity
  8
0
  6
Continuous
 62
     7
100
AcDbText
 10
1565.286420072716
 20
3764.116944746861
 30
0.0
 40
14.55768399768405
  1
LOADING DOCK
 50
90.0
  7
_TCW_TXTSTY_3
 11
1550.728736075032
 21
3764.116944746861
 31
0.0
100
AcDbText
 73
     3
  0
LINE
  5
2A6
102
{ACAD_XDICTIONARY
360
2A4
102
}
330
1F
100
AcDbEntity
  8
0
  6
Continuous
 62
     7
370
     0
100
AcDbLine
 10
1853.576929563271
 20
3994.454961392954
 30
0.0
 11
1853.576929563271
 21
4044.012921643317
 31
0.0
  0
LINE
  5
2A9
102
{ACAD_XDICTIONARY
360
2A7
102
}
330
1F
100
AcDbEntity
  8
0
  6
Continuous
 62
     7
370
     0
100
AcDbLine
 10
1839.273481558735
 20
4044.012921643317
 30
0.0
 11
1839.273481558735
 21
4001.402391002971
 31
0.0
  0
LINE
  5
2AC
102
{ACAD_XDICTIONARY
360
2AA
102
}
330
1F
100
AcDbEntity
  8
0
  6
Continuous
 62
     7
370
     0
100
AcDbLine
 10
1839.273481558735
 20
3999.402391002971
 30
0.0
 11
1839.273481558735
 21
3994.459030652554
 31
0.0
  0
LINE
  5
2AF
102
{ACAD_XDICTIONARY
360
2AD
102
}
330
1F
100
AcDbEntity
  8
0
  6
Continuous
 62
     7
370
     0
100
AcDbLine
 10
1824.970033546332
 20
3994.463099912156
 30
0.0
 11
1824.970033546332
 21
3999.402391002971
 31
0.0
  0
LINE
  5
2B2
102
{ACAD_XDICTIONARY
360
2B0
102
}
330
1F
100
AcDbEntity
  8
0
  6
Continuous
 62
     7
370
     0
100
AcDbLine
 10
1824.970033546332
 20
4001.402391002971
 30
0.0
 11
1824.970033546331
 21
4044.012921643317
 31
0.0
  0
LINE
  5
2B5
102
{ACAD_XDICTIONARY
360
2B3
102
}
330
1F
100
AcDbEntity
  8
0
  6
Continuous
 62
     7
370
     0
100
AcDbLine
 10
1810.666585541796
 20
4044.012921643317
 30
0.0
 11
1810.666585541796
 21
4001.402391002971
 31
0.0
  0
LINE
  5
2B8
102
{ACAD_XDICTIONARY
360
2B6
102
}
330
1F
100
AcDbEntity
  8
0
  6
Continuous
 62
     7
370
     0
100
AcDbLine
 10
1810.666585541796
 20
3999.402391002971
 30
0.0
 11
1810.666585541796
 21
3994.467169171757
 31
0.0
  0
LINE
  5
2BB
102
{ACAD_XDICTIONARY
360
2B9
102
}
330
1F
100
AcDbEntity
  8
0
  6
Continuous
 62
     7
370
     0
100
AcDbLine
 10
1782.059689535585
 20
4044.012921643317
 30
0.0
 11
1782.059689535585
 21
4001.402391002971
 31
0.0
  0
LINE
  5
2BE
102
{ACAD_XDICTIONARY
360
2BC
102
}
330
1F
100
AcDbEntity
  8
0
  6
Continuous
 62
     7
370
     0
100
AcDbLine
 10
1782.059689535585
 20
3999.402391002971
 30
0.0
 11
1782.059689535585
 21
3994.475307690956
 31
0.0
  0
LINE
  5
2C1
102
{ACAD_XDICTIONARY
360
2BF
102
}
330
1F
100
AcDbEntity
  8
0
  6
Continuous
 62
     7
370
     0
100
AcDbLine
 10
1796.363137540121
 20
3994.471238431356
 30
0.0
 11
1796.363137540121
 21
3999.402391002971
 31
0.0
  0
LINE
  5
2C4
102
{ACAD_XDICTIONARY
360
2C2
102
}
330
1F
100
AcDbEntity
  8
0
  6
Continuous
 62
     7
370
     0
100
AcDbLine
 10
1796.363137540121
 20
4001.402391002971
 30
0.0
 11
1796.363137540121
 21
4044.012921643317
 31
0.0
  0
LWPOLYLINE
  5
2C9
102
{ACAD_XDICTIONARY
360
2C5
102
}
330
1F
100
AcDbEntity
  8
0
  6
Continuous
 62
     7
370
     0
100
AcDbPolyline
 90
        4
 70
   128
 43
0.0
 10
1606.98165250283
 20
4001.362841690957
 10
1850.095169216658
 20
4001.362841690957
 10
1850.095169216658
 20
3999.362841690957
 10
1608.593316189478
 20
3999.362841690957
  0
CIRCLE
  5
2CC
102
{ACAD_XDICTIONARY
360
2CA
102
}
330
1F
100
AcDbEntity
  8
0
  6
Continuous
 62
     7
370
     0
100
AcDbCircle
 10
1605.828856345344
 20
4007.925987602958
 30
0.0
 40
3.01272219068187
  0
CIRCLE
  5
2CF
102
{ACAD_XDICTIONARY
360
2CD
102
}
330
1F
100
AcDbEntity
  8
0
  6
Continuous
 62
     7
370
     0
100
AcDbCircle
 10
1603.123434436862
 20
3835.649425552397
 30
0.0
 40
3.01272219068187
  0
CIRCLE
  5
2D2
102
{ACAD_XDICTIONARY
360
2D0
102
}
330
1F
100
AcDbEntity
  8
0
  6
Continuous
 62
     7
370
     0
100
AcDbCircle
 10
1603.162643450027
 20
3663.357179896564
 30
0.0
 40
3.012722190680961
  0
LWPOLYLINE
  5
2D5
102
{ACAD_XDICTIONARY
360
2D3
102
}
330
1F
100
AcDbEntity
  8
0
  6
Continuous
 62
     7
370
     0
100
AcDbPolyline
 90
        4
 70
     1
 43
0.0
 10
1601.986373061683
 20
3666.431166531122
 10
1601.986373061683
 20
3832.551913531172
 10
1604.244812220293
 20
3832.551913531172
 10
1604.244812220293
 20
3666.431166531122
  0
LWPOLYLINE
  5
2D8
102
{ACAD_XDICTIONARY
360
2D6
102
}
330
1F
100
AcDbEntity
  8
0
  6
Continuous
 62
     7
370
     0
100
AcDbPolyline
 90
        4
 70
     1
 43
0.0
 10
1602.151635397133
 20
3838.934280248364
 10
1602.151635397133
 20
4005.055027248414
 10
1604.410074555744
 20
4005.055027248414
 10
1604.410074555744
 20
3838.934280248364
  0
LINE
  5
2DB
102
{ACAD_XDICTIONARY
360
2D9
102
}
330
1F
100
AcDbEntity
  8
0
  6
Continuous
 62
     7
370
     0
100
AcDbLine
 10
2698.182797381784
 20
5662.262860484458
 30
0.0
 11
2708.3178681541
 21
5662.262860484458
 31
0.0
  0
LINE
  5
2DE
102
{ACAD_XDICTIONARY
360
2DC
102
}
330
1F
100
AcDbEntity
  8
0
  6
Continuous
 62
     7
370
     0
100
AcDbLine
 10
2613.591907218975
 20
5662.249663775659
 30
0.0
 11
2623.119929481491
 21
5662.276057189129
 31
0.0
  0
LINE
  5
2E1
102
{ACAD_XDICTIONARY
360
2DF
102
}
330
1F
100
AcDbEntity
  8
0
  6
Continuous
 62
     7
370
     0
100
AcDbLine
 10
1435.759437845083
 20
4379.820096832643
 30
0.0
 11
1435.759437845083
 21
4389.691233470263
 31
0.0
  0
LINE
  5
2E4
102
{ACAD_XDICTIONARY
360
2E2
102
}
330
1F
100
AcDbEntity
  8
0
  6
Continuous
 62
     7
370
     0
100
AcDbLine
 10
1521.062950169253
 20
4376.560510267002
 30
0.0
 11
1521.062950169253
 21
4386.220499596864
 31
0.0
  0
LINE
  5
2E7
102
{ACAD_XDICTIONARY
360
2E5
102
}
330
1F
100
AcDbEntity
  8
0
  6
Continuous
 62
     7
370
     0
100
AcDbLine
 10
1521.062950169477
 20
5160.642840836101
 30
0.0
 11
1521.062950169477
 21
5169.774961896574
 31
0.0
  0
TEXT
  5
2EB
102
{ACAD_XDICTIONARY
360
2E9
102
}
330
1F
100
AcDbEntity
  8
0
  6
Continuous
 62
     7
100
AcDbText
 10
1625.607497887369
 20
5439.358111830835
 30
0.0
 40
23.0
  1
LOCK-UP
 50
90.0
  7
_TCW_TXTSTY_4
 11
1602.607497887369
 21
5439.358111830835
 31
0.0
100
AcDbText
 73
     3
  0
TEXT
  5
2EE
102
{ACAD_XDICTIONARY
360
2EC
102
}
330
1F
100
AcDbEntity
  8
0
  6
Continuous
 62
     7
100
AcDbText
 10
2890.802165829689
 20
5435.135165640146
 30
0.0
 40
23.0
  1
LOCK-UP
 50
90.0
  7
_TCW_TXTSTY_4
 11
2867.802165829689
 21
5435.135165640146
 31
0.0
100
AcDbText
 73
     3
  0
SOLID
  5
2F1
102
{ACAD_XDICTIONARY
360
2EF
102
}
330
1F
100
AcDbEntity
  8
0
  6
Continuous
 62
     7
100
AcDbTrace
 10
2641.368301973082
 20
5082.165681588671
 30
0.0
 11
2652.072042328116
 21
5082.165681592709
 31
0.0
 12
2641.368301968434
 22
5094.484639819915
 32
0.0
 13
2652.072042323469
 23
5094.484639823953
 33
0.0
  0
LINE
  5
2F4
102
{ACAD_XDICTIONARY
360
2F2
102
}
330
1F
100
AcDbEntity
  8
0
  6
Continuous
 62
     7
370
     0
100
AcDbLine
 10
3739.747005531751
 20
4033.826583852012
 30
0.0
 11
3739.747005531751
 21
4024.864563606625
 31
0.0
  0
DIMENSION
  5
2FB
102
{ACAD_XDICTIONARY
360
2F5
102
}
330
1F
100
AcDbEntity
  8
0
  6
Continuous
 62
     7
370
     0
100
AcDbDimension
  2
*D3
 10
3107.481266946229
 20
5085.410327516
 30
0.0
 11
2879.994915033908
 21
5105.982604268061
 31
0.0
 70
    32
  1
<>
 71
     5
 42
454.972703824641
 73
     0
 74
     0
 75
     0
  3
Standard
100
AcDbAlignedDimension
 13
2652.508563121587
 23
5088.174982276303
 33
0.0
 14
3107.481266946229
 24
5088.174982292575
 34
0.0
100
AcDbRotatedDimension
1001
ACAD
1000
DSTYLE
1002
{
1070
   179
1070
     3
1070
    41
1040
12.0
1070
   342
1005
2F7
1070
   176
1070
     7
1070
   177
1070
     7
1070
   178
1070
     7
1070
   271
1070
     3
1070
    43
1040
36.0
1070
    44
1040
12.0
1070
    42
1040
6.0
1070
   147
1040
6.0
1070
   277
1070
     4
1070
     3
1000

1070
    45
1040
2.0
1070
    74
1070
     1
1070
   140
1040
28.57253086419753
1070
    78
1070
    11
1002
}
  0
DIMENSION
  5
30A
102
{ACAD_XDICTIONARY
360
308
102
}
330
1F
100
AcDbEntity
  8
0
  6
Continuous
 62
     7
370
     0
100
AcDbDimension
  2
*D4
 10
1535.786675121846
 20
5084.46948831685
 30
0.0
 11
1799.664762210249
 21
5104.998863370917
 31
0.0
 70
    33
  1
<>
 71
     5
 42
527.7561741768061
 73
     0
 74
     0
 75
     0
  3
Standard
100
AcDbAlignedDimension
 13
2063.542849298652
 23
5086.049291046322
 33
0.0
 14
1535.786675121846
 24
5086.049291046322
 34
0.0
1001
ACAD
1000
DSTYLE
1002
{
1070
   179
1070
     3
1070
    41
1040
12.0
1070
   342
1005
2F7
1070
   176
1070
     7
1070
   177
1070
     7
1070
   178
1070
     7
1070
   271
1070
     3
1070
    43
1040
36.0
1070
    44
1040
12.0
1070
    42
1040
6.0
1070
   147
1040
6.0
1070
   277
1070
     4
1070
     3
1000

1070
    45
1040
2.0
1070
    74
1070
     1
1070
   140
1040
28.57253086419753
1070
    78
1070
    11
1002
}
  0
DIMENSION
  5
319
102
{ACAD_XDICTIONARY
360
317
102
}
330
1F
100
AcDbEntity
  8
0
  6
Continuous
 62
     7
370
     0
100
AcDbDimension
  2
*D5
 10
2646.906158711776
 20
5349.536648553978
 30
0.0
 11
2646.906158711776
 21
5221.872194279444
 31
0.0
 70
    32
  1
<>
 71
     5
 42
255.3289085490687
 73
     0
 74
     0
 75
     0
  3
Standard
100
AcDbAlignedDimension
 13
2645.326355982304
 23
5094.207740004909
 33
0.0
 14
2645.326355982304
 24
5349.536648553978
 34
0.0
 50
-90.0
100
AcDbRotatedDimension
1001
ACAD
1000
DSTYLE
1002
{
1070
   179
1070
     3
1070
    41
1040
12.0
1070
   342
1005
2F7
1070
   176
1070
     7
1070
   177
1070
     7
1070
   178
1070
     7
1070
   271
1070
     3
1070
    43
1040
36.0
1070
    44
1040
12.0
1070
    42
1040
6.0
1070
   147
1040
6.0
1070
   277
1070
     4
1070
     3
1000

1070
    45
1040
1.0
1070
    74
1070
     1
1070
   140
1040
28.57253086419753
1070
    78
1070
    11
1002
}
  0
DIMENSION
  5
329
102
{ACAD_XDICTIONARY
360
327
102
}
330
1F
100
AcDbEntity
  8
0
  6
Continuous
 62
     7
370
     0
100
AcDbDimension
  2
*D6
 10
2643.585850502642
 20
5085.178052058407
 30
0.0
 11
2359.461327381669
 21
5105.750328810468
 31
0.0
 70
    33
  1
<>
 71
     5
 42
568.249046241946
 73
     0
 74
     0
 75
     0
  3
Standard
100
AcDbAlignedDimension
 13
2075.336804260696
 23
5084.388150693671
 33
0.0
 14
2643.585850502642
 24
5084.388150693671
 34
0.0
1001
ACAD
1000
DSTYLE
1002
{
1070
   179
1070
     3
1070
    41
1040
12.0
1070
   342
1005
2F7
1070
   176
1070
     7
1070
   177
1070
     7
1070
   178
1070
     7
1070
   271
1070
     3
1070
    43
1040
36.0
1070
    44
1040
12.0
1070
    42
1040
6.0
1070
   147
1040
6.0
1070
   277
1070
     4
1070
     3
1000

1070
    45
1040
2.0
1070
    74
1070
     1
1070
   140
1040
28.57253086419753
1070
    78
1070
    11
1002
}
  0
DIMENSION
  5
338
102
{ACAD_XDICTIONARY
360
336
102
}
330
1F
100
AcDbEntity
  8
0
  6
Continuous
 62
     7
370
     0
100
AcDbDimension
  2
*D7
 10
2069.0204129649
 20
5659.595659943368
 30
0.0
 11
2069.0204129649
 21
5376.187704129517
 31
0.0
 70
    32
  1
<>
 71
     5
 42
566.8159116276993
 73
     0
 74
     0
 75
     0
  3
Standard
100
AcDbAlignedDimension
 13
2067.440610235428
 23
5092.779748315668
 33
0.0
 14
2069.0204129649
 24
5659.595659943368
 34
0.0
 50
-90.0
100
AcDbRotatedDimension
1001
ACAD
1000
DSTYLE
1002
{
1070
   179
1070
     3
1070
    41
1040
12.0
1070
   342
1005
2F7
1070
   176
1070
     7
1070
   177
1070
     7
1070
   178
1070
     7
1070
   271
1070
     3
1070
    43
1040
36.0
1070
    44
1040
12.0
1070
    42
1040
6.0
1070
   147
1040
6.0
1070
   277
1070
     4
1070
     3
1000

1070
    45
1040
2.0
1070
    74
1070
     1
1070
   140
1040
28.57253086419753
1070
    78
1070
    11
1002
}
  0
DIMENSION
  5
348
102
{ACAD_XDICTIONARY
360
346
102
}
330
1F
100
AcDbEntity
  8
0
  6
Continuous
 62
     7
370
     0
100
AcDbDimension
  2
*D8
 10
2646.106732080827
 20
4514.462755315326
 30
0.0
 11
2646.106732080827
 21
4798.181208635184
 31
0.0
 70
    32
  1
<>
 71
     5
 42
567.4369066397157
 73
     0
 74
     0
 75
     0
  3
Standard
100
AcDbAlignedDimension
 13
2642.799502712024
 23
5081.899661955042
 33
0.0
 14
2642.799502712024
 24
4514.462755315326
 34
0.0
 50
90.0
100
AcDbRotatedDimension
1001
ACAD
1000
DSTYLE
1002
{
1070
   179
1070
     3
1070
    41
1040
12.0
1070
   342
1005
2F7
1070
   176
1070
     7
1070
   177
1070
     7
1070
   178
1070
     7
1070
   271
1070
     3
1070
    43
1040
36.0
1070
    44
1040
12.0
1070
    42
1040
6.0
1070
   147
1040
6.0
1070
   277
1070
     4
1070
     3
1000

1070
    45
1040
2.0
1070
    74
1070
     1
1070
   140
1040
28.57253086419753
1070
    78
1070
    11
1002
}
  0
DIMENSION
  5
358
102
{ACAD_XDICTIONARY
360
356
102
}
330
1F
100
AcDbEntity
  8
0
  6
Continuous
 62
     7
370
     0
100
AcDbDimension
  2
*D9
 10
2646.641536797703
 20
4053.214864657228
 30
0.0
 11
2646.641536797703
 21
4277.627256595065
 31
0.0
 70
    33
  1
<>
 71
     5
 42
448.8247838756743
 73
     0
 74
     0
 75
     0
  3
Standard
100
AcDbAlignedDimension
 13
2649.01124089191
 23
4502.039648532902
 33
0.0
 14
2649.01124089191
 24
4053.214864657228
 34
0.0
1001
ACAD
1000
DSTYLE
1002
{
1070
   179
1070
     3
1070
    41
1040
12.0
1070
   342
1005
2F7
1070
   176
1070
     7
1070
   177
1070
     7
1070
   178
1070
     7
1070
   271
1070
     3
1070
    43
1040
36.0
1070
    44
1040
12.0
1070
    42
1040
6.0
1070
   147
1040
6.0
1070
   277
1070
     4
1070
     3
1000

1070
    45
1040
5.999999999999999
1070
    74
1070
     1
1070
   140
1040
28.57253086419753
1070
    78
1070
    11
1002
}
  0
CIRCLE
  5
368
102
{ACAD_REACTORS
330
36F
102
}
102
{ACAD_XDICTIONARY
360
366
102
}
330
1F
100
AcDbEntity
  8
0
  6
Continuous
 62
     7
370
     0
100
AcDbCircle
 10
3711.991832781427
 20
5618.094043558121
 30
0.0
 40
13.48934775061912
  0
CIRCLE
  5
36B
102
{ACAD_REACTORS
330
36F
102
}
102
{ACAD_XDICTIONARY
360
369
102
}
330
1F
100
AcDbEntity
  8
0
  6
Continuous
 62
     7
370
     0
100
AcDbCircle
 10
3711.991832781427
 20
5618.094043558121
 30
0.0
 40
11.45503320433818
  0
CIRCLE
  5
36E
102
{ACAD_REACTORS
330
36F
102
}
102
{ACAD_XDICTIONARY
360
36C
102
}
330
1F
100
AcDbEntity
  8
0
  6
Continuous
 62
     7
370
     0
100
AcDbCircle
 10
3711.991832781427
 20
5618.094043558121
 30
0.0
 40
4.608901666173324
  0
CIRCLE
  5
372
102
{ACAD_REACTORS
330
379
102
}
102
{ACAD_XDICTIONARY
360
370
102
}
330
1F
100
AcDbEntity
  8
0
  6
Continuous
 62
     7
370
     0
100
AcDbCircle
 10
3712.007244965684
 20
5029.970061135126
 30
0.0
 40
13.48934775061866
  0
CIRCLE
  5
375
102
{ACAD_REACTORS
330
379
102
}
102
{ACAD_XDICTIONARY
360
373
102
}
330
1F
100
AcDbEntity
  8
0
  6
Continuous
 62
     7
370
     0
100
AcDbCircle
 10
3712.007244965684
 20
5029.970061135126
 30
0.0
 40
11.45503320433818
  0
CIRCLE
  5
378
102
{ACAD_REACTORS
330
379
102
}
102
{ACAD_XDICTIONARY
360
376
102
}
330
1F
100
AcDbEntity
  8
0
  6
Continuous
 62
     7
370
     0
100
AcDbCircle
 10
3712.007244965684
 20
5029.970061135126
 30
0.0
 40
4.608901666172869
  0
CIRCLE
  5
37C
102
{ACAD_REACTORS
330
383
102
}
102
{ACAD_XDICTIONARY
360
37A
102
}
330
1F
100
AcDbEntity
  8
0
  6
Continuous
 62
     7
370
     0
100
AcDbCircle
 10
3712.007244965684
 20
4452.404533780824
 30
0.0
 40
13.48934775061844
  0
CIRCLE
  5
37F
102
{ACAD_REACTORS
330
383
102
}
102
{ACAD_XDICTIONARY
360
37D
102
}
330
1F
100
AcDbEntity
  8
0
  6
Continuous
 62
     7
370
     0
100
AcDbCircle
 10
3712.007244965684
 20
4452.404533780824
 30
0.0
 40
11.45503320433818
  0
CIRCLE
  5
382
102
{ACAD_REACTORS
330
383
102
}
102
{ACAD_XDICTIONARY
360
380
102
}
330
1F
100
AcDbEntity
  8
0
  6
Continuous
 62
     7
370
     0
100
AcDbCircle
 10
3712.007244965684
 20
4452.404533780824
 30
0.0
 40
4.608901666172642
  0
LWPOLYLINE
  5
388
102
{ACAD_XDICTIONARY
360
384
102
}
330
1F
100
AcDbEntity
  8
0
  6
Continuous
 62
     7
370
     0
100
AcDbPolyline
 90
        2
 70
   128
 43
0.0
 10
3786.990952642011
 20
5085.785621749548
 10
3786.644444272923
 20
5523.249988191869
  0
LWPOLYLINE
  5
38B
102
{ACAD_XDICTIONARY
360
386
102
}
330
1F
100
AcDbEntity
  8
0
  6
Continuous
 62
     7
370
     0
100
AcDbPolyline
 90
        2
 70
   128
 43
0.0
 10
3795.64444144964
 20
5523.25711694242
 10
3795.990949818728
 20
5085.792750500099
  0
LWPOLYLINE
  5
38E
102
{ACAD_REACTORS
330
3BC
102
}
102
{ACAD_XDICTIONARY
360
38C
102
}
330
1F
100
AcDbEntity
  8
0
  6
Continuous
 62
     7
370
     0
100
AcDbPolyline
 90
        6
 70
     0
 43
0.0
 10
3786.644441506985
 20
5523.249012797017
 10
3786.632917449253
 20
5523.249001171113
 10
3786.61330376798
 20
5548.011135123294
 10
3813.724818580133
 20
5548.038486236189
 10
3813.744432261404
 20
5523.276352284006
 10
3795.644444215575
 20
5523.258092337271
  0
LWPOLYLINE
  5
391
102
{ACAD_REACTORS
330
3BC
102
}
102
{ACAD_XDICTIONARY
360
38F
102
}
330
1F
100
AcDbEntity
  8
0
  6
Continuous
 62
     7
370
     0
100
AcDbPolyline
 90
        6
 70
     0
 43
0.0
 10
3795.990952584667
 20
5085.793725894953
 10
3814.102192968177
 20
5085.81199719347
 10
3814.121806649449
 20
5061.049863241287
 10
3787.0102918373
 20
5061.022512128395
 10
3786.990678156028
 20
5085.784646080575
 10
3786.990949876075
 20
5085.784646354696
  0
LINE
  5
394
102
{ACAD_REACTORS
330
3BC
102
}
102
{ACAD_XDICTIONARY
360
392
102
}
330
1F
100
AcDbEntity
  8
0
  6
Continuous
 62
     7
370
     0
100
AcDbLine
 10
3790.291366088685
 20
5321.716274037329
 30
0.0
 11
3790.252683550622
 21
5370.552704887465
 31
0.0
  0
LINE
  5
397
102
{ACAD_REACTORS
330
3BC
102
}
102
{ACAD_XDICTIONARY
360
395
102
}
330
1F
100
AcDbEntity
  8
0
  6
Continuous
 62
     7
370
     0
100
AcDbLine
 10
3791.608259291233
 20
5370.55407244311
 30
0.0
 11
3791.646941829293
 21
5321.717641592973
 31
0.0
  0
LINE
  5
39A
102
{ACAD_REACTORS
330
3BC
102
}
102
{ACAD_XDICTIONARY
360
398
102
}
330
1F
100
AcDbEntity
  8
0
  6
Continuous
 62
     7
370
     0
100
AcDbLine
 10
3790.178587421386
 20
5464.098544248135
 30
0.0
 11
3790.139904883325
 21
5512.93497509827
 31
0.0
  0
LINE
  5
39D
102
{ACAD_REACTORS
330
3BC
102
}
102
{ACAD_XDICTIONARY
360
39B
102
}
330
1F
100
AcDbEntity
  8
0
  6
Continuous
 62
     7
370
     0
100
AcDbLine
 10
3791.49548062393
 20
5512.936342653915
 30
0.0
 11
3791.534163161997
 21
5464.09991180378
 31
0.0
  0
LINE
  5
3A0
102
{ACAD_REACTORS
330
3BC
102
}
102
{ACAD_XDICTIONARY
360
39E
102
}
330
1F
100
AcDbEntity
  8
0
  6
Continuous
 62
     7
370
     0
100
AcDbLine
 10
3795.691299120831
 20
5464.104105678436
 30
0.0
 11
3786.691296412238
 21
5464.095026138182
 31
0.0
  0
LINE
  5
3A3
102
{ACAD_REACTORS
330
3BC
102
}
102
{ACAD_XDICTIONARY
360
3A1
102
}
330
1F
100
AcDbEntity
  8
0
  6
Continuous
 62
     7
370
     0
100
AcDbLine
 10
3786.652613874176
 20
5512.931456988316
 30
0.0
 11
3795.652616582765
 21
5512.940536528574
 31
0.0
  0
LINE
  5
3A6
102
{ACAD_REACTORS
330
3BC
102
}
102
{ACAD_XDICTIONARY
360
3A4
102
}
330
1F
100
AcDbEntity
  8
0
  6
Continuous
 62
     7
370
     0
100
AcDbLine
 10
3786.765392541474
 20
5370.549186777513
 30
0.0
 11
3795.76539525007
 21
5370.55826631777
 31
0.0
  0
LINE
  5
3A9
102
{ACAD_REACTORS
330
3BC
102
}
102
{ACAD_XDICTIONARY
360
3A7
102
}
330
1F
100
AcDbEntity
  8
0
  6
Continuous
 62
     7
370
     0
100
AcDbLine
 10
3795.804077788129
 20
5321.721835467632
 30
0.0
 11
3786.804075079536
 21
5321.712755927375
 31
0.0
  0
LWPOLYLINE
  5
3AC
102
{ACAD_REACTORS
330
3BC
102
}
102
{ACAD_XDICTIONARY
360
3AA
102
}
330
1F
100
AcDbEntity
  8
0
  6
Continuous
 62
     7
370
     0
100
AcDbPolyline
 90
        4
 70
     0
 43
0.0
 10
3795.678115533699
 20
5313.126425214034
 10
3813.922788251632
 20
5313.144831124095
 10
3813.942401932904
 20
5288.382697171911
 10
3795.697729214972
 20
5288.364291261851
  0
LWPOLYLINE
  5
3AF
102
{ACAD_REACTORS
330
3BC
102
}
102
{ACAD_XDICTIONARY
360
3AD
102
}
330
1F
100
AcDbEntity
  8
0
  6
Continuous
 62
     7
370
     0
100
AcDbPolyline
 90
        4
 70
     1
 43
0.0
 10
3792.573741359813
 20
5380.487663890332
 10
3790.829881863388
 20
5379.810204771091
 10
3778.145826387714
 20
5414.388633812878
 10
3779.889685884144
 20
5415.066092932116
  0
ELLIPSE
  5
3B2
102
{ACAD_REACTORS
330
3BC
102
}
102
{ACAD_XDICTIONARY
360
3B0
102
}
330
1F
100
AcDbEntity
  8
0
  6
$MARGINS
 62
     7
370
     0
100
AcDbEllipse
 10
3791.304099275246
 20
5380.183898779912
 30
0.0
 11
0.1063105920430884
 21
36.61912870976909
 31
0.0
210
0.0
220
0.0
230
1.0
 40
0.9719010807462244
 41
0.0132804406832706
 42
1.059272684865053
  0
LWPOLYLINE
  5
3B5
102
{ACAD_REACTORS
330
3BC
102
}
102
{ACAD_XDICTIONARY
360
3B3
102
}
330
1F
100
AcDbEntity
  8
0
  6
Continuous
 62
     7
370
     0
100
AcDbPolyline
 90
        4
 70
     1
 43
0.0
 10
3792.284372450686
 20
5453.446621536112
 10
3790.539442533522
 20
5454.12056103375
 10
3777.910185301401
 20
5419.516594972788
 10
3779.655115218566
 20
5418.842655475148
  0
ELLIPSE
  5
3B8
102
{ACAD_REACTORS
330
3BC
102
}
102
{ACAD_XDICTIONARY
360
3B6
102
}
330
1F
100
AcDbEntity
  8
0
  6
$MARGINS
 62
     7
370
     0
100
AcDbEllipse
 10
3791.014251180852
 20
5453.747824438009
 30
0.0
 11
0.106310592011499
 21
36.61912870976911
 31
0.0
210
0.0
220
0.0
230
0.9999999999999997
 40
0.9719010807462298
 41
2.089924071830641
 42
3.135916316012409
  0
LWPOLYLINE
  5
3BB
102
{ACAD_REACTORS
330
3BC
102
}
102
{ACAD_XDICTIONARY
360
3B9
102
}
330
1F
100
AcDbEntity
  8
0
  6
Continuous
 62
     7
370
     0
100
AcDbPolyline
 90
        4
 70
     1
 43
0.0
 10
3784.755050864676
 20
5091.280389524437
 10
3777.977172161636
 20
5091.273551746214
 10
3777.826255780743
 20
5281.804415767166
 10
3784.604134483781
 20
5281.811253545388
  0
LWPOLYLINE
  5
3BF
102
{ACAD_REACTORS
330
495
102
}
102
{ACAD_XDICTIONARY
360
3BD
102
}
330
1F
100
AcDbEntity
  8
0
  6
Continuous
 62
     7
370
     0
100
AcDbPolyline
 90
        4
 70
     1
 43
0.0
 10
3789.304903917871
 20
5061.003332097605
 10
3827.938812525191
 20
5061.042307433485
 10
3827.978720918331
 20
5010.658243215265
 10
3789.344812311015
 20
5010.61926787939
  0
LWPOLYLINE
  5
3C4
102
{ACAD_XDICTIONARY
360
3C0
102
}
330
1F
100
AcDbEntity
  8
0
  6
Continuous
 62
     7
370
     0
100
AcDbPolyline
 90
        2
 70
   128
 43
0.0
 10
3802.419074362977
 20
4384.516580209256
 10
3802.173510247674
 20
4694.539539832973
  0
LWPOLYLINE
  5
3C7
102
{ACAD_XDICTIONARY
360
3C2
102
}
330
1F
100
AcDbEntity
  8
0
  6
Continuous
 62
     7
370
     0
100
AcDbPolyline
 90
        2
 70
   128
 43
0.0
 10
3811.166271435878
 20
4703.682052929133
 10
3811.426304437842
 20
4375.39222617933
  0
LWPOLYLINE
  5
3CC
102
{ACAD_XDICTIONARY
360
3C8
102
}
330
1F
100
AcDbEntity
  8
0
  6
Continuous
 62
     7
370
     0
100
AcDbPolyline
 90
        2
 70
   128
 43
0.0
 10
3802.239200748768
 20
4694.606324244781
 10
3780.781731564057
 20
4694.584677145158
  0
LWPOLYLINE
  5
3CF
102
{ACAD_XDICTIONARY
360
3CA
102
}
330
1F
100
AcDbEntity
  8
0
  6
Continuous
 62
     7
370
     0
100
AcDbPolyline
 90
        2
 70
   128
 43
0.0
 10
3789.643111750072
 20
4703.593621417702
 10
3811.100580934783
 20
4703.615268517325
  0
LWPOLYLINE
  5
3D4
102
{ACAD_XDICTIONARY
360
3D0
102
}
330
1F
100
AcDbEntity
  8
0
  6
Continuous
 62
     7
370
     0
100
AcDbPolyline
 90
        2
 70
   128
 43
0.0
 10
3811.360508244141
 20
4375.458877942425
 10
3789.903039059425
 20
4375.437230842801
  0
LWPOLYLINE
  5
3D7
102
{ACAD_XDICTIONARY
360
3D2
102
}
330
1F
100
AcDbEntity
  8
0
  6
Continuous
 62
     7
370
     0
100
AcDbPolyline
 90
        2
 70
   128
 43
0.0
 10
3781.027401371968
 20
4384.428281346531
 10
3802.484870556686
 20
4384.449928446154
  0
LWPOLYLINE
  5
3DA
102
{ACAD_REACTORS
330
495
102
}
102
{ACAD_XDICTIONARY
360
3D8
102
}
330
1F
100
AcDbEntity
  8
0
  6
Continuous
 62
     7
370
     0
100
AcDbPolyline
 90
        4
 70
     1
 43
0.0
 10
3790.255356777096
 20
4074.98908590588
 10
3828.889265384412
 20
4075.028061241755
 10
3828.92917377755
 20
4024.643997023534
 10
3790.295265170235
 20
4024.605021687664
  0
LWPOLYLINE
  5
3DF
102
{ACAD_XDICTIONARY
360
3DB
102
}
330
1F
100
AcDbEntity
  8
0
  6
Continuous
 62
     7
370
     0
100
AcDbPolyline
 90
        2
 70
   128
 43
0.0
 10
3767.050214532166
 20
4781.558552808492
 10
3766.861417330973
 20
5019.913684669827
  0
LWPOLYLINE
  5
3E2
102
{ACAD_XDICTIONARY
360
3DD
102
}
330
1F
100
AcDbEntity
  8
0
  6
Continuous
 62
     7
370
     0
100
AcDbPolyline
 90
        2
 70
   128
 43
0.0
 10
3775.868647405839
 20
5010.789330639912
 10
3776.04297572037
 20
4790.701065904634
  0
LWPOLYLINE
  5
3E7
102
{ACAD_XDICTIONARY
360
3E3
102
}
330
1F
100
AcDbEntity
  8
0
  6
Continuous
 62
     7
370
     0
100
AcDbPolyline
 90
        2
 70
   128
 43
0.0
 10
3789.145552943437
 20
5010.869443020905
 10
3775.802851212142
 20
5010.855982403013
  0
LWPOLYLINE
  5
3EA
102
{ACAD_XDICTIONARY
360
3E5
102
}
330
1F
100
AcDbEntity
  8
0
  6
Continuous
 62
     7
370
     0
100
AcDbPolyline
 90
        2
 70
   128
 43
0.0
 10
3766.927213524662
 20
5019.84703290674
 10
3780.269915255963
 20
5019.860493524633
  0
LWPOLYLINE
  5
3EF
102
{ACAD_XDICTIONARY
360
3EB
102
}
330
1F
100
AcDbEntity
  8
0
  6
Continuous
 62
     7
370
     0
100
AcDbPolyline
 90
        2
 70
   128
 43
0.0
 10
3780.712777215877
 20
4781.639054254869
 10
3767.115905033244
 20
4781.625337220295
  0
LWPOLYLINE
  5
3F2
102
{ACAD_XDICTIONARY
360
3ED
102
}
330
1F
100
AcDbEntity
  8
0
  6
Continuous
 62
     7
370
     0
100
AcDbPolyline
 90
        2
 70
   128
 43
0.0
 10
3775.977285219297
 20
4790.634281492837
 10
3789.574157401924
 20
4790.647998527411
  0
LWPOLYLINE
  5
3F7
102
{ACAD_XDICTIONARY
360
3F3
102
}
330
1F
100
AcDbEntity
  8
0
  6
Continuous
 62
     7
370
     0
100
AcDbPolyline
 90
        2
 70
   128
 43
0.0
 10
3780.204119062266
 20
5019.927145287733
 10
3780.173445620541
 20
5058.652148625926
  0
LWPOLYLINE
  5
3FA
102
{ACAD_XDICTIONARY
360
3F5
102
}
330
1F
100
AcDbEntity
  8
0
  6
Continuous
 62
     7
370
     0
100
AcDbPolyline
 90
        2
 70
   128
 43
0.0
 10
3789.173442797259
 20
5058.659277376479
 10
3789.211349137131
 20
5010.802791257803
  0
LWPOLYLINE
  5
3FF
102
{ACAD_XDICTIONARY
360
3FB
102
}
330
1F
100
AcDbEntity
  8
0
  6
Continuous
 62
     7
370
     0
100
AcDbPolyline
 90
        2
 70
   128
 43
0.0
 10
3780.716041062966
 20
4694.517892733355
 10
3780.647086714798
 20
4781.57226984306
  0
LWPOLYLINE
  5
402
102
{ACAD_XDICTIONARY
360
3FD
102
}
330
1F
100
AcDbEntity
  8
0
  6
Continuous
 62
     7
370
     0
100
AcDbPolyline
 90
        2
 70
   128
 43
0.0
 10
3789.639847903002
 20
4790.714782939222
 10
3789.70880225117
 20
4703.660405829512
  0
LWPOLYLINE
  5
407
102
{ACAD_XDICTIONARY
360
403
102
}
330
1F
100
AcDbEntity
  8
0
  6
Continuous
 62
     7
370
     0
100
AcDbPolyline
 90
        2
 70
   128
 43
0.0
 10
3781.016598399205
 20
4315.066380432367
 10
3780.961605178267
 20
4384.494933109628
  0
LWPOLYLINE
  5
40A
102
{ACAD_XDICTIONARY
360
405
102
}
330
1F
100
AcDbEntity
  8
0
  6
Continuous
 62
     7
370
     0
100
AcDbPolyline
 90
        2
 70
   128
 43
0.0
 10
3789.968835253132
 20
4375.370579079697
 10
3790.02382847407
 20
4305.942026402437
  0
LWPOLYLINE
  5
40F
102
{ACAD_XDICTIONARY
360
40B
102
}
330
1F
100
AcDbEntity
  8
0
  6
Continuous
 62
     7
370
     0
100
AcDbPolyline
 90
        2
 70
   128
 43
0.0
 10
3781.239261353772
 20
4033.955974384106
 10
3781.204311404051
 20
4078.080038837118
  0
LWPOLYLINE
  5
412
102
{ACAD_XDICTIONARY
360
40D
102
}
330
1F
100
AcDbEntity
  8
0
  6
Continuous
 62
     7
370
     0
100
AcDbPolyline
 90
        2
 70
   128
 43
0.0
 10
3790.198156788209
 20
4085.853762205335
 10
3790.246491428637
 20
4024.831620354191
  0
LWPOLYLINE
  5
417
102
{ACAD_XDICTIONARY
360
413
102
}
330
1F
100
AcDbEntity
  8
0
  6
Continuous
 62
     7
370
     0
100
AcDbPolyline
 90
        2
 70
   128
 43
0.0
 10
3790.180695234938
 20
4024.89827211729
 10
3739.763745334162
 20
4024.847409607462
  0
LWPOLYLINE
  5
41A
102
{ACAD_XDICTIONARY
360
415
102
}
330
1F
100
AcDbEntity
  8
0
  6
Continuous
 62
     7
370
     0
100
AcDbPolyline
 90
        2
 70
   128
 43
0.0
 10
3739.754665801259
 20
4033.847405027577
 10
3781.305057547464
 20
4033.889322621019
  0
LINE
  5
41D
102
{ACAD_REACTORS
330
495
102
}
102
{ACAD_XDICTIONARY
360
41B
102
}
330
1F
100
AcDbEntity
  8
0
  6
Continuous
 62
     7
370
     0
100
AcDbLine
 10
3771.743677791306
 20
4976.9619534168
 30
0.0
 11
3771.781815504894
 21
4928.813359620892
 31
0.0
  0
LINE
  5
420
102
{ACAD_REACTORS
330
495
102
}
102
{ACAD_XDICTIONARY
360
41E
102
}
330
1F
100
AcDbEntity
  8
0
  6
Continuous
 62
     7
370
     0
100
AcDbLine
 10
3770.765133699435
 20
4928.812333954159
 30
0.0
 11
3770.726995985849
 21
4976.960927750065
 31
0.0
  0
LINE
  5
423
102
{ACAD_REACTORS
330
495
102
}
102
{ACAD_XDICTIONARY
360
421
102
}
330
1F
100
AcDbEntity
  8
0
  6
Continuous
 62
     7
370
     0
100
AcDbLine
 10
3771.79652576586
 20
4910.241759133641
 30
0.0
 11
3771.834663479447
 21
4862.093165337734
 31
0.0
  0
LINE
  5
426
102
{ACAD_REACTORS
330
495
102
}
102
{ACAD_XDICTIONARY
360
424
102
}
330
1F
100
AcDbEntity
  8
0
  6
Continuous
 62
     7
370
     0
100
AcDbLine
 10
3770.817981673994
 20
4862.092139671004
 30
0.0
 11
3770.779843960405
 21
4910.24073346691
 31
0.0
  0
LINE
  5
429
102
{ACAD_REACTORS
330
495
102
}
102
{ACAD_XDICTIONARY
360
427
102
}
330
1F
100
AcDbEntity
  8
0
  6
Continuous
 62
     7
370
     0
100
AcDbLine
 10
3771.848284091433
 20
4844.897238988586
 30
0.0
 11
3771.886421805018
 21
4796.74864519268
 31
0.0
  0
LINE
  5
42C
102
{ACAD_REACTORS
330
495
102
}
102
{ACAD_XDICTIONARY
360
42A
102
}
330
1F
100
AcDbEntity
  8
0
  6
Continuous
 62
     7
370
     0
100
AcDbLine
 10
3770.869739999563
 20
4796.747619525947
 30
0.0
 11
3770.83160228598
 21
4844.896213321855
 31
0.0
  0
LINE
  5
42F
102
{ACAD_REACTORS
330
495
102
}
102
{ACAD_XDICTIONARY
360
42D
102
}
330
1F
100
AcDbEntity
  8
0
  6
Continuous
 62
     7
370
     0
100
AcDbLine
 10
3766.933576743939
 20
4928.808468535807
 30
0.0
 11
3775.93357945253
 21
4928.817548076062
 31
0.0
  0
LINE
  5
432
102
{ACAD_REACTORS
330
495
102
}
102
{ACAD_XDICTIONARY
360
430
102
}
330
1F
100
AcDbEntity
  8
0
  6
Continuous
 62
     7
370
     0
100
AcDbLine
 10
3775.895441738947
 20
4976.966141871971
 30
0.0
 11
3766.895439030357
 21
4976.957062331716
 31
0.0
  0
LINE
  5
435
102
{ACAD_REACTORS
330
495
102
}
102
{ACAD_XDICTIONARY
360
433
102
}
330
1F
100
AcDbEntity
  8
0
  6
Continuous
 62
     7
370
     0
100
AcDbLine
 10
3766.986424718496
 20
4862.088274252651
 30
0.0
 11
3775.986427427088
 21
4862.097353792907
 31
0.0
  0
LINE
  5
438
102
{ACAD_REACTORS
330
495
102
}
102
{ACAD_XDICTIONARY
360
436
102
}
330
1F
100
AcDbEntity
  8
0
  6
Continuous
 62
     7
370
     0
100
AcDbLine
 10
3775.948289713503
 20
4910.245947588814
 30
0.0
 11
3766.948287004908
 21
4910.236868048559
 31
0.0
  0
LINE
  5
43B
102
{ACAD_REACTORS
330
495
102
}
102
{ACAD_XDICTIONARY
360
439
102
}
330
1F
100
AcDbEntity
  8
0
  6
Continuous
 62
     7
370
     0
100
AcDbLine
 10
3767.038183044066
 20
4796.743754107596
 30
0.0
 11
3776.038185752657
 21
4796.752833647851
 31
0.0
  0
LINE
  5
43E
102
{ACAD_REACTORS
330
495
102
}
102
{ACAD_XDICTIONARY
360
43C
102
}
330
1F
100
AcDbEntity
  8
0
  6
Continuous
 62
     7
370
     0
100
AcDbLine
 10
3776.000048039075
 20
4844.90142744376
 30
0.0
 11
3767.000045330482
 21
4844.892347903503
 31
0.0
  0
LWPOLYLINE
  5
441
102
{ACAD_REACTORS
330
495
102
}
102
{ACAD_XDICTIONARY
360
43F
102
}
330
1F
100
AcDbEntity
  8
0
  6
Continuous
 62
     7
370
     0
100
AcDbPolyline
 90
        4
 70
     0
 43
0.0
 10
3811.44665727353
 20
4382.731812498055
 10
3885.071364627968
 20
4382.806087863952
 10
3884.821835016231
 20
4697.83545870004
 10
3811.197127661799
 20
4697.761183334143
  0
LWPOLYLINE
  5
444
102
{ACAD_REACTORS
330
495
102
}
102
{ACAD_XDICTIONARY
360
442
102
}
330
1F
100
AcDbEntity
  8
0
  6
Continuous
 62
     7
370
     0
100
AcDbPolyline
 90
        4
 70
     0
 43
0.0
 10
3811.432491837064
 20
4400.615575901944
 10
3864.18371978544
 20
4400.668793319006
 10
3863.962112428323
 20
4680.446515093927
 10
3811.210884479941
 20
4680.393297676865
  0
LWPOLYLINE
  5
447
102
{ACAD_REACTORS
330
495
102
}
102
{ACAD_XDICTIONARY
360
445
102
}
330
1F
100
AcDbEntity
  8
0
  6
Continuous
 62
     7
370
     0
100
AcDbPolyline
 90
        4
 70
     1
 43
0.0
 10
3804.470411903104
 20
4513.930793429638
 10
3778.548666483541
 20
4487.357814510794
 10
3780.184904983286
 20
4485.71400065853
 10
3806.106650402848
 20
4512.286979577377
  0
ELLIPSE
  5
44A
102
{ACAD_REACTORS
330
495
102
}
102
{ACAD_XDICTIONARY
360
448
102
}
330
1F
100
AcDbEntity
  8
0
  6
$MARGINS
 62
     7
370
     0
100
AcDbEllipse
 10
3805.109155752476
 20
4513.466358783864
 30
0.0
 11
0.2418676073298134
 21
37.42064149262493
 31
0.0
210
0.0
220
0.0
230
1.0
 40
0.9853887873054076
 41
2.115602699245905
 42
3.159229318596582
  0
LWPOLYLINE
  5
44D
102
{ACAD_REACTORS
330
495
102
}
102
{ACAD_XDICTIONARY
360
44B
102
}
330
1F
100
AcDbEntity
  8
0
  6
Continuous
 62
     7
370
     0
100
AcDbPolyline
 90
        4
 70
     1
 43
0.0
 10
3806.332697447026
 20
4438.268543915176
 10
3780.368897444454
 20
4464.789178749956
 10
3782.002529255171
 20
4466.436291370023
 10
3807.966329257738
 20
4439.915656535244
  0
ELLIPSE
  5
450
102
{ACAD_REACTORS
330
495
102
}
102
{ACAD_XDICTIONARY
360
44E
102
}
330
1F
100
AcDbEntity
  8
0
  6
$MARGINS
 62
     7
370
     0
100
AcDbEllipse
 10
3806.970704533991
 20
4438.734266595181
 30
0.0
 11
0.2418676072336526
 21
37.42064149262425
 31
0.0
210
0.0
220
0.0
230
1.0
 40
0.9853887873053159
 41
-0.002910557270934
 42
1.040716062079864
  0
LWPOLYLINE
  5
453
102
{ACAD_REACTORS
330
495
102
}
102
{ACAD_XDICTIONARY
360
451
102
}
330
1F
100
AcDbEntity
  8
0
  6
Continuous
 62
     7
370
     0
100
AcDbPolyline
 90
        4
 70
     1
 43
0.0
 10
3804.368529725399
 20
4642.556322557278
 10
3778.446784305836
 20
4615.983343638433
 10
3780.083022805578
 20
4614.339529786166
 10
3806.004768225141
 20
4640.912508705011
  0
ELLIPSE
  5
456
102
{ACAD_REACTORS
330
495
102
}
102
{ACAD_XDICTIONARY
360
454
102
}
330
1F
100
AcDbEntity
  8
0
  6
$MARGINS
 62
     7
370
     0
100
AcDbEllipse
 10
3805.007273574769
 20
4642.091887911499
 30
0.0
 11
0.2418676071340904
 21
37.42064149262568
 31
0.0
210
0.0
220
0.0
230
1.0
 40
0.9853887873054151
 41
2.11560269924073
 42
3.159229318591373
  0
LWPOLYLINE
  5
459
102
{ACAD_REACTORS
330
495
102
}
102
{ACAD_XDICTIONARY
360
457
102
}
330
1F
100
AcDbEntity
  8
0
  6
Continuous
 62
     7
370
     0
100
AcDbPolyline
 90
        4
 70
     1
 43
0.0
 10
3806.230815269317
 20
4566.894073042811
 10
3780.267015266749
 20
4593.414707877593
 10
3781.900647077462
 20
4595.061820497656
 10
3807.864447080034
 20
4568.541185662877
  0
ELLIPSE
  5
45C
102
{ACAD_REACTORS
330
495
102
}
102
{ACAD_XDICTIONARY
360
45A
102
}
330
1F
100
AcDbEntity
  8
0
  6
$MARGINS
 62
     7
370
     0
100
AcDbEllipse
 10
3806.868822356286
 20
4567.359795722815
 30
0.0
 11
0.241867607139626
 21
37.4206414926285
 31
0.0
210
0.0
220
0.0
230
1.0
 40
0.9853887873052203
 41
-0.0029105572734346
 42
1.040716062077334
  0
LWPOLYLINE
  5
45F
102
{ACAD_REACTORS
330
495
102
}
102
{ACAD_XDICTIONARY
360
45D
102
}
330
1F
100
AcDbEntity
  8
0
  6
Continuous
 62
     7
370
     0
100
AcDbPolyline
 90
        3
 70
     0
 43
0.0
 10
3790.172642744201
 20
4085.822444721029
 10
3781.191953462679
 20
4085.813384664883
 10
3781.198116789605
 20
4078.032227988938
  0
LWPOLYLINE
  5
462
102
{ACAD_REACTORS
330
495
102
}
102
{ACAD_XDICTIONARY
360
460
102
}
330
1F
100
AcDbEntity
  8
0
  6
Continuous
 62
     7
370
     0
100
AcDbPolyline
 90
        3
 70
     0
 43
0.0
 10
3790.019394651838
 20
4306.037797959256
 10
3781.038705370313
 20
4306.028737903109
 10
3781.031248085248
 20
4315.443507582848
  0
LWPOLYLINE
  5
467
102
{ACAD_XDICTIONARY
360
463
102
}
330
1F
100
AcDbEntity
  8
0
  6
Continuous
 62
     7
370
     0
100
AcDbPolyline
 90
        2
 70
   128
 43
0.0
 10
3771.655180196704
 20
4080.410604561289
 10
3771.474118014306
 20
4309.000329874235
  0
LWPOLYLINE
  5
46A
102
{ACAD_XDICTIONARY
360
465
102
}
330
1F
100
AcDbEntity
  8
0
  6
Continuous
 62
     7
370
     0
100
AcDbPolyline
 90
        2
 70
   128
 43
0.0
 10
3780.474115191024
 20
4309.007458624786
 10
3780.655177373422
 20
4080.417733311841
  0
LINE
  5
46D
102
{ACAD_REACTORS
330
495
102
}
102
{ACAD_XDICTIONARY
360
46B
102
}
330
1F
100
AcDbEntity
  8
0
  6
Continuous
 62
     7
370
     0
100
AcDbLine
 10
3777.295160434544
 20
4165.416566234077
 30
0.0
 11
3777.335079655864
 21
4115.018831516467
 31
0.0
  0
LINE
  5
470
102
{ACAD_REACTORS
330
495
102
}
102
{ACAD_XDICTIONARY
360
46E
102
}
330
1F
100
AcDbEntity
  8
0
  6
Continuous
 62
     7
370
     0
100
AcDbLine
 10
3775.778285639492
 20
4115.01726096428
 30
0.0
 11
3775.738366418173
 21
4165.414995681888
 31
0.0
  0
LINE
  5
473
102
{ACAD_REACTORS
330
495
102
}
102
{ACAD_XDICTIONARY
360
471
102
}
330
1F
100
AcDbEntity
  8
0
  6
Continuous
 62
     7
370
     0
100
AcDbLine
 10
3775.722969004217
 20
4184.854121954299
 30
0.0
 11
3775.683049782896
 21
4235.25185667191
 31
0.0
  0
LINE
  5
476
102
{ACAD_REACTORS
330
495
102
}
102
{ACAD_XDICTIONARY
360
474
102
}
330
1F
100
AcDbEntity
  8
0
  6
Continuous
 62
     7
370
     0
100
AcDbLine
 10
3777.239843799272
 20
4235.253427224098
 30
0.0
 11
3777.279763020588
 21
4184.855692506487
 31
0.0
  0
LINE
  5
479
102
{ACAD_REACTORS
330
495
102
}
102
{ACAD_XDICTIONARY
360
477
102
}
330
1F
100
AcDbEntity
  8
0
  6
Continuous
 62
     7
370
     0
100
AcDbLine
 10
3775.668792918146
 20
4253.251047635645
 30
0.0
 11
3775.628873696827
 21
4303.648782353256
 31
0.0
  0
LINE
  5
47C
102
{ACAD_REACTORS
330
495
102
}
102
{ACAD_XDICTIONARY
360
47A
102
}
330
1F
100
AcDbEntity
  8
0
  6
Continuous
 62
     7
370
     0
100
AcDbLine
 10
3777.185667713198
 20
4303.650352905443
 30
0.0
 11
3777.225586934518
 21
4253.252618187832
 31
0.0
  0
LINE
  5
47F
102
{ACAD_REACTORS
330
495
102
}
102
{ACAD_XDICTIONARY
360
47D
102
}
330
1F
100
AcDbEntity
  8
0
  6
Continuous
 62
     7
370
     0
100
AcDbLine
 10
3780.572454681622
 20
4184.859014297319
 30
0.0
 11
3771.572451973028
 21
4184.849934757064
 31
0.0
  0
LINE
  5
482
102
{ACAD_REACTORS
330
495
102
}
102
{ACAD_XDICTIONARY
360
480
102
}
330
1F
100
AcDbEntity
  8
0
  6
Continuous
 62
     7
370
     0
100
AcDbLine
 10
3771.532532751712
 20
4235.247669474678
 30
0.0
 11
3780.532535460301
 21
4235.256749014929
 31
0.0
  0
LINE
  5
485
102
{ACAD_REACTORS
330
495
102
}
102
{ACAD_XDICTIONARY
360
483
102
}
330
1F
100
AcDbEntity
  8
0
  6
Continuous
 62
     7
370
     0
100
AcDbLine
 10
3780.518278595553
 20
4253.255939978665
 30
0.0
 11
3771.518275886959
 21
4253.246860438409
 31
0.0
  0
LINE
  5
488
102
{ACAD_REACTORS
330
495
102
}
102
{ACAD_XDICTIONARY
360
486
102
}
330
1F
100
AcDbEntity
  8
0
  6
Continuous
 62
     7
370
     0
100
AcDbLine
 10
3771.47835666564
 20
4303.644595156019
 30
0.0
 11
3780.478359374236
 21
4303.653674696276
 31
0.0
  0
LINE
  5
48B
102
{ACAD_REACTORS
330
495
102
}
102
{ACAD_XDICTIONARY
360
489
102
}
330
1F
100
AcDbEntity
  8
0
  6
Continuous
 62
     7
370
     0
100
AcDbLine
 10
3780.627771316896
 20
4115.022153307297
 30
0.0
 11
3771.627768608303
 21
4115.013073767044
 31
0.0
  0
LINE
  5
48E
102
{ACAD_REACTORS
330
495
102
}
102
{ACAD_XDICTIONARY
360
48C
102
}
330
1F
100
AcDbEntity
  8
0
  6
Continuous
 62
     7
370
     0
100
AcDbLine
 10
3771.587849386984
 20
4165.410808484654
 30
0.0
 11
3780.587852095578
 21
4165.419888024909
 31
0.0
  0
LINE
  5
491
102
{ACAD_REACTORS
330
495
102
}
102
{ACAD_XDICTIONARY
360
48F
102
}
330
1F
100
AcDbEntity
  8
0
  6
Continuous
 62
     7
370
     0
100
AcDbLine
 10
3780.66675027216
 20
4080.36067273652
 30
0.0
 11
3771.643699248745
 21
4080.351569944261
 31
0.0
  0
LINE
  5
494
102
{ACAD_REACTORS
330
495
102
}
102
{ACAD_XDICTIONARY
360
492
102
}
330
1F
100
AcDbEntity
  8
0
  6
Continuous
 62
     7
370
     0
100
AcDbLine
 10
3780.485664232999
 20
4308.980513614182
 30
0.0
 11
3771.504974951475
 21
4308.971453558035
 31
0.0
  0
TEXT
  5
498
102
{ACAD_REACTORS
330
49F
102
}
102
{ACAD_XDICTIONARY
360
496
102
}
330
1F
100
AcDbEntity
  8
0
  6
Continuous
 62
     7
100
AcDbText
 10
1263.34075946562
 20
4631.779914246536
 30
0.0
 40
23.0
  1
TO STAGE 2
  7
_TCW_TXTSTY_4
 11
1263.34075946562
 21
4654.779914246536
 31
0.0
100
AcDbText
 73
     3
  0
LWPOLYLINE
  5
49B
102
{ACAD_REACTORS
330
49F
102
}
102
{ACAD_XDICTIONARY
360
499
102
}
330
1F
100
AcDbEntity
  8
0
  6
Continuous
 62
     7
370
     0
100
AcDbPolyline
 90
        5
 70
     0
 43
0.0
 10
1197.609240775993
 20
4642.701663896076
 10
1248.952829483814
 20
4694.045252603895
 10
1248.952829483814
 20
4662.449198014468
 10
1498.561660740293
 20
4662.449198014468
 10
1498.56166071006
 20
4643.096614597323
  0
LWPOLYLINE
  5
49E
102
{ACAD_REACTORS
330
49F
102
}
102
{ACAD_XDICTIONARY
360
49C
102
}
330
1F
100
AcDbEntity
  8
0
  6
Continuous
 62
     7
370
     0
100
AcDbPolyline
 90
        5
 70
     0
 43
0.0
 10
1197.609240745247
 20
4643.096614608401
 10
1248.952829453067
 20
4591.753025900582
 10
1248.952829453067
 20
4623.349080490009
 10
1498.561660709546
 20
4623.349080490009
 10
1498.561660679313
 20
4642.701663907154
  0
MTEXT
  5
4A5
102
{ACAD_XDICTIONARY
360
4A3
102
}
330
1F
100
AcDbEntity
  8
0
  6
Continuous
 62
     7
100
AcDbMText
 10
2354.471069977634
 20
3969.3692505419
 30
0.0
 40
23.0
 41
268.55859375
 46
0.0
 71
     1
 72
     1
  1
{ALLIED STUDIOS\P       STAGE 3\P  (310) 889-2050}
  7
_TCW_TXTSTY_5
 73
     1
 44
1.0
  0
MTEXT
  5
4A8
102
{ACAD_XDICTIONARY
360
4A6
102
}
330
1F
100
AcDbEntity
  8
0
  6
Continuous
 62
     7
100
AcDbMText
 10
1936.530842233242
 20
5839.998949348203
 30
0.0
 40
15.33333333333333
 41
182.671875
 46
0.0
 71
     1
 72
     1
  1
{SUPPORT SPACE\P AND MILL AREA}
  7
_TCW_TXTSTY_2
 73
     1
 44
1.0
  0
MTEXT
  5
4AC
102
{ACAD_XDICTIONARY
360
4AA
102
}
330
1F
100
AcDbEntity
  8
0
  6
Continuous
 62
     7
100
AcDbMText
 10
1275.551357575048
 20
4688.797188944826
 30
0.0
 40
19.16666666666666
 41
189.4775390625
 46
0.0
 71
     1
 72
     1
  1
{DOOR HEIGHT\P          20'}
  7
_TCW_TXTSTY_6
 11
6.123233995736766E-17
 21
1.0
 31
0.0
 73
     1
 44
1.0
  0
DIMENSION
  5
4AF
102
{ACAD_XDICTIONARY
360
4AD
102
}
330
1F
100
AcDbEntity
  8
0
  6
Continuous
 62
     7
370
     0
100
AcDbDimension
  2
*D10
 10
3145.22574549831
 20
4244.805042796513
 30
0.0
 11
3145.22574549831
 21
4365.450134025721
 31
0.0
 70
    33
  1
<>
 71
     5
 42
241.2901824584169
 73
     0
 74
     0
 75
     0
  3
Standard
100
AcDbAlignedDimension
 13
3146.797775575993
 23
4486.09522525493
 33
0.0
 14
3146.797775575993
 24
4244.805042796513
 34
0.0
1001
ACAD
1000
DSTYLE
1002
{
1070
   179
1070
     3
1070
    41
1040
12.0
1070
   342
1005
2F7
1070
   176
1070
     7
1070
   177
1070
     7
1070
   178
1070
     7
1070
   271
1070
     3
1070
    43
1040
36.0
1070
    44
1040
12.0
1070
    42
1040
6.0
1070
   147
1040
6.0
1070
   277
1070
     4
1070
     3
1000

1070
    45
1040
5.999999999999999
1070
    74
1070
     1
1070
   140
1040
28.57253086419753
1070
    78
1070
    11
1002
}
  0
DIMENSION
  5
4BF
102
{ACAD_XDICTIONARY
360
4BD
102
}
330
1F
100
AcDbEntity
  8
0
  6
Continuous
 62
     7
370
     0
100
AcDbDimension
  2
*D11
 10
3148.433977592993
 20
5083.738086418019
 30
0.0
 11
3148.433977592993
 21
5204.383177647227
 31
0.0
 70
    33
  1
<>
 71
     5
 42
241.2901824584169
 73
     0
 74
     0
 75
     0
  3
Standard
100
AcDbAlignedDimension
 13
3150.006007670675
 23
5325.028268876436
 33
0.0
 14
3150.006007670675
 24
5083.738086418019
 34
0.0
1001
ACAD
1000
DSTYLE
1002
{
1070
   179
1070
     3
1070
    41
1040
12.0
1070
   342
1005
2F7
1070
   176
1070
     7
1070
   177
1070
     7
1070
   178
1070
     7
1070
   271
1070
     3
1070
    43
1040
36.0
1070
    44
1040
12.0
1070
    42
1040
6.0
1070
   147
1040
6.0
1070
   277
1070
     4
1070
     3
1000

1070
    45
1040
5.999999999999999
1070
    74
1070
     1
1070
   140
1040
28.57253086419753
1070
    78
1070
    11
1002
}
  0
MTEXT
  5
4CF
102
{ACAD_XDICTIONARY
360
4CD
102
}
330
1F
100
AcDbEntity
  8
0
  6
Continuous
 62
     7
100
AcDbMText
 10
3202.94512992536
 20
4385.258067452385
 30
0.0
 40
15.33333333333333
 41
151.58203125
 46
0.0
 71
     1
 72
     1
  1
{DOOR HEIGHT\P          14'}
  7
_TCW_TXTSTY_2
 73
     1
 44
1.0
  0
MTEXT
  5
4D2
102
{ACAD_XDICTIONARY
360
4D0
102
}
330
1F
100
AcDbEntity
  8
0
  6
Continuous
 62
     7
100
AcDbMText
 10
3202.402325267216
 20
5108.741604645536
 30
0.0
 40
19.16666666666666
 41
189.4775390625
 46
0.0
 71
     1
 72
     1
  1
{DOOR HEIGHT\P          14'}
  7
_TCW_TXTSTY_6
 11
6.123233995736766E-17
 21
1.0
 31
0.0
 73
     1
 44
1.0
  0
DIMENSION
  5
4D5
102
{ACAD_XDICTIONARY
360
4D3
102
}
330
1F
100
AcDbEntity
  8
0
  6
Continuous
 62
     7
370
     0
100
AcDbDimension
  2
*D12
 10
1394.943156730045
 20
4549.626195205988
 30
0.0
 11
1394.943156730045
 21
4788.571357996986
 31
0.0
 70
    32
  1
<>
 71
     5
 42
477.8903255819969
 73
     0
 74
     0
 75
     0
  3
Standard
100
AcDbAlignedDimension
 13
1391.635927361242
 23
5027.516520787985
 33
0.0
 14
1391.635927361242
 24
4549.626195205988
 34
0.0
 50
90.0
100
AcDbRotatedDimension
1001
ACAD
1000
DSTYLE
1002
{
1070
   179
1070
     3
1070
    41
1040
12.0
1070
   342
1005
2F7
1070
   176
1070
     7
1070
   177
1070
     7
1070
   178
1070
     7
1070
   271
1070
     3
1070
    43
1040
36.0
1070
    44
1040
12.0
1070
    42
1040
6.0
1070
   147
1040
6.0
1070
   277
1070
     4
1070
     3
1000

1070
    45
1040
5.999999999999999
1070
    74
1070
     1
1070
   140
1040
28.57253086419753
1070
    78
1070
    11
1002
}
  0
DIMENSION
  5
4E5
102
{ACAD_XDICTIONARY
360
4E3
102
}
330
1F
100
AcDbEntity
  8
0
  6
Continuous
 62
     7
370
     0
100
AcDbDimension
  2
*D13
 10
1783.772103452921
 20
5686.808447025128
 30
0.0
 11
1852.493522229991
 21
5707.337822079195
 31
0.0
 70
    33
  1
<>
 71
     5
 42
137.4428375541384
 73
     0
 74
     0
 75
     0
  3
Standard
100
AcDbAlignedDimension
 13
1921.21494100706
 23
5688.388249754599
 33
0.0
 14
1783.772103452921
 24
5688.388249754599
 34
0.0
1001
ACAD
1000
DSTYLE
1002
{
1070
   179
1070
     3
1070
    41
1040
12.0
1070
   342
1005
2F7
1070
   176
1070
     7
1070
   177
1070
     7
1070
   178
1070
     7
1070
   271
1070
     3
1070
    43
1040
36.0
1070
    44
1040
12.0
1070
    42
1040
6.0
1070
   147
1040
6.0
1070
   277
1070
     4
1070
     3
1000

1070
    45
1040
5.999999999999999
1070
    74
1070
     1
1070
   140
1040
28.57253086419753
1070
    78
1070
    11
1002
}
  0
MTEXT
  5
4F4
102
{ACAD_XDICTIONARY
360
4F2
102
}
330
1F
100
AcDbEntity
  8
0
  6
Continuous
 62
     7
100
AcDbMText
 10
1759.0345252523
 20
5778.725277827818
 30
0.0
 40
19.16666666666666
 41
189.4775390625
 46
0.0
 71
     1
 72
     1
  1
{DOOR HEIGHT\P           8'}
  7
_TCW_TXTSTY_6
 73
     1
 44
1.0
  0
MTEXT
  5
4F7
102
{ACAD_XDICTIONARY
360
4F5
102
}
330
1F
100
AcDbEntity
  8
0
  6
Continuous
 62
     7
100
AcDbMText
 10
3837.88591789849
 20
4936.799974256898
 30
0.0
 40
15.33333333333333
 41
206.53125
 46
0.0
 71
     1
 72
     1
  1
{             TO\PEAST PARKING LOT\P   AND BACK LOT}
  7
_TCW_TXTSTY_2
 73
     1
 44
1.0
  0
MTEXT
  5
4FA
102
{ACAD_XDICTIONARY
360
4F8
102
}
330
1F
100
AcDbEntity
  8
0
  6
Continuous
 62
     7
100
AcDbMText
 10
3392.886977480282
 20
5424.812926538524
 30
0.0
 40
15.33333333333333
 41
220.86328125
 46
0.0
 71
     1
 72
     1
  1
{ COVERED PARKING \POR SUPPORT SPACE}
  7
_TCW_TXTSTY_2
 73
     1
 44
1.0
  0
LWPOLYLINE
  5
4FB
330
1F
100
AcDbEntity
  8
0
  6
Continuous
 62
     7
370
     0
100
AcDbPolyline
 90
        4
 70
   128
 43
0.0
 10
2569.489282861601
 20
5662.24785448169
 10
2569.4892828616
 20
5405.212250175923
 10
2560.4892828616
 20
5405.212250175923
 10
2560.489282861601
 20
5662.24785448169
  0
LWPOLYLINE
  5
4FC
330
1F
100
AcDbEntity
  8
0
  6
Continuous
 62
     7
370
     0
100
AcDbPolyline
 90
        2
 70
   128
 43
0.0
 10
2569.4892828616
 20
5368.44764546572
 10
2569.4892828616
 20
5358.469548868607
  0
LWPOLYLINE
  5
4FD
330
1F
100
AcDbEntity
  8
0
  6
Continuous
 62
     7
370
     0
100
AcDbPolyline
 90
        2
 70
   129
 43
0.0
 10
2560.4892828616
 20
5349.469548868607
 10
2560.4892828616
 20
5368.44764546572
  0
LWPOLYLINE
  5
4FE
330
1F
100
AcDbEntity
  8
0
  6
Continuous
 62
     7
370
     0
100
AcDbPolyline
 90
        2
 70
   128
 43
0.0
 10
2569.4892828616
 20
5358.469548868607
 10
2645.930534796134
 20
5358.469548868607
  0
LWPOLYLINE
  5
4FF
330
1F
100
AcDbEntity
  8
0
  6
Continuous
 62
     7
370
     0
100
AcDbPolyline
 90
        4
 70
   128
 43
0.0
 10
2654.930534796134
 20
5358.469548868607
 10
2983.67468712165
 20
5358.469548868607
 10
2983.67468712165
 20
5349.469548868607
 10
2560.4892828616
 20
5349.469548868607
  0
LWPOLYLINE
  5
500
330
1F
100
AcDbEntity
  8
0
  6
Continuous
 62
     7
370
     0
100
AcDbPolyline
 90
        4
 70
   129
 43
0.0
 10
3045.328603870178
 20
5358.469548868607
 10
3059.400012323858
 20
5358.469548868607
 10
3059.400012323858
 20
5349.469548868607
 10
3045.328603870178
 20
5349.469548868607
  0
LWPOLYLINE
  5
501
330
1F
100
AcDbEntity
  8
0
  6
Continuous
 62
     7
370
     0
100
AcDbPolyline
 90
        2
 70
   128
 43
0.0
 10
3099.255446633593
 20
5358.469548868607
 10
3107.696513350823
 20
5358.469548868607
  0
LWPOLYLINE
  5
502
330
1F
100
AcDbEntity
  8
0
  6
Continuous
 62
     7
370
     0
100
AcDbPolyline
 90
        2
 70
   129
 43
0.0
 10
3107.696513350823
 20
5349.469548868607
 10
3099.255446633593
 20
5349.469548868607
  0
LINE
  5
505
102
{ACAD_XDICTIONARY
360
503
102
}
330
1F
100
AcDbEntity
  8
0
  6
Continuous
 62
     7
370
     0
100
AcDbLine
 10
3107.694224795278
 20
5346.364481360967
 30
0.0
 11
3107.694224795278
 21
5349.475645365757
 31
0.0
  0
LINE
  5
508
102
{ACAD_XDICTIONARY
360
506
102
}
330
1F
100
AcDbEntity
  8
0
  6
Continuous
 62
     7
370
     0
100
AcDbLine
 10
3159.1606045044
 20
4053.0149693287
 30
0.0
 11
3168.18908043987
 21
4053.13697576026
 31
0.0
  0
LWPOLYLINE
  5
50B
102
{ACAD_REACTORS
330
521
102
}
102
{ACAD_XDICTIONARY
360
509
102
}
330
1F
100
AcDbEntity
  8
0
  6
Continuous
 62
     7
370
     0
100
AcDbPolyline
 90
        4
 70
     1
 43
0.0
 10
2898.097384554802
 20
3934.28279889658
 10
3498.097384554802
 20
3934.28279889658
 10
3498.097384554802
 20
3898.28279889658
 10
2898.097384554802
 20
3898.28279889658
  0
SOLID
  5
50E
102
{ACAD_REACTORS
330
521
102
}
102
{ACAD_XDICTIONARY
360
50C
102
}
330
1F
100
AcDbEntity
  8
0
  6
Continuous
 62
     7
100
AcDbTrace
 10
3198.09714306568
 20
3916.282696570996
 30
0.0
 11
3498.09714306568
 21
3916.282696570996
 31
0.0
 12
3198.09714306568
 22
3898.282696570996
 32
0.0
 13
3498.09714306568
 23
3898.282696570996
 33
0.0
  0
SOLID
  5
511
102
{ACAD_REACTORS
330
521
102
}
102
{ACAD_XDICTIONARY
360
50F
102
}
330
1F
100
AcDbEntity
  8
0
  6
Continuous
 62
     7
100
AcDbTrace
 10
2898.098849214678
 20
3916.283595233282
 30
0.0
 11
3018.098849214678
 21
3916.283595233282
 31
0.0
 12
2898.098849214678
 22
3898.283595233282
 32
0.0
 13
3018.098849214678
 23
3898.283595233282
 33
0.0
  0
SOLID
  5
514
102
{ACAD_REACTORS
330
521
102
}
102
{ACAD_XDICTIONARY
360
512
102
}
330
1F
100
AcDbEntity
  8
0
  6
Continuous
 62
     7
100
AcDbTrace
 10
3018.098566193371
 20
3934.283350581123
 30
0.0
 11
3198.097384509699
 21
3934.283350581123
 31
0.0
 12
3018.098566193371
 22
3916.283350581123
 32
0.0
 13
3198.097384509699
 23
3916.283350581123
 33
0.0
  0
TEXT
  5
517
102
{ACAD_REACTORS
330
521
102
}
102
{ACAD_XDICTIONARY
360
515
102
}
330
1F
100
AcDbEntity
  8
0
  6
Continuous
 62
     7
100
AcDbText
 10
2891.977977554583
 20
3876.307193891916
 30
0.0
 40
15.33333333333333
  1
0'
  7
_TCW_TXTSTY_2
 11
2891.977977554583
 21
3891.640527225249
 31
0.0
100
AcDbText
 73
     3
  0
TEXT
  5
51A
102
{ACAD_REACTORS
330
521
102
}
102
{ACAD_XDICTIONARY
360
518
102
}
330
1F
100
AcDbEntity
  8
0
  6
Continuous
 62
     7
100
AcDbText
 10
3002.865708755875
 20
3876.709794575739
 30
0.0
 40
15.33333333333333
  1
10'+/-
  7
_TCW_TXTSTY_2
 11
3002.865708755875
 21
3892.043127909072
 31
0.0
100
AcDbText
 73
     3
  0
TEXT
  5
51D
102
{ACAD_REACTORS
330
521
102
}
102
{ACAD_XDICTIONARY
360
51B
102
}
330
1F
100
AcDbEntity
  8
0
  6
Continuous
 62
     7
100
AcDbText
 10
3184.841217843472
 20
3876.652280192335
 30
0.0
 40
15.33333333333333
  1
25'+/-
  7
_TCW_TXTSTY_2
 11
3184.841217843472
 21
3891.985613525668
 31
0.0
100
AcDbText
 73
     3
  0
TEXT
  5
520
102
{ACAD_REACTORS
330
521
102
}
102
{ACAD_XDICTIONARY
360
51E
102
}
330
1F
100
AcDbEntity
  8
0
  6
Continuous
 62
     7
100
AcDbText
 10
3465.756751151279
 20
3875.382719331932
 30
0.0
 40
15.33333333333333
  1
50'+/-
  7
_TCW_TXTSTY_2
 11
3465.756751151279
 21
3890.716052665266
 31
0.0
100
AcDbText
 73
     3
  0
MTEXT
  5
527
102
{ACAD_XDICTIONARY
360
525
102
}
330
1F
100
AcDbEntity
  8
0
  6
Continuous
 62
     7
100
AcDbMText
 10
2355.815135435958
 20
3824.630138867849
 30
0.0
 40
26.83333333333333
 41
1161.521484375
 46
0.0
 71
     1
 72
     1
  1
{MEASUREMENTS ARE ONLY AN APPROXIMATION AND SHOULD\P       NOT BE RELIED UPON FOR PRODUCTION PURPOSES.}
  7
_TCW_TXTSTY_7
 73
     1
 44
1.0
  0
VIEWPORT
  5
528
330
1B
100
AcDbEntity
 67
     1
  8
0
100
AcDbViewport
 10
5.5
 20
4.25
 30
0.0
 40
11.0
 41
8.5
 68
     1
 69
     1
 12
5.5
 22
4.25
 13
0.0
 23
0.0
 14
0.5
 24
0.5
 15
0.5
 25
0.5
 16
0.0
 26
0.0
 36
1.0
 17
0.0
 27
0.0
 37
0.0
 42
50.0
 43
0.0
 44
0.0
 45
8.5
 50
0.0
 51
0.0
 72
  1000
 90
    32800
  1

281
     0
 71
     1
 74
     0
110
0.0
120
0.0
130
0.0
111
1.0
121
0.0
131
0.0
112
0.0
122
1.0
132
0.0
 79
     0
146
0.0
170
     0
 61
     5
292
     1
282
     1
141
0.0
142
0.0
 63
   256
  0
VIEWPORT
  5
529
330
1B
100
AcDbEntity
 67
     1
  8
0
  6
Continuous
100
AcDbViewport
 10
5.5
 20
4.25
 30
0.0
 40
11.0
 41
8.5
 68
     2
 69
     2
 12
504.0
 22
384.0
 13
0.0
 23
0.0
 14
0.5
 24
0.5
 15
0.0
 25
0.0
 16
0.0
 26
0.0
 36
1.0
 17
0.0
 27
0.0
 37
0.0
 42
50.0
 43
0.0
 44
0.0
 45
816.0
 50
0.0
 51
0.0
 72
   100
 90
   557152
  1

281
     0
 71
     1
 74
     0
110
0.0
120
0.0
130
0.0
111
1.0
121
0.0
131
0.0
112
0.0
122
1.0
132
0.0
 79
     0
146
0.0
170
     0
 61
     5
292
     1
282
     1
141
0.0
142
0.0
 63
   256
  0
ENDSEC
  0
SECTION
  2
OBJECTS
  0
DICTIONARY
  5
C
330
0
100
AcDbDictionary
281
     1
  3
ACAD_GROUP
350
D
  3
ACAD_LAYOUT
350
1A
  3
ACAD_MATERIAL
350
3B
  3
ACAD_MLEADERSTYLE
350
167
  3
ACAD_MLINESTYLE
350
17
  3
ACAD_PLOTSETTINGS
350
19
  3
ACAD_PLOTSTYLENAME
350
E
  3
ACAD_SCALELIST
350
52A
  3
ACAD_TABLESTYLE
350
179
  3
ACAD_VISUALSTYLE
350
2A
  3
ACDB_RECOMPOSE_DATA
350
570
  3
AcDbVariableDictionary
350
54C
  3
TC_CUSTOM_TABLES
350
166
  0
DICTIONARY
  5
185
330
187
100
AcDbDictionary
280
     1
281
     1
  3
TC_EXTENDED_DATA
360
186
  0
DICTIONARY
  5
188
330
18A
100
AcDbDictionary
280
     1
281
     1
  3
TC_EXTENDED_DATA
360
189
  0
DICTIONARY
  5
1B6
330
1B8
100
AcDbDictionary
280
     1
281
     1
  3
TC_EXTENDED_DATA
360
1B7
  0
DICTIONARY
  5
1B9
330
1BB
100
AcDbDictionary
280
     1
281
     1
  3
TC_EXTENDED_DATA
360
1BA
  0
DICTIONARY
  5
1BC
330
1BE
100
AcDbDictionary
280
     1
281
     1
  3
TC_EXTENDED_DATA
360
1BD
  0
DICTIONARY
  5
1BF
330
1C1
100
AcDbDictionary
280
     1
281
     1
  3
TC_EXTENDED_DATA
360
1C0
  0
DICTIONARY
  5
1C2
330
1C4
100
AcDbDictionary
280
     1
281
     1
  3
TC_EXTENDED_DATA
360
1C3
  0
DICTIONARY
  5
1C5
330
1C7
100
AcDbDictionary
280
     1
281
     1
  3
TC_EXTENDED_DATA
360
1C6
  0
DICTIONARY
  5
1C8
330
1CA
100
AcDbDictionary
280
     1
281
     1
  3
TC_EXTENDED_DATA
360
1C9
  0
DICTIONARY
  5
1CB
330
1CD
100
AcDbDictionary
280
     1
281
     1
  3
TC_EXTENDED_DATA
360
1CC
  0
DICTIONARY
  5
1CE
330
1D0
100
AcDbDictionary
280
     1
281
     1
  3
TC_EXTENDED_DATA
360
1CF
  0
DICTIONARY
  5
1D1
330
1D3
100
AcDbDictionary
280
     1
281
     1
  3
TC_EXTENDED_DATA
360
1D2
  0
DICTIONARY
  5
1D4
330
1D6
100
AcDbDictionary
280
     1
281
     1
  3
TC_EXTENDED_DATA
360
1D5
  0
DICTIONARY
  5
1D7
330
1D9
100
AcDbDictionary
280
     1
281
     1
  3
TC_EXTENDED_DATA
360
1D8
  0
DICTIONARY
  5
1DA
330
1DC
100
AcDbDictionary
280
     1
281
     1
  3
TC_EXTENDED_DATA
360
1DB
  0
DICTIONARY
  5
1DD
330
1DF
100
AcDbDictionary
280
     1
281
     1
  3
TC_EXTENDED_DATA
360
1DE
  0
DICTIONARY
  5
1E2
330
1E4
100
AcDbDictionary
280
     1
281
     1
  3
TC_EXTENDED_DATA
360
1E3
  0
DICTIONARY
  5
1E5
330
1E7
100
AcDbDictionary
280
     1
281
     1
  3
TC_EXTENDED_DATA
360
1E6
  0
DICTIONARY
  5
1EF
330
1F1
100
AcDbDictionary
280
     1
281
     1
  3
TC_EXTENDED_DATA
360
1F0
  0
DICTIONARY
  5
1F2
330
1F4
100
AcDbDictionary
280
     1
281
     1
  3
TC_EXTENDED_DATA
360
1F3
  0
DICTIONARY
  5
1F5
330
1F7
100
AcDbDictionary
280
     1
281
     1
  3
TC_EXTENDED_DATA
360
1F6
  0
DICTIONARY
  5
1F8
330
1FA
100
AcDbDictionary
280
     1
281
     1
  3
TC_EXTENDED_DATA
360
1F9
  0
DICTIONARY
  5
1FB
330
1FD
100
AcDbDictionary
280
     1
281
     1
  3
TC_EXTENDED_DATA
360
1FC
  0
DICTIONARY
  5
1FE
330
200
100
AcDbDictionary
280
     1
281
     1
  3
TC_EXTENDED_DATA
360
1FF
  0
DICTIONARY
  5
201
330
203
100
AcDbDictionary
280
     1
281
     1
  3
TC_EXTENDED_DATA
360
202
  0
DICTIONARY
  5
204
330
206
100
AcDbDictionary
280
     1
281
     1
  3
TC_EXTENDED_DATA
360
205
  0
DICTIONARY
  5
207
330
209
100
AcDbDictionary
280
     1
281
     1
  3
TC_EXTENDED_DATA
360
208
  0
DICTIONARY
  5
20A
330
20C
100
AcDbDictionary
280
     1
281
     1
  3
TC_EXTENDED_DATA
360
20B
  0
DICTIONARY
  5
20E
330
210
100
AcDbDictionary
280
     1
281
     1
  3
TC_EXTENDED_DATA
360
20F
  0
DICTIONARY
  5
212
330
214
100
AcDbDictionary
280
     1
281
     1
  3
TC_EXTENDED_DATA
360
213
  0
DICTIONARY
  5
215
330
217
100
AcDbDictionary
280
     1
281
     1
  3
TC_EXTENDED_DATA
360
216
  0
DICTIONARY
  5
218
330
21A
100
AcDbDictionary
280
     1
281
     1
  3
TC_EXTENDED_DATA
360
219
  0
DICTIONARY
  5
21B
330
21F
100
AcDbDictionary
280
     1
281
     1
  3
TC_EXTENDED_DATA
360
21C
  0
DICTIONARY
  5
220
330
224
100
AcDbDictionary
280
     1
281
     1
  3
TC_EXTENDED_DATA
360
221
  0
DICTIONARY
  5
222
330
225
100
AcDbDictionary
280
     1
281
     1
  3
TC_EXTENDED_DATA
360
223
  0
DICTIONARY
  5
226
330
22A
100
AcDbDictionary
280
     1
281
     1
  3
TC_EXTENDED_DATA
360
227
  0
DICTIONARY
  5
22B
330
22F
100
AcDbDictionary
280
     1
281
     1
  3
TC_EXTENDED_DATA
360
22C
  0
DICTIONARY
  5
22D
330
230
100
AcDbDictionary
280
     1
281
     1
  3
TC_EXTENDED_DATA
360
22E
  0
DICTIONARY
  5
231
330
233
100
AcDbDictionary
280
     1
281
     1
  3
TC_EXTENDED_DATA
360
232
  0
DICTIONARY
  5
234
330
236
100
AcDbDictionary
280
     1
281
     1
  3
TC_EXTENDED_DATA
360
235
  0
DICTIONARY
  5
237
330
239
100
AcDbDictionary
280
     1
281
     1
  3
TC_EXTENDED_DATA
360
238
  0
DICTIONARY
  5
23A
330
23C
100
AcDbDictionary
280
     1
281
     1
  3
TC_EXTENDED_DATA
360
23B
  0
DICTIONARY
  5
23D
330
23F
100
AcDbDictionary
280
     1
281
     1
  3
TC_EXTENDED_DATA
360
23E
  0
DICTIONARY
  5
240
330
242
100
AcDbDictionary
280
     1
281
     1
  3
TC_EXTENDED_DATA
360
241
  0
DICTIONARY
  5
243
330
245
100
AcDbDictionary
280
     1
281
     1
  3
TC_EXTENDED_DATA
360
244
  0
DICTIONARY
  5
24D
330
24F
100
AcDbDictionary
280
     1
281
     1
  3
TC_EXTENDED_DATA
360
24E
  0
DICTIONARY
  5
250
330
252
100
AcDbDictionary
280
     1
281
     1
  3
TC_EXTENDED_DATA
360
251
  0
DICTIONARY
  5
253
330
255
100
AcDbDictionary
280
     1
281
     1
  3
TC_EXTENDED_DATA
360
254
  0
DICTIONARY
  5
256
330
258
100
AcDbDictionary
280
     1
281
     1
  3
TC_EXTENDED_DATA
360
257
  0
DICTIONARY
  5
259
330
25B
100
AcDbDictionary
280
     1
281
     1
  3
TC_EXTENDED_DATA
360
25A
  0
DICTIONARY
  5
25C
330
25E
100
AcDbDictionary
280
     1
281
     1
  3
TC_EXTENDED_DATA
360
25D
  0
DICTIONARY
  5
26E
330
270
100
AcDbDictionary
280
     1
281
     1
  3
TC_EXTENDED_DATA
360
26F
  0
DICTIONARY
  5
271
330
273
100
AcDbDictionary
280
     1
281
     1
  3
TC_EXTENDED_DATA
360
272
  0
DICTIONARY
  5
274
330
276
100
AcDbDictionary
280
     1
281
     1
  3
TC_EXTENDED_DATA
360
275
  0
DICTIONARY
  5
277
330
279
100
AcDbDictionary
280
     1
281
     1
  3
TC_EXTENDED_DATA
360
278
  0
DICTIONARY
  5
27A
330
27E
100
AcDbDictionary
280
     1
281
     1
  3
TC_EXTENDED_DATA
360
27B
  0
DICTIONARY
  5
27C
330
281
100
AcDbDictionary
280
     1
281
     1
  3
TC_EXTENDED_DATA
360
27D
  0
DICTIONARY
  5
282
330
284
100
AcDbDictionary
280
     1
281
     1
  3
TC_EXTENDED_DATA
360
283
  0
DICTIONARY
  5
285
330
287
100
AcDbDictionary
280
     1
281
     1
  3
TC_EXTENDED_DATA
360
286
  0
DICTIONARY
  5
288
330
28C
100
AcDbDictionary
280
     1
281
     1
  3
TC_EXTENDED_DATA
360
289
  0
DICTIONARY
  5
28D
330
291
100
AcDbDictionary
280
     1
281
     1
  3
TC_EXTENDED_DATA
360
28E
  0
DICTIONARY
  5
28F
330
294
100
AcDbDictionary
280
     1
281
     1
  3
TC_EXTENDED_DATA
360
290
  0
DICTIONARY
  5
295
330
299
100
AcDbDictionary
280
     1
281
     1
  3
TC_EXTENDED_DATA
360
296
  0
DICTIONARY
  5
297
330
29C
100
AcDbDictionary
280
     1
281
     1
  3
TC_EXTENDED_DATA
360
298
  0
DICTIONARY
  5
29D
330
29F
100
AcDbDictionary
280
     1
281
     1
  3
TC_EXTENDED_DATA
360
29E
  0
DICTIONARY
  5
2A1
330
2A3
100
AcDbDictionary
280
     1
281
     1
  3
TC_EXTENDED_DATA
360
2A2
  0
DICTIONARY
  5
2A4
330
2A6
100
AcDbDictionary
280
     1
281
     1
  3
TC_EXTENDED_DATA
360
2A5
  0
DICTIONARY
  5
2A7
330
2A9
100
AcDbDictionary
280
     1
281
     1
  3
TC_EXTENDED_DATA
360
2A8
  0
DICTIONARY
  5
2AA
330
2AC
100
AcDbDictionary
280
     1
281
     1
  3
TC_EXTENDED_DATA
360
2AB
  0
DICTIONARY
  5
2AD
330
2AF
100
AcDbDictionary
280
     1
281
     1
  3
TC_EXTENDED_DATA
360
2AE
  0
DICTIONARY
  5
2B0
330
2B2
100
AcDbDictionary
280
     1
281
     1
  3
TC_EXTENDED_DATA
360
2B1
  0
DICTIONARY
  5
2B3
330
2B5
100
AcDbDictionary
280
     1
281
     1
  3
TC_EXTENDED_DATA
360
2B4
  0
DICTIONARY
  5
2B6
330
2B8
100
AcDbDictionary
280
     1
281
     1
  3
TC_EXTENDED_DATA
360
2B7
  0
DICTIONARY
  5
2B9
330
2BB
100
AcDbDictionary
280
     1
281
     1
  3
TC_EXTENDED_DATA
360
2BA
  0
DICTIONARY
  5
2BC
330
2BE
100
AcDbDictionary
280
     1
281
     1
  3
TC_EXTENDED_DATA
360
2BD
  0
DICTIONARY
  5
2BF
330
2C1
100
AcDbDictionary
280
     1
281
     1
  3
TC_EXTENDED_DATA
360
2C0
  0
DICTIONARY
  5
2C2
330
2C4
100
AcDbDictionary
280
     1
281
     1
  3
TC_EXTENDED_DATA
360
2C3
  0
DICTIONARY
  5
2C5
330
2C9
100
AcDbDictionary
280
     1
281
     1
  3
TC_EXTENDED_DATA
360
2C6
  0
DICTIONARY
  5
2CA
330
2CC
100
AcDbDictionary
280
     1
281
     1
  3
TC_EXTENDED_DATA
360
2CB
  0
DICTIONARY
  5
2CD
330
2CF
100
AcDbDictionary
280
     1
281
     1
  3
TC_EXTENDED_DATA
360
2CE
  0
DICTIONARY
  5
2D0
330
2D2
100
AcDbDictionary
280
     1
281
     1
  3
TC_EXTENDED_DATA
360
2D1
  0
DICTIONARY
  5
2D3
330
2D5
100
AcDbDictionary
280
     1
281
     1
  3
TC_EXTENDED_DATA
360
2D4
  0
DICTIONARY
  5
2D6
330
2D8
100
AcDbDictionary
280
     1
281
     1
  3
TC_EXTENDED_DATA
360
2D7
  0
DICTIONARY
  5
2D9
330
2DB
100
AcDbDictionary
280
     1
281
     1
  3
TC_EXTENDED_DATA
360
2DA
  0
DICTIONARY
  5
2DC
330
2DE
100
AcDbDictionary
280
     1
281
     1
  3
TC_EXTENDED_DATA
360
2DD
  0
DICTIONARY
  5
2DF
330
2E1
100
AcDbDictionary
280
     1
281
     1
  3
TC_EXTENDED_DATA
360
2E0
  0
DICTIONARY
  5
2E2
330
2E4
100
AcDbDictionary
280
     1
281
     1
  3
TC_EXTENDED_DATA
360
2E3
  0
DICTIONARY
  5
2E5
330
2E7
100
AcDbDictionary
280
     1
281
     1
  3
TC_EXTENDED_DATA
360
2E6
  0
DICTIONARY
  5
2E9
330
2EB
100
AcDbDictionary
280
     1
281
     1
  3
TC_EXTENDED_DATA
360
2EA
  0
DICTIONARY
  5
2EC
330
2EE
100
AcDbDictionary
280
     1
281
     1
  3
TC_EXTENDED_DATA
360
2ED
  0
DICTIONARY
  5
2EF
330
2F1
100
AcDbDictionary
280
     1
281
     1
  3
TC_EXTENDED_DATA
360
2F0
  0
DICTIONARY
  5
2F2
330
2F4
100
AcDbDictionary
280
     1
281
     1
  3
TC_EXTENDED_DATA
360
2F3
  0
DICTIONARY
  5
2F5
330
2FB
100
AcDbDictionary
280
     1
281
     1
  3
TC_EXTENDED_DATA
360
2F6
  0
DICTIONARY
  5
308
330
30A
100
AcDbDictionary
280
     1
281
     1
  3
TC_EXTENDED_DATA
360
309
  0
DICTIONARY
  5
317
330
319
100
AcDbDictionary
280
     1
281
     1
  3
TC_EXTENDED_DATA
360
318
  0
DICTIONARY
  5
327
330
329
100
AcDbDictionary
280
     1
281
     1
  3
TC_EXTENDED_DATA
360
328
  0
DICTIONARY
  5
336
330
338
100
AcDbDictionary
280
     1
281
     1
  3
TC_EXTENDED_DATA
360
337
  0
DICTIONARY
  5
346
330
348
100
AcDbDictionary
280
     1
281
     1
  3
TC_EXTENDED_DATA
360
347
  0
DICTIONARY
  5
356
330
358
100
AcDbDictionary
280
     1
281
     1
  3
TC_EXTENDED_DATA
360
357
  0
DICTIONARY
  5
366
330
368
100
AcDbDictionary
280
     1
281
     1
  3
TC_EXTENDED_DATA
360
367
  0
DICTIONARY
  5
369
330
36B
100
AcDbDictionary
280
     1
281
     1
  3
TC_EXTENDED_DATA
360
36A
  0
DICTIONARY
  5
36C
330
36E
100
AcDbDictionary
280
     1
281
     1
  3
TC_EXTENDED_DATA
360
36D
  0
DICTIONARY
  5
370
330
372
100
AcDbDictionary
280
     1
281
     1
  3
TC_EXTENDED_DATA
360
371
  0
DICTIONARY
  5
373
330
375
100
AcDbDictionary
280
     1
281
     1
  3
TC_EXTENDED_DATA
360
374
  0
DICTIONARY
  5
376
330
378
100
AcDbDictionary
280
     1
281
     1
  3
TC_EXTENDED_DATA
360
377
  0
DICTIONARY
  5
37A
330
37C
100
AcDbDictionary
280
     1
281
     1
  3
TC_EXTENDED_DATA
360
37B
  0
DICTIONARY
  5
37D
330
37F
100
AcDbDictionary
280
     1
281
     1
  3
TC_EXTENDED_DATA
360
37E
  0
DICTIONARY
  5
380
330
382
100
AcDbDictionary
280
     1
281
     1
  3
TC_EXTENDED_DATA
360
381
  0
DICTIONARY
  5
384
330
388
100
AcDbDictionary
280
     1
281
     1
  3
TC_EXTENDED_DATA
360
385
  0
DICTIONARY
  5
386
330
38B
100
AcDbDictionary
280
     1
281
     1
  3
TC_EXTENDED_DATA
360
387
  0
DICTIONARY
  5
38C
330
38E
100
AcDbDictionary
280
     1
281
     1
  3
TC_EXTENDED_DATA
360
38D
  0
DICTIONARY
  5
38F
330
391
100
AcDbDictionary
280
     1
281
     1
  3
TC_EXTENDED_DATA
360
390
  0
DICTIONARY
  5
392
330
394
100
AcDbDictionary
280
     1
281
     1
  3
TC_EXTENDED_DATA
360
393
  0
DICTIONARY
  5
395
330
397
100
AcDbDictionary
280
     1
281
     1
  3
TC_EXTENDED_DATA
360
396
  0
DICTIONARY
  5
398
330
39A
100
AcDbDictionary
280
     1
281
     1
  3
TC_EXTENDED_DATA
360
399
  0
DICTIONARY
  5
39B
330
39D
100
AcDbDictionary
280
     1
281
     1
  3
TC_EXTENDED_DATA
360
39C
  0
DICTIONARY
  5
39E
330
3A0
100
AcDbDictionary
280
     1
281
     1
  3
TC_EXTENDED_DATA
360
39F
  0
DICTIONARY
  5
3A1
330
3A3
100
AcDbDictionary
280
     1
281
     1
  3
TC_EXTENDED_DATA
360
3A2
  0
DICTIONARY
  5
3A4
330
3A6
100
AcDbDictionary
280
     1
281
     1
  3
TC_EXTENDED_DATA
360
3A5
  0
DICTIONARY
  5
3A7
330
3A9
100
AcDbDictionary
280
     1
281
     1
  3
TC_EXTENDED_DATA
360
3A8
  0
DICTIONARY
  5
3AA
330
3AC
100
AcDbDictionary
280
     1
281
     1
  3
TC_EXTENDED_DATA
360
3AB
  0
DICTIONARY
  5
3AD
330
3AF
100
AcDbDictionary
280
     1
281
     1
  3
TC_EXTENDED_DATA
360
3AE
  0
DICTIONARY
  5
3B0
330
3B2
100
AcDbDictionary
280
     1
281
     1
  3
TC_EXTENDED_DATA
360
3B1
  0
DICTIONARY
  5
3B3
330
3B5
100
AcDbDictionary
280
     1
281
     1
  3
TC_EXTENDED_DATA
360
3B4
  0
DICTIONARY
  5
3B6
330
3B8
100
AcDbDictionary
280
     1
281
     1
  3
TC_EXTENDED_DATA
360
3B7
  0
DICTIONARY
  5
3B9
330
3BB
100
AcDbDictionary
280
     1
281
     1
  3
TC_EXTENDED_DATA
360
3BA
  0
DICTIONARY
  5
3BD
330
3BF
100
AcDbDictionary
280
     1
281
     1
  3
TC_EXTENDED_DATA
360
3BE
  0
DICTIONARY
  5
3C0
330
3C4
100
AcDbDictionary
280
     1
281
     1
  3
TC_EXTENDED_DATA
360
3C1
  0
DICTIONARY
  5
3C2
330
3C7
100
AcDbDictionary
280
     1
281
     1
  3
TC_EXTENDED_DATA
360
3C3
  0
DICTIONARY
  5
3C8
330
3CC
100
AcDbDictionary
280
     1
281
     1
  3
TC_EXTENDED_DATA
360
3C9
  0
DICTIONARY
  5
3CA
330
3CF
100
AcDbDictionary
280
     1
281
     1
  3
TC_EXTENDED_DATA
360
3CB
  0
DICTIONARY
  5
3D0
330
3D4
100
AcDbDictionary
280
     1
281
     1
  3
TC_EXTENDED_DATA
360
3D1
  0
DICTIONARY
  5
3D2
330
3D7
100
AcDbDictionary
280
     1
281
     1
  3
TC_EXTENDED_DATA
360
3D3
  0
DICTIONARY
  5
3D8
330
3DA
100
AcDbDictionary
280
     1
281
     1
  3
TC_EXTENDED_DATA
360
3D9
  0
DICTIONARY
  5
3DB
330
3DF
100
AcDbDictionary
280
     1
281
     1
  3
TC_EXTENDED_DATA
360
3DC
  0
DICTIONARY
  5
3DD
330
3E2
100
AcDbDictionary
280
     1
281
     1
  3
TC_EXTENDED_DATA
360
3DE
  0
DICTIONARY
  5
3E3
330
3E7
100
AcDbDictionary
280
     1
281
     1
  3
TC_EXTENDED_DATA
360
3E4
  0
DICTIONARY
  5
3E5
330
3EA
100
AcDbDictionary
280
     1
281
     1
  3
TC_EXTENDED_DATA
360
3E6
  0
DICTIONARY
  5
3EB
330
3EF
100
AcDbDictionary
280
     1
281
     1
  3
TC_EXTENDED_DATA
360
3EC
  0
DICTIONARY
  5
3ED
330
3F2
100
AcDbDictionary
280
     1
281
     1
  3
TC_EXTENDED_DATA
360
3EE
  0
DICTIONARY
  5
3F3
330
3F7
100
AcDbDictionary
280
     1
281
     1
  3
TC_EXTENDED_DATA
360
3F4
  0
DICTIONARY
  5
3F5
330
3FA
100
AcDbDictionary
280
     1
281
     1
  3
TC_EXTENDED_DATA
360
3F6
  0
DICTIONARY
  5
3FB
330
3FF
100
AcDbDictionary
280
     1
281
     1
  3
TC_EXTENDED_DATA
360
3FC
  0
DICTIONARY
  5
3FD
330
402
100
AcDbDictionary
280
     1
281
     1
  3
TC_EXTENDED_DATA
360
3FE
  0
DICTIONARY
  5
403
330
407
100
AcDbDictionary
280
     1
281
     1
  3
TC_EXTENDED_DATA
360
404
  0
DICTIONARY
  5
405
330
40A
100
AcDbDictionary
280
     1
281
     1
  3
TC_EXTENDED_DATA
360
406
  0
DICTIONARY
  5
40B
330
40F
100
AcDbDictionary
280
     1
281
     1
  3
TC_EXTENDED_DATA
360
40C
  0
DICTIONARY
  5
40D
330
412
100
AcDbDictionary
280
     1
281
     1
  3
TC_EXTENDED_DATA
360
40E
  0
DICTIONARY
  5
413
330
417
100
AcDbDictionary
280
     1
281
     1
  3
TC_EXTENDED_DATA
360
414
  0
DICTIONARY
  5
415
330
41A
100
AcDbDictionary
280
     1
281
     1
  3
TC_EXTENDED_DATA
360
416
  0
DICTIONARY
  5
41B
330
41D
100
AcDbDictionary
280
     1
281
     1
  3
TC_EXTENDED_DATA
360
41C
  0
DICTIONARY
  5
41E
330
420
100
AcDbDictionary
280
     1
281
     1
  3
TC_EXTENDED_DATA
360
41F
  0
DICTIONARY
  5
421
330
423
100
AcDbDictionary
280
     1
281
     1
  3
TC_EXTENDED_DATA
360
422
  0
DICTIONARY
  5
424
330
426
100
AcDbDictionary
280
     1
281
     1
  3
TC_EXTENDED_DATA
360
425
  0
DICTIONARY
  5
427
330
429
100
AcDbDictionary
280
     1
281
     1
  3
TC_EXTENDED_DATA
360
428
  0
DICTIONARY
  5
42A
330
42C
100
AcDbDictionary
280
     1
281
     1
  3
TC_EXTENDED_DATA
360
42B
  0
DICTIONARY
  5
42D
330
42F
100
AcDbDictionary
280
     1
281
     1
  3
TC_EXTENDED_DATA
360
42E
  0
DICTIONARY
  5
430
330
432
100
AcDbDictionary
280
     1
281
     1
  3
TC_EXTENDED_DATA
360
431
  0
DICTIONARY
  5
433
330
435
100
AcDbDictionary
280
     1
281
     1
  3
TC_EXTENDED_DATA
360
434
  0
DICTIONARY
  5
436
330
438
100
AcDbDictionary
280
     1
281
     1
  3
TC_EXTENDED_DATA
360
437
  0
DICTIONARY
  5
439
330
43B
100
AcDbDictionary
280
     1
281
     1
  3
TC_EXTENDED_DATA
360
43A
  0
DICTIONARY
  5
43C
330
43E
100
AcDbDictionary
280
     1
281
     1
  3
TC_EXTENDED_DATA
360
43D
  0
DICTIONARY
  5
43F
330
441
100
AcDbDictionary
280
     1
281
     1
  3
TC_EXTENDED_DATA
360
440
  0
DICTIONARY
  5
442
330
444
100
AcDbDictionary
280
     1
281
     1
  3
TC_EXTENDED_DATA
360
443
  0
DICTIONARY
  5
445
330
447
100
AcDbDictionary
280
     1
281
     1
  3
TC_EXTENDED_DATA
360
446
  0
DICTIONARY
  5
448
330
44A
100
AcDbDictionary
280
     1
281
     1
  3
TC_EXTENDED_DATA
360
449
  0
DICTIONARY
  5
44B
330
44D
100
AcDbDictionary
280
     1
281
     1
  3
TC_EXTENDED_DATA
360
44C
  0
DICTIONARY
  5
44E
330
450
100
AcDbDictionary
280
     1
281
     1
  3
TC_EXTENDED_DATA
360
44F
  0
DICTIONARY
  5
451
330
453
100
AcDbDictionary
280
     1
281
     1
  3
TC_EXTENDED_DATA
360
452
  0
DICTIONARY
  5
454
330
456
100
AcDbDictionary
280
     1
281
     1
  3
TC_EXTENDED_DATA
360
455
  0
DICTIONARY
  5
457
330
459
100
AcDbDictionary
280
     1
281
     1
  3
TC_EXTENDED_DATA
360
458
  0
DICTIONARY
  5
45A
330
45C
100
AcDbDictionary
280
     1
281
     1
  3
TC_EXTENDED_DATA
360
45B
  0
DICTIONARY
  5
45D
330
45F
100
AcDbDictionary
280
     1
281
     1
  3
TC_EXTENDED_DATA
360
45E
  0
DICTIONARY
  5
460
330
462
100
AcDbDictionary
280
     1
281
     1
  3
TC_EXTENDED_DATA
360
461
  0
DICTIONARY
  5
463
330
467
100
AcDbDictionary
280
     1
281
     1
  3
TC_EXTENDED_DATA
360
464
  0
DICTIONARY
  5
465
330
46A
100
AcDbDictionary
280
     1
281
     1
  3
TC_EXTENDED_DATA
360
466
  0
DICTIONARY
  5
46B
330
46D
100
AcDbDictionary
280
     1
281
     1
  3
TC_EXTENDED_DATA
360
46C
  0
DICTIONARY
  5
46E
330
470
100
AcDbDictionary
280
     1
281
     1
  3
TC_EXTENDED_DATA
360
46F
  0
DICTIONARY
  5
471
330
473
100
AcDbDictionary
280
     1
281
     1
  3
TC_EXTENDED_DATA
360
472
  0
DICTIONARY
  5
474
330
476
100
AcDbDictionary
280
     1
281
     1
  3
TC_EXTENDED_DATA
360
475
  0
DICTIONARY
  5
477
330
479
100
AcDbDictionary
280
     1
281
     1
  3
TC_EXTENDED_DATA
360
478
  0
DICTIONARY
  5
47A
330
47C
100
AcDbDictionary
280
     1
281
     1
  3
TC_EXTENDED_DATA
360
47B
  0
DICTIONARY
  5
47D
330
47F
100
AcDbDictionary
280
     1
281
     1
  3
TC_EXTENDED_DATA
360
47E
  0
DICTIONARY
  5
480
330
482
100
AcDbDictionary
280
     1
281
     1
  3
TC_EXTENDED_DATA
360
481
  0
DICTIONARY
  5
483
330
485
100
AcDbDictionary
280
     1
281
     1
  3
TC_EXTENDED_DATA
360
484
  0
DICTIONARY
  5
486
330
488
100
AcDbDictionary
280
     1
281
     1
  3
TC_EXTENDED_DATA
360
487
  0
DICTIONARY
  5
489
330
48B
100
AcDbDictionary
280
     1
281
     1
  3
TC_EXTENDED_DATA
360
48A
  0
DICTIONARY
  5
48C
330
48E
100
AcDbDictionary
280
     1
281
     1
  3
TC_EXTENDED_DATA
360
48D
  0
DICTIONARY
  5
48F
330
491
100
AcDbDictionary
280
     1
281
     1
  3
TC_EXTENDED_DATA
360
490
  0
DICTIONARY
  5
492
330
494
100
AcDbDictionary
280
     1
281
     1
  3
TC_EXTENDED_DATA
360
493
  0
DICTIONARY
  5
496
330
498
100
AcDbDictionary
280
     1
281
     1
  3
TC_EXTENDED_DATA
360
497
  0
DICTIONARY
  5
499
330
49B
100
AcDbDictionary
280
     1
281
     1
  3
TC_EXTENDED_DATA
360
49A
  0
DICTIONARY
  5
49C
330
49E
100
AcDbDictionary
280
     1
281
     1
  3
TC_EXTENDED_DATA
360
49D
  0
DICTIONARY
  5
4A3
330
4A5
100
AcDbDictionary
280
     1
281
     1
  3
TC_EXTENDED_DATA
360
4A4
  0
DICTIONARY
  5
4A6
330
4A8
100
AcDbDictionary
280
     1
281
     1
  3
TC_EXTENDED_DATA
360
4A7
  0
DICTIONARY
  5
4AA
330
4AC
100
AcDbDictionary
280
     1
281
     1
  3
TC_EXTENDED_DATA
360
4AB
  0
DICTIONARY
  5
4AD
330
4AF
100
AcDbDictionary
280
     1
281
     1
  3
TC_EXTENDED_DATA
360
4AE
  0
DICTIONARY
  5
4BD
330
4BF
100
AcDbDictionary
280
     1
281
     1
  3
TC_EXTENDED_DATA
360
4BE
  0
DICTIONARY
  5
4CD
330
4CF
100
AcDbDictionary
280
     1
281
     1
  3
TC_EXTENDED_DATA
360
4CE
  0
DICTIONARY
  5
4D0
330
4D2
100
AcDbDictionary
280
     1
281
     1
  3
TC_EXTENDED_DATA
360
4D1
  0
DICTIONARY
  5
4D3
330
4D5
100
AcDbDictionary
280
     1
281
     1
  3
TC_EXTENDED_DATA
360
4D4
  0
DICTIONARY
  5
4E3
330
4E5
100
AcDbDictionary
280
     1
281
     1
  3
TC_EXTENDED_DATA
360
4E4
  0
DICTIONARY
  5
4F2
330
4F4
100
AcDbDictionary
280
     1
281
     1
  3
TC_EXTENDED_DATA
360
4F3
  0
DICTIONARY
  5
4F5
330
4F7
100
AcDbDictionary
280
     1
281
     1
  3
TC_EXTENDED_DATA
360
4F6
  0
DICTIONARY
  5
4F8
330
4FA
100
AcDbDictionary
280
     1
281
     1
  3
TC_EXTENDED_DATA
360
4F9
  0
DICTIONARY
  5
503
330
505
100
AcDbDictionary
280
     1
281
     1
  3
TC_EXTENDED_DATA
360
504
  0
DICTIONARY
  5
506
330
508
100
AcDbDictionary
280
     1
281
     1
  3
TC_EXTENDED_DATA
360
507
  0
DICTIONARY
  5
509
330
50B
100
AcDbDictionary
280
     1
281
     1
  3
TC_EXTENDED_DATA
360
50A
  0
DICTIONARY
  5
50C
330
50E
100
AcDbDictionary
280
     1
281
     1
  3
TC_EXTENDED_DATA
360
50D
  0
DICTIONARY
  5
50F
330
511
100
AcDbDictionary
280
     1
281
     1
  3
TC_EXTENDED_DATA
360
510
  0
DICTIONARY
  5
512
330
514
100
AcDbDictionary
280
     1
281
     1
  3
TC_EXTENDED_DATA
360
513
  0
DICTIONARY
  5
515
330
517
100
AcDbDictionary
280
     1
281
     1
  3
TC_EXTENDED_DATA
360
516
  0
DICTIONARY
  5
518
330
51A
100
AcDbDictionary
280
     1
281
     1
  3
TC_EXTENDED_DATA
360
519
  0
DICTIONARY
  5
51B
330
51D
100
AcDbDictionary
280
     1
281
     1
  3
TC_EXTENDED_DATA
360
51C
  0
DICTIONARY
  5
51E
330
520
100
AcDbDictionary
280
     1
281
     1
  3
TC_EXTENDED_DATA
360
51F
  0
DICTIONARY
  5
525
330
527
100
AcDbDictionary
280
     1
281
     1
  3
TC_EXTENDED_DATA
360
526
  0
DICTIONARY
  5
D
102
{ACAD_REACTORS
330
C
102
}
330
C
100
AcDbDictionary
281
     1
  3
Group_1
350
36F
  3
Group_1_1
350
379
  3
Group_1_2
350
383
  3
Group_1_3
350
3BC
  3
Group_1_4
350
49F
  3
Group_4
350
495
  3
scale
350
521
  0
DICTIONARY
  5
1A
102
{ACAD_REACTORS
330
C
102
}
330
C
100
AcDbDictionary
281
     1
  3
Model
350
22
  3
Paper 1
350
1E
  0
DICTIONARY
  5
3B
102
{ACAD_REACTORS
330
C
102
}
330
C
100
AcDbDictionary
281
     1
  3
ByBlock
350
3D
  3
ByLayer
350
3C
  3
Global
350
3E
  0
DICTIONARY
  5
167
102
{ACAD_REACTORS
330
C
102
}
330
C
100
AcDbDictionary
281
     1
  3
Standard
350
168
  0
DICTIONARY
  5
17
102
{ACAD_REACTORS
330
C
102
}
330
C
100
AcDbDictionary
281
     1
  3
Standard
350
18
  0
DICTIONARY
  5
19
102
{ACAD_REACTORS
330
C
102
}
330
C
100
AcDbDictionary
281
     1
  0
ACDBDICTIONARYWDFLT
  5
E
102
{ACAD_REACTORS
330
C
102
}
330
C
100
AcDbDictionary
281
     1
  3
Normal
350
F
100
AcDbDictionaryWithDefault
340
F
  0
DICTIONARY
  5
52A
102
{ACAD_REACTORS
330
C
102
}
330
C
100
AcDbDictionary
281
     1
  3
A0
350
52B
  3
A1
350
52C
  3
A2
350
52D
  3
A3
350
52E
  3
A4
350
52F
  3
A5
350
530
  3
A6
350
531
  3
A7
350
532
  3
A8
350
533
  3
A9
350
534
  3
B0
350
535
  3
B1
350
536
  3
B2
350
537
  3
B3
350
538
  3
B4
350
539
  3
B5
350
53A
  3
B6
350
53B
  3
B7
350
53C
  3
B8
350
53D
  3
B9
350
53E
  3
C0
350
53F
  3
C1
350
540
  3
C2
350
541
  3
C3
350
542
  3
C4
350
543
  3
C5
350
544
  3
C6
350
545
  3
C7
350
546
  3
C8
350
547
  3
C9
350
548
  3
D0
350
549
  3
D1
350
54A
  3
D2
350
54B
  0
DICTIONARY
  5
179
102
{ACAD_REACTORS
330
C
102
}
330
C
100
AcDbDictionary
281
     1
  3
Standard
350
17A
  0
DICTIONARY
  5
2A
102
{ACAD_REACTORS
330
C
102
}
330
C
100
AcDbDictionary
281
     1
  3
2dWireframe
350
2F
  3
3D Hidden
350
31
  3
3dWireframe
350
30
  3
Basic
350
32
  3
Brighten
350
36
  3
ColorChange
350
3A
  3
Conceptual
350
34
  3
Dim
350
35
  3
Facepattern
350
39
  3
Flat
350
2B
  3
FlatWithEdges
350
2C
  3
Gouraud
350
2D
  3
GouraudWithEdges
350
2E
  3
Linepattern
350
38
  3
Realistic
350
33
  3
Thicken
350
37
  0
XRECORD
  5
570
102
{ACAD_REACTORS
330
C
102
}
330
C
100
AcDbXrecord
280
     1
 90
        1
330
17A
  0
DICTIONARY
  5
54C
102
{ACAD_REACTORS
330
C
102
}
330
C
100
AcDbDictionary
281
     1
  3
CANNOSCALE
350
54D
  0
DICTIONARY
  5
166
102
{ACAD_REACTORS
330
C
102
}
330
C
100
AcDbDictionary
281
     1
  0
TCOPTIONALDATA
  5
186
102
{ACAD_REACTORS
330
185
102
}
330
185
100
TcOptionalData
 70
     2
 70
   128
 90
        1
  1
#$AUX@_ToolInfo Properties
 70
     8
 90
       14
310
434D445F52454354414E474C4540
  0
TCOPTIONALDATA
  5
189
102
{ACAD_REACTORS
330
188
102
}
330
188
100
TcOptionalData
 70
     2
 70
   128
 90
        1
  1
#$AUX@_ToolInfo Properties
 70
     8
 90
       14
310
434D445F52454354414E474C4540
  0
TCOPTIONALDATA
  5
1B7
102
{ACAD_REACTORS
330
1B6
102
}
330
1B6
100
TcOptionalData
 70
     2
 70
     1
  1
Line/Polyline
  0
TCOPTIONALDATA
  5
1BA
102
{ACAD_REACTORS
330
1B9
102
}
330
1B9
100
TcOptionalData
 70
     2
 70
   128
 90
        1
  1
#$AUX@_ToolInfo Properties
 70
     8
 90
       14
310
434D445F52454354414E474C4540
  0
TCOPTIONALDATA
  5
1BD
102
{ACAD_REACTORS
330
1BC
102
}
330
1BC
100
TcOptionalData
 70
     2
 70
   128
 90
        1
  1
#$AUX@_ToolInfo Properties
 70
     8
 90
       16
310
434D445F43454E544552505441524340
  0
TCOPTIONALDATA
  5
1C0
102
{ACAD_REACTORS
330
1BF
102
}
330
1BF
100
TcOptionalData
 70
     2
 70
   128
 90
        1
  1
#$AUX@_ToolInfo Properties
 70
     8
 90
       14
310
434D445F52454354414E474C4540
  0
TCOPTIONALDATA
  5
1C3
102
{ACAD_REACTORS
330
1C2
102
}
330
1C2
100
TcOptionalData
 70
     2
 70
   128
 90
        1
  1
#$AUX@_ToolInfo Properties
 70
     8
 90
       16
310
434D445F43454E544552505441524340
  0
TCOPTIONALDATA
  5
1C6
102
{ACAD_REACTORS
330
1C5
102
}
330
1C5
100
TcOptionalData
 70
     2
 70
   128
 90
        1
  1
#$AUX@_ToolInfo Properties
 70
     8
 90
       14
310
434D445F52454354414E474C4540
  0
TCOPTIONALDATA
  5
1C9
102
{ACAD_REACTORS
330
1C8
102
}
330
1C8
100
TcOptionalData
 70
     2
 70
   128
 90
        1
  1
#$AUX@_ToolInfo Properties
 70
     8
 90
       16
310
434D445F43454E544552505441524340
  0
TCOPTIONALDATA
  5
1CC
102
{ACAD_REACTORS
330
1CB
102
}
330
1CB
100
TcOptionalData
 70
     2
 70
   128
 90
        1
  1
#$AUX@_ToolInfo Properties
 70
     8
 90
       14
310
434D445F52454354414E474C4540
  0
TCOPTIONALDATA
  5
1CF
102
{ACAD_REACTORS
330
1CE
102
}
330
1CE
100
TcOptionalData
 70
     2
 70
   128
 90
        1
  1
#$AUX@_ToolInfo Properties
 70
     8
 90
       16
310
434D445F43454E544552505441524340
  0
TCOPTIONALDATA
  5
1D2
102
{ACAD_REACTORS
330
1D1
102
}
330
1D1
100
TcOptionalData
 70
     2
 70
   128
 90
        1
  1
#$AUX@_ToolInfo Properties
 70
     8
 90
       14
310
434D445F52454354414E474C4540
  0
TCOPTIONALDATA
  5
1D5
102
{ACAD_REACTORS
330
1D4
102
}
330
1D4
100
TcOptionalData
 70
     2
 70
   128
 90
        1
  1
#$AUX@_ToolInfo Properties
 70
     8
 90
       16
310
434D445F43454E544552505441524340
  0
TCOPTIONALDATA
  5
1D8
102
{ACAD_REACTORS
330
1D7
102
}
330
1D7
100
TcOptionalData
 70
     2
 70
   128
 90
        1
  1
#$AUX@_ToolInfo Properties
 70
     8
 90
       14
310
434D445F52454354414E474C4540
  0
TCOPTIONALDATA
  5
1DB
102
{ACAD_REACTORS
330
1DA
102
}
330
1DA
100
TcOptionalData
 70
     2
 70
   128
 90
        1
  1
#$AUX@_ToolInfo Properties
 70
     8
 90
       14
310
434D445F52454354414E474C4540
  0
TCOPTIONALDATA
  5
1DE
102
{ACAD_REACTORS
330
1DD
102
}
330
1DD
100
TcOptionalData
 70
     2
 70
   128
 90
        1
  1
#$AUX@_ToolInfo Properties
 70
     8
 90
       16
310
434D445F43454E544552505441524340
  0
TCOPTIONALDATA
  5
1E3
102
{ACAD_REACTORS
330
1E2
102
}
330
1E2
100
TcOptionalData
 70
     2
 70
   128
 90
        1
  1
#$AUX@_ToolInfo Properties
 70
     8
 90
       14
310
434D445F52454354414E474C4540
  0
TCOPTIONALDATA
  5
1E6
102
{ACAD_REACTORS
330
1E5
102
}
330
1E5
100
TcOptionalData
 70
     2
 70
   128
 90
        1
  1
#$AUX@_ToolInfo Properties
 70
     8
 90
       14
310
434D445F52454354414E474C4540
  0
TCOPTIONALDATA
  5
1F0
102
{ACAD_REACTORS
330
1EF
102
}
330
1EF
100
TcOptionalData
 70
     2
 70
   128
 90
        1
  1
#$AUX@_ToolInfo Properties
 70
     8
 90
       14
310
434D445F52454354414E474C4540
  0
TCOPTIONALDATA
  5
1F3
102
{ACAD_REACTORS
330
1F2
102
}
330
1F2
100
TcOptionalData
 70
     2
 70
   128
 90
        1
  1
#$AUX@_ToolInfo Properties
 70
     8
 90
       16
310
434D445F43454E544552505441524340
  0
TCOPTIONALDATA
  5
1F6
102
{ACAD_REACTORS
330
1F5
102
}
330
1F5
100
TcOptionalData
 70
     2
 70
   128
 90
        1
  1
#$AUX@_ToolInfo Properties
 70
     8
 90
       14
310
434D445F52454354414E474C4540
  0
TCOPTIONALDATA
  5
1F9
102
{ACAD_REACTORS
330
1F8
102
}
330
1F8
100
TcOptionalData
 70
     2
 70
   128
 90
        1
  1
#$AUX@_ToolInfo Properties
 70
     8
 90
       16
310
434D445F43454E544552505441524340
  0
TCOPTIONALDATA
  5
1FC
102
{ACAD_REACTORS
330
1FB
102
}
330
1FB
100
TcOptionalData
 70
     2
 70
   128
 90
        1
  1
#$AUX@_ToolInfo Properties
 70
     8
 90
       14
310
434D445F52454354414E474C4540
  0
TCOPTIONALDATA
  5
1FF
102
{ACAD_REACTORS
330
1FE
102
}
330
1FE
100
TcOptionalData
 70
     2
 70
     1
  1
Line/Polyline
  0
TCOPTIONALDATA
  5
202
102
{ACAD_REACTORS
330
201
102
}
330
201
100
TcOptionalData
 70
     2
 70
   128
 90
        1
  1
#$AUX@_ToolInfo Properties
 70
     8
 90
       14
310
434D445F52454354414E474C4540
  0
TCOPTIONALDATA
  5
205
102
{ACAD_REACTORS
330
204
102
}
330
204
100
TcOptionalData
 70
     2
 70
   128
 90
        1
  1
#$AUX@_ToolInfo Properties
 70
     8
 90
       14
310
434D445F52454354414E474C4540
  0
TCOPTIONALDATA
  5
208
102
{ACAD_REACTORS
330
207
102
}
330
207
100
TcOptionalData
 70
     2
 70
     1
  1
Line/Polyline
  0
TCOPTIONALDATA
  5
20B
102
{ACAD_REACTORS
330
20A
102
}
330
20A
100
TcOptionalData
 70
     2
 70
     1
  1
Line/Polyline
  0
TCOPTIONALDATA
  5
20F
102
{ACAD_REACTORS
330
20E
102
}
330
20E
100
TcOptionalData
 70
     2
 70
   144
 90
        1
  1
#$AUX@_ToolInfo Properties
 70
     8
 90
        9
310
434D445F5445585440
  1
Arial
 70
     0
  0
TCOPTIONALDATA
  5
213
102
{ACAD_REACTORS
330
212
102
}
330
212
100
TcOptionalData
 70
     2
 70
   144
 90
        1
  1
#$AUX@_ToolInfo Properties
 70
     8
 90
        9
310
434D445F5445585440
  1
Arial
 70
     0
  0
TCOPTIONALDATA
  5
216
102
{ACAD_REACTORS
330
215
102
}
330
215
100
TcOptionalData
 70
     2
 70
   144
 90
        1
  1
#$AUX@_ToolInfo Properties
 70
     8
 90
        9
310
434D445F5445585440
  1
Arial
 70
     0
  0
TCOPTIONALDATA
  5
219
102
{ACAD_REACTORS
330
218
102
}
330
218
100
TcOptionalData
 70
     2
 70
   144
 90
        1
  1
#$AUX@_ToolInfo Properties
 70
     8
 90
        9
310
434D445F5445585440
  1
Arial
 70
     0
  0
TCOPTIONALDATA
  5
21C
102
{ACAD_REACTORS
330
21B
102
}
330
21B
100
TcOptionalData
 70
     2
 70
     1
  1
DoubleLine
  0
TCOPTIONALDATA
  5
221
102
{ACAD_REACTORS
330
220
102
}
330
220
100
TcOptionalData
 70
     2
 70
     1
  1
DoubleLine
  0
TCOPTIONALDATA
  5
223
102
{ACAD_REACTORS
330
222
102
}
330
222
100
TcOptionalData
 70
     2
 70
     1
  1
DoubleLine
  0
TCOPTIONALDATA
  5
227
102
{ACAD_REACTORS
330
226
102
}
330
226
100
TcOptionalData
 70
     2
 70
     1
  1
DoubleLine
  0
TCOPTIONALDATA
  5
22C
102
{ACAD_REACTORS
330
22B
102
}
330
22B
100
TcOptionalData
 70
     2
 70
     1
  1
DoubleLine
  0
TCOPTIONALDATA
  5
22E
102
{ACAD_REACTORS
330
22D
102
}
330
22D
100
TcOptionalData
 70
     2
 70
     1
  1
DoubleLine
  0
TCOPTIONALDATA
  5
232
102
{ACAD_REACTORS
330
231
102
}
330
231
100
TcOptionalData
 70
     2
 70
   129
  1
Line/Polyline
 90
        1
  1
#$AUX@_ToolInfo Properties
 70
     8
 90
       14
310
434D445F52454354414E474C4540
  0
TCOPTIONALDATA
  5
235
102
{ACAD_REACTORS
330
234
102
}
330
234
100
TcOptionalData
 70
     2
 70
   129
  1
Line/Polyline
 90
        1
  1
#$AUX@_ToolInfo Properties
 70
     8
 90
       14
310
434D445F52454354414E474C4540
  0
TCOPTIONALDATA
  5
238
102
{ACAD_REACTORS
330
237
102
}
330
237
100
TcOptionalData
 70
     2
 70
   129
  1
Line/Polyline
 90
        1
  1
#$AUX@_ToolInfo Properties
 70
     8
 90
        9
310
434D445F4C494E4540
  0
TCOPTIONALDATA
  5
23B
102
{ACAD_REACTORS
330
23A
102
}
330
23A
100
TcOptionalData
 70
     2
 70
   129
  1
Line/Polyline
 90
        1
  1
#$AUX@_ToolInfo Properties
 70
     8
 90
        9
310
434D445F4C494E4540
  0
TCOPTIONALDATA
  5
23E
102
{ACAD_REACTORS
330
23D
102
}
330
23D
100
TcOptionalData
 70
     2
 70
   129
  1
Line/Polyline
 90
        1
  1
#$AUX@_ToolInfo Properties
 70
     8
 90
        9
310
434D445F4C494E4540
  0
TCOPTIONALDATA
  5
241
102
{ACAD_REACTORS
330
240
102
}
330
240
100
TcOptionalData
 70
     2
 70
   128
 90
        1
  1
#$AUX@_ToolInfo Properties
 70
     8
 90
       14
310
434D445F52454354414E474C4540
  0
TCOPTIONALDATA
  5
244
102
{ACAD_REACTORS
330
243
102
}
330
243
100
TcOptionalData
 70
     2
 70
   128
 90
        1
  1
#$AUX@_ToolInfo Properties
 70
     8
 90
       16
310
434D445F43454E544552505441524340
  0
TCOPTIONALDATA
  5
24E
102
{ACAD_REACTORS
330
24D
102
}
330
24D
100
TcOptionalData
 70
     2
 70
   128
 90
        1
  1
#$AUX@_ToolInfo Properties
 70
     8
 90
       14
310
434D445F52454354414E474C4540
  0
TCOPTIONALDATA
  5
251
102
{ACAD_REACTORS
330
250
102
}
330
250
100
TcOptionalData
 70
     2
 70
   128
 90
        1
  1
#$AUX@_ToolInfo Properties
 70
     8
 90
       16
310
434D445F43454E544552505441524340
  0
TCOPTIONALDATA
  5
254
102
{ACAD_REACTORS
330
253
102
}
330
253
100
TcOptionalData
 70
     2
 70
   128
 90
        1
  1
#$AUX@_ToolInfo Properties
 70
     8
 90
       14
310
434D445F52454354414E474C4540
  0
TCOPTIONALDATA
  5
257
102
{ACAD_REACTORS
330
256
102
}
330
256
100
TcOptionalData
 70
     2
 70
   128
 90
        1
  1
#$AUX@_ToolInfo Properties
 70
     8
 90
       16
310
434D445F43454E544552505441524340
  0
TCOPTIONALDATA
  5
25A
102
{ACAD_REACTORS
330
259
102
}
330
259
100
TcOptionalData
 70
     2
 70
   128
 90
        1
  1
#$AUX@_ToolInfo Properties
 70
     8
 90
       14
310
434D445F52454354414E474C4540
  0
TCOPTIONALDATA
  5
25D
102
{ACAD_REACTORS
330
25C
102
}
330
25C
100
TcOptionalData
 70
     2
 70
   128
 90
        1
  1
#$AUX@_ToolInfo Properties
 70
     8
 90
       14
310
434D445F52454354414E474C4540
  0
TCOPTIONALDATA
  5
26F
102
{ACAD_REACTORS
330
26E
102
}
330
26E
100
TcOptionalData
 70
     2
 70
   128
 90
        1
  1
#$AUX@_ToolInfo Properties
 70
     8
 90
       14
310
434D445F52454354414E474C4540
  0
TCOPTIONALDATA
  5
272
102
{ACAD_REACTORS
330
271
102
}
330
271
100
TcOptionalData
 70
     2
 70
   128
 90
        1
  1
#$AUX@_ToolInfo Properties
 70
     8
 90
       14
310
434D445F52454354414E474C4540
  0
TCOPTIONALDATA
  5
275
102
{ACAD_REACTORS
330
274
102
}
330
274
100
TcOptionalData
 70
     2
 70
   128
 90
        1
  1
#$AUX@_ToolInfo Properties
 70
     8
 90
       14
310
434D445F52454354414E474C4540
  0
TCOPTIONALDATA
  5
278
102
{ACAD_REACTORS
330
277
102
}
330
277
100
TcOptionalData
 70
     2
 70
   128
 90
        1
  1
#$AUX@_ToolInfo Properties
 70
     8
 90
       14
310
434D445F52454354414E474C4540
  0
TCOPTIONALDATA
  5
27B
102
{ACAD_REACTORS
330
27A
102
}
330
27A
100
TcOptionalData
 70
     2
 70
     1
  1
DoubleLine
  0
TCOPTIONALDATA
  5
27D
102
{ACAD_REACTORS
330
27C
102
}
330
27C
100
TcOptionalData
 70
     2
 70
     1
  1
DoubleLine
  0
TCOPTIONALDATA
  5
283
102
{ACAD_REACTORS
330
282
102
}
330
282
100
TcOptionalData
 70
     2
 70
   129
  1
Line/Polyline
 90
        1
  1
#$AUX@_ToolInfo Properties
 70
     8
 90
        9
310
434D445F4C494E4540
  0
TCOPTIONALDATA
  5
286
102
{ACAD_REACTORS
330
285
102
}
330
285
100
TcOptionalData
 70
     2
 70
   129
  1
Line/Polyline
 90
        1
  1
#$AUX@_ToolInfo Properties
 70
     8
 90
        9
310
434D445F4C494E4540
  0
TCOPTIONALDATA
  5
289
102
{ACAD_REACTORS
330
288
102
}
330
288
100
TcOptionalData
 70
     2
 70
     1
  1
DoubleLine
  0
TCOPTIONALDATA
  5
28E
102
{ACAD_REACTORS
330
28D
102
}
330
28D
100
TcOptionalData
 70
     2
 70
     1
  1
DoubleLine
  0
TCOPTIONALDATA
  5
290
102
{ACAD_REACTORS
330
28F
102
}
330
28F
100
TcOptionalData
 70
     2
 70
     1
  1
DoubleLine
  0
TCOPTIONALDATA
  5
296
102
{ACAD_REACTORS
330
295
102
}
330
295
100
TcOptionalData
 70
     2
 70
     1
  1
DoubleLine
  0
TCOPTIONALDATA
  5
298
102
{ACAD_REACTORS
330
297
102
}
330
297
100
TcOptionalData
 70
     2
 70
     1
  1
DoubleLine
  0
TCOPTIONALDATA
  5
29E
102
{ACAD_REACTORS
330
29D
102
}
330
29D
100
TcOptionalData
 70
     2
 70
   129
  1
Line/Polyline
 90
        1
  1
#$AUX@_ToolInfo Properties
 70
     8
 90
       13
310
434D445F504F4C594C494E4540
  0
TCOPTIONALDATA
  5
2A2
102
{ACAD_REACTORS
330
2A1
102
}
330
2A1
100
TcOptionalData
 70
     2
 70
   144
 90
        1
  1
#$AUX@_ToolInfo Properties
 70
     8
 90
        9
310
434D445F5445585440
  1
Arial
 70
     0
  0
TCOPTIONALDATA
  5
2A5
102
{ACAD_REACTORS
330
2A4
102
}
330
2A4
100
TcOptionalData
 70
     2
 70
     1
  1
Line/Polyline
  0
TCOPTIONALDATA
  5
2A8
102
{ACAD_REACTORS
330
2A7
102
}
330
2A7
100
TcOptionalData
 70
     2
 70
     1
  1
Line/Polyline
  0
TCOPTIONALDATA
  5
2AB
102
{ACAD_REACTORS
330
2AA
102
}
330
2AA
100
TcOptionalData
 70
     2
 70
     1
  1
Line/Polyline
  0
TCOPTIONALDATA
  5
2AE
102
{ACAD_REACTORS
330
2AD
102
}
330
2AD
100
TcOptionalData
 70
     2
 70
     1
  1
Line/Polyline
  0
TCOPTIONALDATA
  5
2B1
102
{ACAD_REACTORS
330
2B0
102
}
330
2B0
100
TcOptionalData
 70
     2
 70
     1
  1
Line/Polyline
  0
TCOPTIONALDATA
  5
2B4
102
{ACAD_REACTORS
330
2B3
102
}
330
2B3
100
TcOptionalData
 70
     2
 70
     1
  1
Line/Polyline
  0
TCOPTIONALDATA
  5
2B7
102
{ACAD_REACTORS
330
2B6
102
}
330
2B6
100
TcOptionalData
 70
     2
 70
     1
  1
Line/Polyline
  0
TCOPTIONALDATA
  5
2BA
102
{ACAD_REACTORS
330
2B9
102
}
330
2B9
100
TcOptionalData
 70
     2
 70
     1
  1
Line/Polyline
  0
TCOPTIONALDATA
  5
2BD
102
{ACAD_REACTORS
330
2BC
102
}
330
2BC
100
TcOptionalData
 70
     2
 70
     1
  1
Line/Polyline
  0
TCOPTIONALDATA
  5
2C0
102
{ACAD_REACTORS
330
2BF
102
}
330
2BF
100
TcOptionalData
 70
     2
 70
     1
  1
Line/Polyline
  0
TCOPTIONALDATA
  5
2C3
102
{ACAD_REACTORS
330
2C2
102
}
330
2C2
100
TcOptionalData
 70
     2
 70
     1
  1
Line/Polyline
  0
TCOPTIONALDATA
  5
2C6
102
{ACAD_REACTORS
330
2C5
102
}
330
2C5
100
TcOptionalData
 70
     2
 70
     1
  1
DoubleLine
  0
TCOPTIONALDATA
  5
2CB
102
{ACAD_REACTORS
330
2CA
102
}
330
2CA
100
TcOptionalData
 70
     2
 70
   129
  1
Circle/Arc
 90
        1
  1
#$AUX@_ToolInfo Properties
 70
     8
 90
       19
310
434D445F43454E5445525054434952434C4540
  0
TCOPTIONALDATA
  5
2CE
102
{ACAD_REACTORS
330
2CD
102
}
330
2CD
100
TcOptionalData
 70
     2
 70
   129
  1
Circle/Arc
 90
        1
  1
#$AUX@_ToolInfo Properties
 70
     8
 90
       19
310
434D445F43454E5445525054434952434C4540
  0
TCOPTIONALDATA
  5
2D1
102
{ACAD_REACTORS
330
2D0
102
}
330
2D0
100
TcOptionalData
 70
     2
 70
   129
  1
Circle/Arc
 90
        1
  1
#$AUX@_ToolInfo Properties
 70
     8
 90
       19
310
434D445F43454E5445525054434952434C4540
  0
TCOPTIONALDATA
  5
2D4
102
{ACAD_REACTORS
330
2D3
102
}
330
2D3
100
TcOptionalData
 70
     2
 70
   129
  1
Line/Polyline
 90
        1
  1
#$AUX@_ToolInfo Properties
 70
     8
 90
       14
310
434D445F52454354414E474C4540
  0
TCOPTIONALDATA
  5
2D7
102
{ACAD_REACTORS
330
2D6
102
}
330
2D6
100
TcOptionalData
 70
     2
 70
   129
  1
Line/Polyline
 90
        1
  1
#$AUX@_ToolInfo Properties
 70
     8
 90
       14
310
434D445F52454354414E474C4540
  0
TCOPTIONALDATA
  5
2DA
102
{ACAD_REACTORS
330
2D9
102
}
330
2D9
100
TcOptionalData
 70
     2
 70
   129
  1
Line/Polyline
 90
        1
  1
#$AUX@_ToolInfo Properties
 70
     8
 90
        9
310
434D445F4C494E4540
  0
TCOPTIONALDATA
  5
2DD
102
{ACAD_REACTORS
330
2DC
102
}
330
2DC
100
TcOptionalData
 70
     2
 70
   129
  1
Line/Polyline
 90
        1
  1
#$AUX@_ToolInfo Properties
 70
     8
 90
        9
310
434D445F4C494E4540
  0
TCOPTIONALDATA
  5
2E0
102
{ACAD_REACTORS
330
2DF
102
}
330
2DF
100
TcOptionalData
 70
     2
 70
   129
  1
Line/Polyline
 90
        1
  1
#$AUX@_ToolInfo Properties
 70
     8
 90
        9
310
434D445F4C494E4540
  0
TCOPTIONALDATA
  5
2E3
102
{ACAD_REACTORS
330
2E2
102
}
330
2E2
100
TcOptionalData
 70
     2
 70
   129
  1
Line/Polyline
 90
        1
  1
#$AUX@_ToolInfo Properties
 70
     8
 90
        9
310
434D445F4C494E4540
  0
TCOPTIONALDATA
  5
2E6
102
{ACAD_REACTORS
330
2E5
102
}
330
2E5
100
TcOptionalData
 70
     2
 70
   129
  1
Line/Polyline
 90
        1
  1
#$AUX@_ToolInfo Properties
 70
     8
 90
        9
310
434D445F4C494E4540
  0
TCOPTIONALDATA
  5
2EA
102
{ACAD_REACTORS
330
2E9
102
}
330
2E9
100
TcOptionalData
 70
     2
 70
   144
 90
        1
  1
#$AUX@_ToolInfo Properties
 70
     8
 90
        9
310
434D445F5445585440
  1
Arial
 70
     0
  0
TCOPTIONALDATA
  5
2ED
102
{ACAD_REACTORS
330
2EC
102
}
330
2EC
100
TcOptionalData
 70
     2
 70
   144
 90
        1
  1
#$AUX@_ToolInfo Properties
 70
     8
 90
        9
310
434D445F5445585440
  1
Arial
 70
     0
  0
TCOPTIONALDATA
  5
2F0
102
{ACAD_REACTORS
330
2EF
102
}
330
2EF
100
TcOptionalData
 70
     2
 70
     1
  1
Line/Polyline
  0
TCOPTIONALDATA
  5
2F3
102
{ACAD_REACTORS
330
2F2
102
}
330
2F2
100
TcOptionalData
 70
     2
 70
   129
  1
Line/Polyline
 90
        1
  1
#$AUX@_ToolInfo Properties
 70
     8
 90
        9
310
434D445F4C494E4540
  0
TCOPTIONALDATA
  5
2F6
102
{ACAD_REACTORS
330
2F5
102
}
330
2F5
100
TcOptionalData
 70
     2
 70
   128
 90
        1
  1
#$AUX@_ToolInfo Properties
 70
     8
 90
       18
310
434D445F4F5254484F474F4E414C44494D40
  0
TCOPTIONALDATA
  5
309
102
{ACAD_REACTORS
330
308
102
}
330
308
100
TcOptionalData
 70
     2
 70
   128
 90
        1
  1
#$AUX@_ToolInfo Properties
 70
     8
 90
       18
310
434D445F4F5254484F474F4E414C44494D40
  0
TCOPTIONALDATA
  5
318
102
{ACAD_REACTORS
330
317
102
}
330
317
100
TcOptionalData
 70
     2
 70
   128
 90
        1
  1
#$AUX@_ToolInfo Properties
 70
     8
 90
       18
310
434D445F4F5254484F474F4E414C44494D40
  0
TCOPTIONALDATA
  5
328
102
{ACAD_REACTORS
330
327
102
}
330
327
100
TcOptionalData
 70
     2
 70
   128
 90
        1
  1
#$AUX@_ToolInfo Properties
 70
     8
 90
       18
310
434D445F4F5254484F474F4E414C44494D40
  0
TCOPTIONALDATA
  5
337
102
{ACAD_REACTORS
330
336
102
}
330
336
100
TcOptionalData
 70
     2
 70
   128
 90
        1
  1
#$AUX@_ToolInfo Properties
 70
     8
 90
       18
310
434D445F4F5254484F474F4E414C44494D40
  0
TCOPTIONALDATA
  5
347
102
{ACAD_REACTORS
330
346
102
}
330
346
100
TcOptionalData
 70
     2
 70
   128
 90
        1
  1
#$AUX@_ToolInfo Properties
 70
     8
 90
       18
310
434D445F4F5254484F474F4E414C44494D40
  0
TCOPTIONALDATA
  5
357
102
{ACAD_REACTORS
330
356
102
}
330
356
100
TcOptionalData
 70
     2
 70
   128
 90
        1
  1
#$AUX@_ToolInfo Properties
 70
     8
 90
       18
310
434D445F4F5254484F474F4E414C44494D40
  0
TCOPTIONALDATA
  5
367
102
{ACAD_REACTORS
330
366
102
}
330
366
100
TcOptionalData
 70
     2
 70
   129
  1
Circle/Arc
 90
        1
  1
#$AUX@_ToolInfo Properties
 70
     8
 90
       21
310
434D445F434F4E43454E54524943434952434C4540
  0
TCOPTIONALDATA
  5
36A
102
{ACAD_REACTORS
330
369
102
}
330
369
100
TcOptionalData
 70
     2
 70
   129
  1
Circle/Arc
 90
        1
  1
#$AUX@_ToolInfo Properties
 70
     8
 90
       21
310
434D445F434F4E43454E54524943434952434C4540
  0
TCOPTIONALDATA
  5
36D
102
{ACAD_REACTORS
330
36C
102
}
330
36C
100
TcOptionalData
 70
     2
 70
   129
  1
Circle/Arc
 90
        1
  1
#$AUX@_ToolInfo Properties
 70
     8
 90
       21
310
434D445F434F4E43454E54524943434952434C4540
  0
TCOPTIONALDATA
  5
371
102
{ACAD_REACTORS
330
370
102
}
330
370
100
TcOptionalData
 70
     2
 70
   129
  1
Circle/Arc
 90
        1
  1
#$AUX@_ToolInfo Properties
 70
     8
 90
       21
310
434D445F434F4E43454E54524943434952434C4540
  0
TCOPTIONALDATA
  5
374
102
{ACAD_REACTORS
330
373
102
}
330
373
100
TcOptionalData
 70
     2
 70
   129
  1
Circle/Arc
 90
        1
  1
#$AUX@_ToolInfo Properties
 70
     8
 90
       21
310
434D445F434F4E43454E54524943434952434C4540
  0
TCOPTIONALDATA
  5
377
102
{ACAD_REACTORS
330
376
102
}
330
376
100
TcOptionalData
 70
     2
 70
   129
  1
Circle/Arc
 90
        1
  1
#$AUX@_ToolInfo Properties
 70
     8
 90
       21
310
434D445F434F4E43454E54524943434952434C4540
  0
TCOPTIONALDATA
  5
37B
102
{ACAD_REACTORS
330
37A
102
}
330
37A
100
TcOptionalData
 70
     2
 70
   129
  1
Circle/Arc
 90
        1
  1
#$AUX@_ToolInfo Properties
 70
     8
 90
       21
310
434D445F434F4E43454E54524943434952434C4540
  0
TCOPTIONALDATA
  5
37E
102
{ACAD_REACTORS
330
37D
102
}
330
37D
100
TcOptionalData
 70
     2
 70
   129
  1
Circle/Arc
 90
        1
  1
#$AUX@_ToolInfo Properties
 70
     8
 90
       21
310
434D445F434F4E43454E54524943434952434C4540
  0
TCOPTIONALDATA
  5
381
102
{ACAD_REACTORS
330
380
102
}
330
380
100
TcOptionalData
 70
     2
 70
   129
  1
Circle/Arc
 90
        1
  1
#$AUX@_ToolInfo Properties
 70
     8
 90
       21
310
434D445F434F4E43454E54524943434952434C4540
  0
TCOPTIONALDATA
  5
385
102
{ACAD_REACTORS
330
384
102
}
330
384
100
TcOptionalData
 70
     2
 70
     1
  1
DoubleLine
  0
TCOPTIONALDATA
  5
387
102
{ACAD_REACTORS
330
386
102
}
330
386
100
TcOptionalData
 70
     2
 70
     1
  1
DoubleLine
  0
TCOPTIONALDATA
  5
38D
102
{ACAD_REACTORS
330
38C
102
}
330
38C
100
TcOptionalData
 70
     2
 70
   129
  1
Line/Polyline
 90
        1
  1
#$AUX@_ToolInfo Properties
 70
     8
 90
       14
310
434D445F52454354414E474C4540
  0
TCOPTIONALDATA
  5
390
102
{ACAD_REACTORS
330
38F
102
}
330
38F
100
TcOptionalData
 70
     2
 70
   129
  1
Line/Polyline
 90
        1
  1
#$AUX@_ToolInfo Properties
 70
     8
 90
       14
310
434D445F52454354414E474C4540
  0
TCOPTIONALDATA
  5
393
102
{ACAD_REACTORS
330
392
102
}
330
392
100
TcOptionalData
 70
     2
 70
     1
  1
Line/Polyline
  0
TCOPTIONALDATA
  5
396
102
{ACAD_REACTORS
330
395
102
}
330
395
100
TcOptionalData
 70
     2
 70
     1
  1
Line/Polyline
  0
TCOPTIONALDATA
  5
399
102
{ACAD_REACTORS
330
398
102
}
330
398
100
TcOptionalData
 70
     2
 70
     1
  1
Line/Polyline
  0
TCOPTIONALDATA
  5
39C
102
{ACAD_REACTORS
330
39B
102
}
330
39B
100
TcOptionalData
 70
     2
 70
     1
  1
Line/Polyline
  0
TCOPTIONALDATA
  5
39F
102
{ACAD_REACTORS
330
39E
102
}
330
39E
100
TcOptionalData
 70
     2
 70
     1
  1
Line/Polyline
  0
TCOPTIONALDATA
  5
3A2
102
{ACAD_REACTORS
330
3A1
102
}
330
3A1
100
TcOptionalData
 70
     2
 70
     1
  1
Line/Polyline
  0
TCOPTIONALDATA
  5
3A5
102
{ACAD_REACTORS
330
3A4
102
}
330
3A4
100
TcOptionalData
 70
     2
 70
     1
  1
Line/Polyline
  0
TCOPTIONALDATA
  5
3A8
102
{ACAD_REACTORS
330
3A7
102
}
330
3A7
100
TcOptionalData
 70
     2
 70
     1
  1
Line/Polyline
  0
TCOPTIONALDATA
  5
3AB
102
{ACAD_REACTORS
330
3AA
102
}
330
3AA
100
TcOptionalData
 70
     2
 70
   129
  1
Line/Polyline
 90
        1
  1
#$AUX@_ToolInfo Properties
 70
     8
 90
       14
310
434D445F52454354414E474C4540
  0
TCOPTIONALDATA
  5
3AE
102
{ACAD_REACTORS
330
3AD
102
}
330
3AD
100
TcOptionalData
 70
     2
 70
   129
  1
Line/Polyline
 90
        1
  1
#$AUX@_ToolInfo Properties
 70
     8
 90
       14
310
434D445F52454354414E474C4540
  0
TCOPTIONALDATA
  5
3B1
102
{ACAD_REACTORS
330
3B0
102
}
330
3B0
100
TcOptionalData
 70
     2
 70
   129
  1
Circle/Arc
 90
        1
  1
#$AUX@_ToolInfo Properties
 70
     8
 90
       16
310
434D445F43454E544552505441524340
  0
TCOPTIONALDATA
  5
3B4
102
{ACAD_REACTORS
330
3B3
102
}
330
3B3
100
TcOptionalData
 70
     2
 70
   129
  1
Line/Polyline
 90
        1
  1
#$AUX@_ToolInfo Properties
 70
     8
 90
       14
310
434D445F52454354414E474C4540
  0
TCOPTIONALDATA
  5
3B7
102
{ACAD_REACTORS
330
3B6
102
}
330
3B6
100
TcOptionalData
 70
     2
 70
   129
  1
Circle/Arc
 90
        1
  1
#$AUX@_ToolInfo Properties
 70
     8
 90
       16
310
434D445F43454E544552505441524340
  0
TCOPTIONALDATA
  5
3BA
102
{ACAD_REACTORS
330
3B9
102
}
330
3B9
100
TcOptionalData
 70
     2
 70
   129
  1
Line/Polyline
 90
        1
  1
#$AUX@_ToolInfo Properties
 70
     8
 90
       14
310
434D445F52454354414E474C4540
  0
TCOPTIONALDATA
  5
3BE
102
{ACAD_REACTORS
330
3BD
102
}
330
3BD
100
TcOptionalData
 70
     2
 70
   129
  1
Line/Polyline
 90
        1
  1
#$AUX@_ToolInfo Properties
 70
     8
 90
       14
310
434D445F52454354414E474C4540
  0
TCOPTIONALDATA
  5
3C1
102
{ACAD_REACTORS
330
3C0
102
}
330
3C0
100
TcOptionalData
 70
     2
 70
     1
  1
DoubleLine
  0
TCOPTIONALDATA
  5
3C3
102
{ACAD_REACTORS
330
3C2
102
}
330
3C2
100
TcOptionalData
 70
     2
 70
     1
  1
DoubleLine
  0
TCOPTIONALDATA
  5
3C9
102
{ACAD_REACTORS
330
3C8
102
}
330
3C8
100
TcOptionalData
 70
     2
 70
     1
  1
DoubleLine
  0
TCOPTIONALDATA
  5
3CB
102
{ACAD_REACTORS
330
3CA
102
}
330
3CA
100
TcOptionalData
 70
     2
 70
     1
  1
DoubleLine
  0
TCOPTIONALDATA
  5
3D1
102
{ACAD_REACTORS
330
3D0
102
}
330
3D0
100
TcOptionalData
 70
     2
 70
     1
  1
DoubleLine
  0
TCOPTIONALDATA
  5
3D3
102
{ACAD_REACTORS
330
3D2
102
}
330
3D2
100
TcOptionalData
 70
     2
 70
     1
  1
DoubleLine
  0
TCOPTIONALDATA
  5
3D9
102
{ACAD_REACTORS
330
3D8
102
}
330
3D8
100
TcOptionalData
 70
     2
 70
   129
  1
Line/Polyline
 90
        1
  1
#$AUX@_ToolInfo Properties
 70
     8
 90
       14
310
434D445F52454354414E474C4540
  0
TCOPTIONALDATA
  5
3DC
102
{ACAD_REACTORS
330
3DB
102
}
330
3DB
100
TcOptionalData
 70
     2
 70
     1
  1
DoubleLine
  0
TCOPTIONALDATA
  5
3DE
102
{ACAD_REACTORS
330
3DD
102
}
330
3DD
100
TcOptionalData
 70
     2
 70
     1
  1
DoubleLine
  0
TCOPTIONALDATA
  5
3E4
102
{ACAD_REACTORS
330
3E3
102
}
330
3E3
100
TcOptionalData
 70
     2
 70
     1
  1
DoubleLine
  0
TCOPTIONALDATA
  5
3E6
102
{ACAD_REACTORS
330
3E5
102
}
330
3E5
100
TcOptionalData
 70
     2
 70
     1
  1
DoubleLine
  0
TCOPTIONALDATA
  5
3EC
102
{ACAD_REACTORS
330
3EB
102
}
330
3EB
100
TcOptionalData
 70
     2
 70
     1
  1
DoubleLine
  0
TCOPTIONALDATA
  5
3EE
102
{ACAD_REACTORS
330
3ED
102
}
330
3ED
100
TcOptionalData
 70
     2
 70
     1
  1
DoubleLine
  0
TCOPTIONALDATA
  5
3F4
102
{ACAD_REACTORS
330
3F3
102
}
330
3F3
100
TcOptionalData
 70
     2
 70
     1
  1
DoubleLine
  0
TCOPTIONALDATA
  5
3F6
102
{ACAD_REACTORS
330
3F5
102
}
330
3F5
100
TcOptionalData
 70
     2
 70
     1
  1
DoubleLine
  0
TCOPTIONALDATA
  5
3FC
102
{ACAD_REACTORS
330
3FB
102
}
330
3FB
100
TcOptionalData
 70
     2
 70
     1
  1
DoubleLine
  0
TCOPTIONALDATA
  5
3FE
102
{ACAD_REACTORS
330
3FD
102
}
330
3FD
100
TcOptionalData
 70
     2
 70
     1
  1
DoubleLine
  0
TCOPTIONALDATA
  5
404
102
{ACAD_REACTORS
330
403
102
}
330
403
100
TcOptionalData
 70
     2
 70
     1
  1
DoubleLine
  0
TCOPTIONALDATA
  5
406
102
{ACAD_REACTORS
330
405
102
}
330
405
100
TcOptionalData
 70
     2
 70
     1
  1
DoubleLine
  0
TCOPTIONALDATA
  5
40C
102
{ACAD_REACTORS
330
40B
102
}
330
40B
100
TcOptionalData
 70
     2
 70
     1
  1
DoubleLine
  0
TCOPTIONALDATA
  5
40E
102
{ACAD_REACTORS
330
40D
102
}
330
40D
100
TcOptionalData
 70
     2
 70
     1
  1
DoubleLine
  0
TCOPTIONALDATA
  5
414
102
{ACAD_REACTORS
330
413
102
}
330
413
100
TcOptionalData
 70
     2
 70
     1
  1
DoubleLine
  0
TCOPTIONALDATA
  5
416
102
{ACAD_REACTORS
330
415
102
}
330
415
100
TcOptionalData
 70
     2
 70
     1
  1
DoubleLine
  0
TCOPTIONALDATA
  5
41C
102
{ACAD_REACTORS
330
41B
102
}
330
41B
100
TcOptionalData
 70
     2
 70
     1
  1
Line/Polyline
  0
TCOPTIONALDATA
  5
41F
102
{ACAD_REACTORS
330
41E
102
}
330
41E
100
TcOptionalData
 70
     2
 70
     1
  1
Line/Polyline
  0
TCOPTIONALDATA
  5
422
102
{ACAD_REACTORS
330
421
102
}
330
421
100
TcOptionalData
 70
     2
 70
     1
  1
Line/Polyline
  0
TCOPTIONALDATA
  5
425
102
{ACAD_REACTORS
330
424
102
}
330
424
100
TcOptionalData
 70
     2
 70
     1
  1
Line/Polyline
  0
TCOPTIONALDATA
  5
428
102
{ACAD_REACTORS
330
427
102
}
330
427
100
TcOptionalData
 70
     2
 70
     1
  1
Line/Polyline
  0
TCOPTIONALDATA
  5
42B
102
{ACAD_REACTORS
330
42A
102
}
330
42A
100
TcOptionalData
 70
     2
 70
     1
  1
Line/Polyline
  0
TCOPTIONALDATA
  5
42E
102
{ACAD_REACTORS
330
42D
102
}
330
42D
100
TcOptionalData
 70
     2
 70
     1
  1
Line/Polyline
  0
TCOPTIONALDATA
  5
431
102
{ACAD_REACTORS
330
430
102
}
330
430
100
TcOptionalData
 70
     2
 70
     1
  1
Line/Polyline
  0
TCOPTIONALDATA
  5
434
102
{ACAD_REACTORS
330
433
102
}
330
433
100
TcOptionalData
 70
     2
 70
     1
  1
Line/Polyline
  0
TCOPTIONALDATA
  5
437
102
{ACAD_REACTORS
330
436
102
}
330
436
100
TcOptionalData
 70
     2
 70
     1
  1
Line/Polyline
  0
TCOPTIONALDATA
  5
43A
102
{ACAD_REACTORS
330
439
102
}
330
439
100
TcOptionalData
 70
     2
 70
     1
  1
Line/Polyline
  0
TCOPTIONALDATA
  5
43D
102
{ACAD_REACTORS
330
43C
102
}
330
43C
100
TcOptionalData
 70
     2
 70
     1
  1
Line/Polyline
  0
TCOPTIONALDATA
  5
440
102
{ACAD_REACTORS
330
43F
102
}
330
43F
100
TcOptionalData
 70
     2
 70
   129
  1
Line/Polyline
 90
        1
  1
#$AUX@_ToolInfo Properties
 70
     8
 90
       14
310
434D445F52454354414E474C4540
  0
TCOPTIONALDATA
  5
443
102
{ACAD_REACTORS
330
442
102
}
330
442
100
TcOptionalData
 70
     2
 70
   129
  1
Line/Polyline
 90
        1
  1
#$AUX@_ToolInfo Properties
 70
     8
 90
       14
310
434D445F52454354414E474C4540
  0
TCOPTIONALDATA
  5
446
102
{ACAD_REACTORS
330
445
102
}
330
445
100
TcOptionalData
 70
     2
 70
   129
  1
Line/Polyline
 90
        1
  1
#$AUX@_ToolInfo Properties
 70
     8
 90
       14
310
434D445F52454354414E474C4540
  0
TCOPTIONALDATA
  5
449
102
{ACAD_REACTORS
330
448
102
}
330
448
100
TcOptionalData
 70
     2
 70
   129
  1
Circle/Arc
 90
        1
  1
#$AUX@_ToolInfo Properties
 70
     8
 90
       16
310
434D445F43454E544552505441524340
  0
TCOPTIONALDATA
  5
44C
102
{ACAD_REACTORS
330
44B
102
}
330
44B
100
TcOptionalData
 70
     2
 70
   129
  1
Line/Polyline
 90
        1
  1
#$AUX@_ToolInfo Properties
 70
     8
 90
       14
310
434D445F52454354414E474C4540
  0
TCOPTIONALDATA
  5
44F
102
{ACAD_REACTORS
330
44E
102
}
330
44E
100
TcOptionalData
 70
     2
 70
   129
  1
Circle/Arc
 90
        1
  1
#$AUX@_ToolInfo Properties
 70
     8
 90
       16
310
434D445F43454E544552505441524340
  0
TCOPTIONALDATA
  5
452
102
{ACAD_REACTORS
330
451
102
}
330
451
100
TcOptionalData
 70
     2
 70
   129
  1
Line/Polyline
 90
        1
  1
#$AUX@_ToolInfo Properties
 70
     8
 90
       14
310
434D445F52454354414E474C4540
  0
TCOPTIONALDATA
  5
455
102
{ACAD_REACTORS
330
454
102
}
330
454
100
TcOptionalData
 70
     2
 70
   129
  1
Circle/Arc
 90
        1
  1
#$AUX@_ToolInfo Properties
 70
     8
 90
       16
310
434D445F43454E544552505441524340
  0
TCOPTIONALDATA
  5
458
102
{ACAD_REACTORS
330
457
102
}
330
457
100
TcOptionalData
 70
     2
 70
   129
  1
Line/Polyline
 90
        1
  1
#$AUX@_ToolInfo Properties
 70
     8
 90
       14
310
434D445F52454354414E474C4540
  0
TCOPTIONALDATA
  5
45B
102
{ACAD_REACTORS
330
45A
102
}
330
45A
100
TcOptionalData
 70
     2
 70
   129
  1
Circle/Arc
 90
        1
  1
#$AUX@_ToolInfo Properties
 70
     8
 90
       16
310
434D445F43454E544552505441524340
  0
TCOPTIONALDATA
  5
45E
102
{ACAD_REACTORS
330
45D
102
}
330
45D
100
TcOptionalData
 70
     2
 70
   129
  1
Line/Polyline
 90
        1
  1
#$AUX@_ToolInfo Properties
 70
     8
 90
       13
310
434D445F504F4C594C494E4540
  0
TCOPTIONALDATA
  5
461
102
{ACAD_REACTORS
330
460
102
}
330
460
100
TcOptionalData
 70
     2
 70
   129
  1
Line/Polyline
 90
        1
  1
#$AUX@_ToolInfo Properties
 70
     8
 90
       13
310
434D445F504F4C594C494E4540
  0
TCOPTIONALDATA
  5
464
102
{ACAD_REACTORS
330
463
102
}
330
463
100
TcOptionalData
 70
     2
 70
     1
  1
DoubleLine
  0
TCOPTIONALDATA
  5
466
102
{ACAD_REACTORS
330
465
102
}
330
465
100
TcOptionalData
 70
     2
 70
     1
  1
DoubleLine
  0
TCOPTIONALDATA
  5
46C
102
{ACAD_REACTORS
330
46B
102
}
330
46B
100
TcOptionalData
 70
     2
 70
     1
  1
Line/Polyline
  0
TCOPTIONALDATA
  5
46F
102
{ACAD_REACTORS
330
46E
102
}
330
46E
100
TcOptionalData
 70
     2
 70
     1
  1
Line/Polyline
  0
TCOPTIONALDATA
  5
472
102
{ACAD_REACTORS
330
471
102
}
330
471
100
TcOptionalData
 70
     2
 70
     1
  1
Line/Polyline
  0
TCOPTIONALDATA
  5
475
102
{ACAD_REACTORS
330
474
102
}
330
474
100
TcOptionalData
 70
     2
 70
     1
  1
Line/Polyline
  0
TCOPTIONALDATA
  5
478
102
{ACAD_REACTORS
330
477
102
}
330
477
100
TcOptionalData
 70
     2
 70
     1
  1
Line/Polyline
  0
TCOPTIONALDATA
  5
47B
102
{ACAD_REACTORS
330
47A
102
}
330
47A
100
TcOptionalData
 70
     2
 70
     1
  1
Line/Polyline
  0
TCOPTIONALDATA
  5
47E
102
{ACAD_REACTORS
330
47D
102
}
330
47D
100
TcOptionalData
 70
     2
 70
     1
  1
Line/Polyline
  0
TCOPTIONALDATA
  5
481
102
{ACAD_REACTORS
330
480
102
}
330
480
100
TcOptionalData
 70
     2
 70
     1
  1
Line/Polyline
  0
TCOPTIONALDATA
  5
484
102
{ACAD_REACTORS
330
483
102
}
330
483
100
TcOptionalData
 70
     2
 70
     1
  1
Line/Polyline
  0
TCOPTIONALDATA
  5
487
102
{ACAD_REACTORS
330
486
102
}
330
486
100
TcOptionalData
 70
     2
 70
     1
  1
Line/Polyline
  0
TCOPTIONALDATA
  5
48A
102
{ACAD_REACTORS
330
489
102
}
330
489
100
TcOptionalData
 70
     2
 70
     1
  1
Line/Polyline
  0
TCOPTIONALDATA
  5
48D
102
{ACAD_REACTORS
330
48C
102
}
330
48C
100
TcOptionalData
 70
     2
 70
     1
  1
Line/Polyline
  0
TCOPTIONALDATA
  5
490
102
{ACAD_REACTORS
330
48F
102
}
330
48F
100
TcOptionalData
 70
     2
 70
   129
  1
Line/Polyline
 90
        1
  1
#$AUX@_ToolInfo Properties
 70
     8
 90
        9
310
434D445F4C494E4540
  0
TCOPTIONALDATA
  5
493
102
{ACAD_REACTORS
330
492
102
}
330
492
100
TcOptionalData
 70
     2
 70
   129
  1
Line/Polyline
 90
        1
  1
#$AUX@_ToolInfo Properties
 70
     8
 90
        9
310
434D445F4C494E4540
  0
TCOPTIONALDATA
  5
497
102
{ACAD_REACTORS
330
496
102
}
330
496
100
TcOptionalData
 70
     2
 70
   144
 90
        1
  1
#$AUX@_ToolInfo Properties
 70
     8
 90
        9
310
434D445F5445585440
  1
Arial
 70
     0
  0
TCOPTIONALDATA
  5
49A
102
{ACAD_REACTORS
330
499
102
}
330
499
100
TcOptionalData
 70
     2
 70
   129
  1
Line/Polyline
 90
        1
  1
#$AUX@_ToolInfo Properties
 70
     8
 90
       13
310
434D445F504F4C594C494E4540
  0
TCOPTIONALDATA
  5
49D
102
{ACAD_REACTORS
330
49C
102
}
330
49C
100
TcOptionalData
 70
     2
 70
   129
  1
Line/Polyline
 90
        1
  1
#$AUX@_ToolInfo Properties
 70
     8
 90
       13
310
434D445F504F4C594C494E4540
  0
TCOPTIONALDATA
  5
4A4
102
{ACAD_REACTORS
330
4A3
102
}
330
4A3
100
TcOptionalData
 70
     2
 70
   144
 90
        1
  1
#$AUX@_ToolInfo Properties
 70
     8
 90
        9
310
434D445F5445585440
  1
Arial
 70
     2
  0
TCOPTIONALDATA
  5
4A7
102
{ACAD_REACTORS
330
4A6
102
}
330
4A6
100
TcOptionalData
 70
     2
 70
   144
 90
        1
  1
#$AUX@_ToolInfo Properties
 70
     8
 90
        9
310
434D445F5445585440
  1
Arial
 70
     0
  0
TCOPTIONALDATA
  5
4AB
102
{ACAD_REACTORS
330
4AA
102
}
330
4AA
100
TcOptionalData
 70
     2
 70
   144
 90
        1
  1
#$AUX@_ToolInfo Properties
 70
     8
 90
        9
310
434D445F5445585440
  1
Arial
 70
     0
  0
TCOPTIONALDATA
  5
4AE
102
{ACAD_REACTORS
330
4AD
102
}
330
4AD
100
TcOptionalData
 70
     2
 70
   128
 90
        1
  1
#$AUX@_ToolInfo Properties
 70
     8
 90
       18
310
434D445F4F5254484F474F4E414C44494D40
  0
TCOPTIONALDATA
  5
4BE
102
{ACAD_REACTORS
330
4BD
102
}
330
4BD
100
TcOptionalData
 70
     2
 70
   128
 90
        1
  1
#$AUX@_ToolInfo Properties
 70
     8
 90
       18
310
434D445F4F5254484F474F4E414C44494D40
  0
TCOPTIONALDATA
  5
4CE
102
{ACAD_REACTORS
330
4CD
102
}
330
4CD
100
TcOptionalData
 70
     2
 70
   144
 90
        1
  1
#$AUX@_ToolInfo Properties
 70
     8
 90
        9
310
434D445F5445585440
  1
Arial
 70
     0
  0
TCOPTIONALDATA
  5
4D1
102
{ACAD_REACTORS
330
4D0
102
}
330
4D0
100
TcOptionalData
 70
     2
 70
   144
 90
        1
  1
#$AUX@_ToolInfo Properties
 70
     8
 90
        9
310
434D445F5445585440
  1
Arial
 70
     0
  0
TCOPTIONALDATA
  5
4D4
102
{ACAD_REACTORS
330
4D3
102
}
330
4D3
100
TcOptionalData
 70
     2
 70
   128
 90
        1
  1
#$AUX@_ToolInfo Properties
 70
     8
 90
       18
310
434D445F4F5254484F474F4E414C44494D40
  0
TCOPTIONALDATA
  5
4E4
102
{ACAD_REACTORS
330
4E3
102
}
330
4E3
100
TcOptionalData
 70
     2
 70
   128
 90
        1
  1
#$AUX@_ToolInfo Properties
 70
     8
 90
       18
310
434D445F4F5254484F474F4E414C44494D40
  0
TCOPTIONALDATA
  5
4F3
102
{ACAD_REACTORS
330
4F2
102
}
330
4F2
100
TcOptionalData
 70
     2
 70
   144
 90
        1
  1
#$AUX@_ToolInfo Properties
 70
     8
 90
        9
310
434D445F5445585440
  1
Arial
 70
     0
  0
TCOPTIONALDATA
  5
4F6
102
{ACAD_REACTORS
330
4F5
102
}
330
4F5
100
TcOptionalData
 70
     2
 70
   144
 90
        1
  1
#$AUX@_ToolInfo Properties
 70
     8
 90
        9
310
434D445F5445585440
  1
Arial
 70
     0
  0
TCOPTIONALDATA
  5
4F9
102
{ACAD_REACTORS
330
4F8
102
}
330
4F8
100
TcOptionalData
 70
     2
 70
   144
 90
        1
  1
#$AUX@_ToolInfo Properties
 70
     8
 90
        9
310
434D445F5445585440
  1
Arial
 70
     0
  0
TCOPTIONALDATA
  5
504
102
{ACAD_REACTORS
330
503
102
}
330
503
100
TcOptionalData
 70
     2
 70
   128
 90
        1
  1
#$AUX@_ToolInfo Properties
 70
     8
 90
        9
310
434D445F4C494E4540
  0
TCOPTIONALDATA
  5
507
102
{ACAD_REACTORS
330
506
102
}
330
506
100
TcOptionalData
 70
     2
 70
   128
 90
        1
  1
#$AUX@_ToolInfo Properties
 70
     8
 90
        9
310
434D445F4C494E4540
  0
TCOPTIONALDATA
  5
50A
102
{ACAD_REACTORS
330
509
102
}
330
509
100
TcOptionalData
 70
     2
 70
   129
  1
Line/Polyline
 90
        1
  1
#$AUX@_ToolInfo Properties
 70
     8
 90
       14
310
434D445F52454354414E474C4540
  0
TCOPTIONALDATA
  5
50D
102
{ACAD_REACTORS
330
50C
102
}
330
50C
100
TcOptionalData
 70
     2
 70
   129
  1
Line/Polyline
 90
        1
  1
#$AUX@_ToolInfo Properties
 70
     8
 90
       14
310
434D445F52454354414E474C4540
  0
TCOPTIONALDATA
  5
510
102
{ACAD_REACTORS
330
50F
102
}
330
50F
100
TcOptionalData
 70
     2
 70
   129
  1
Line/Polyline
 90
        1
  1
#$AUX@_ToolInfo Properties
 70
     8
 90
       14
310
434D445F52454354414E474C4540
  0
TCOPTIONALDATA
  5
513
102
{ACAD_REACTORS
330
512
102
}
330
512
100
TcOptionalData
 70
     2
 70
   129
  1
Line/Polyline
 90
        1
  1
#$AUX@_ToolInfo Properties
 70
     8
 90
       14
310
434D445F52454354414E474C4540
  0
TCOPTIONALDATA
  5
516
102
{ACAD_REACTORS
330
515
102
}
330
515
100
TcOptionalData
 70
     2
 70
   144
 90
        1
  1
#$AUX@_ToolInfo Properties
 70
     8
 90
        9
310
434D445F5445585440
  1
Arial
 70
     0
  0
TCOPTIONALDATA
  5
519
102
{ACAD_REACTORS
330
518
102
}
330
518
100
TcOptionalData
 70
     2
 70
   144
 90
        1
  1
#$AUX@_ToolInfo Properties
 70
     8
 90
        9
310
434D445F5445585440
  1
Arial
 70
     0
  0
TCOPTIONALDATA
  5
51C
102
{ACAD_REACTORS
330
51B
102
}
330
51B
100
TcOptionalData
 70
     2
 70
   144
 90
        1
  1
#$AUX@_ToolInfo Properties
 70
     8
 90
        9
310
434D445F5445585440
  1
Arial
 70
     0
  0
TCOPTIONALDATA
  5
51F
102
{ACAD_REACTORS
330
51E
102
}
330
51E
100
TcOptionalData
 70
     2
 70
   144
 90
        1
  1
#$AUX@_ToolInfo Properties
 70
     8
 90
        9
310
434D445F5445585440
  1
Arial
 70
     0
  0
TCOPTIONALDATA
  5
526
102
{ACAD_REACTORS
330
525
102
}
330
525
100
TcOptionalData
 70
     2
 70
   144
 90
        1
  1
#$AUX@_ToolInfo Properties
 70
     8
 90
        9
310
434D445F5445585440
  1
Arial
 70
     0
  0
GROUP
  5
36F
102
{ACAD_REACTORS
330
D
102
}
330
D
100
AcDbGroup
300

 70
     0
 71
     1
340
368
340
36B
340
36E
  0
GROUP
  5
379
102
{ACAD_REACTORS
330
D
102
}
330
D
100
AcDbGroup
300

 70
     0
 71
     1
340
372
340
375
340
378
  0
GROUP
  5
383
102
{ACAD_REACTORS
330
D
102
}
330
D
100
AcDbGroup
300

 70
     0
 71
     1
340
37C
340
37F
340
382
  0
GROUP
  5
3BC
102
{ACAD_REACTORS
330
D
102
}
330
D
100
AcDbGroup
300

 70
     0
 71
     1
340
38E
340
391
340
394
340
397
340
39A
340
39D
340
3A0
340
3A3
340
3A6
340
3A9
340
3AC
340
3AF
340
3B2
340
3B5
340
3B8
340
3BB
  0
GROUP
  5
49F
102
{ACAD_REACTORS
330
D
102
}
102
{ACAD_XDICTIONARY
360
4A0
102
}
330
D
100
AcDbGroup
300

 70
     0
 71
     1
340
498
340
49B
340
49E
  0
GROUP
  5
495
102
{ACAD_REACTORS
330
D
102
}
330
D
100
AcDbGroup
300

 70
     0
 71
     1
340
3BF
340
3DA
340
41D
340
420
340
423
340
426
340
429
340
42C
340
42F
340
432
340
435
340
438
340
43B
340
43E
340
441
340
444
340
447
340
44A
340
44D
340
450
340
453
340
456
340
459
340
45C
340
45F
340
462
340
46D
340
470
340
473
340
476
340
479
340
47C
340
47F
340
482
340
485
340
488
340
48B
340
48E
340
491
340
494
  0
GROUP
  5
521
102
{ACAD_REACTORS
330
D
102
}
102
{ACAD_XDICTIONARY
360
522
102
}
330
D
100
AcDbGroup
300

 70
     0
 71
     1
340
50B
340
50E
340
511
340
514
340
517
340
51A
340
51D
340
520
  0
LAYOUT
  5
22
102
{ACAD_REACTORS
330
1A
102
}
330
1A
100
AcDbPlotSettings
  1

  2
novaPDF 10
  4
Letter
  6

 40
0.0
 41
0.0
 42
0.0
 43
0.0
 44
215.9
 45
279.4
 46
0.0
 47
0.0
 48
-4.25
 49
-5.5
140
4.25
141
5.5
142
1.0
143
1.0
 70
  1696
 72
     0
 73
     0
 74
     4
  7

 75
     0
 76
     0
 77
     2
 78
   300
147
0.0012720292124608
148
0.0
149
0.0
100
AcDbLayout
  1
Model
 70
     1
 71
     0
 10
2113.058191518794
 20
3061.230831594971
 11
2121.558191518794
 21
3072.230831594971
 12
0.0
 22
0.0
 32
0.0
 14
1197.609240745247
 24
3641.894367777601
 34
0.0
 15
4044.41716789849
 25
5844.66561601487
 35
4.778888463973999
146
0.0
 13
0.0
 23
0.0
 33
0.0
 16
1.0
 26
0.0
 36
0.0
 17
0.0
 27
1.0
 37
0.0
 76
     0
330
1F
331
29
  0
LAYOUT
  5
1E
102
{ACAD_REACTORS
330
1A
102
}
330
1A
100
AcDbPlotSettings
  1

  2
none_device
  4
ANSI_A_(11.00_x_8.50_Inches)
  6

 40
6.35
 41
19.05
 42
6.35000508
 43
19.05000254
 44
279.4
 45
215.9
 46
0.0
 47
0.0
 48
0.0
 49
0.0
140
0.0
141
0.0
142
1.0
143
1.0
 70
   672
 72
     0
 73
     0
 74
     5
  7

 75
    16
 76
     0
 77
     2
 78
   300
147
1.0
148
-6.35
149
-19.05
100
AcDbLayout
  1
Paper 1
 70
     1
 71
     1
 10
0.0
 20
0.0
 11
11.0
 21
8.5
 12
0.0
 22
0.0
 32
0.0
 14
0.0
 24
0.0
 34
0.0
 15
11.0
 25
8.5
 35
0.0
146
0.0
 13
0.0
 23
0.0
 33
0.0
 16
1.0
 26
0.0
 36
0.0
 17
0.0
 27
1.0
 37
0.0
 76
     0
330
1B
331
528
  0
MATERIAL
  5
3D
102
{ACAD_REACTORS
330
3B
102
}
330
3B
100
AcDbMaterial
  1
ByBlock
 72
     1
 94
      127
  0
MATERIAL
  5
3C
102
{ACAD_REACTORS
330
3B
102
}
330
3B
100
AcDbMaterial
  1
ByLayer
 72
     1
 94
      127
  0
MATERIAL
  5
3E
102
{ACAD_REACTORS
330
3B
102
}
330
3B
100
AcDbMaterial
  1
Global
 72
     1
 94
      127
  0
MLEADERSTYLE
  5
168
102
{ACAD_REACTORS
330
167
102
}
330
167
100
AcDbMLeaderStyle
170
     2
171
     1
172
     0
 90
        2
 40
0.0
 41
0.0
173
     1
 91
-1056964608
340
14
 92
       -2
290
     1
 42
0.25
291
     1
 43
0.25
  3

341
0
 44
0.25
300

342
11
174
     1
178
     1
175
     1
176
     0
 93
-1056964608
 45
0.15
292
     0
297
     0
 46
0.18
343
0
 94
-1056964608
 47
1.0
 49
1.0
140
1.0
293
     1
141
0.0
294
     1
177
     0
142
1.0
295
     0
296
     0
143
0.125
1001
ACAD_MLEADERVER
1070
     2
  0
MLINESTYLE
  5
18
102
{ACAD_REACTORS
330
17
102
}
330
17
100
AcDbMlineStyle
  2
Standard
 70
     0
  3

 62
   256
 51
90.0
 52
90.0
 71
     7
 49
0.5
 62
   256
  6
BYLAYER
 49
-0.5
 62
   256
  6
BYLAYER
 49
0.5
 62
   256
  6
BYLAYER
 49
-0.5
 62
   256
  6
BYLAYER
 49
0.25
 62
     0
  6
BYLAYER
 49
0.0
 62
     0
  6
BYLAYER
 49
-0.25
 62
     0
  6
BYLAYER
  0
ACDBPLACEHOLDER
  5
F
102
{ACAD_REACTORS
330
E
102
}
330
E
  0
SCALE
  5
52B
102
{ACAD_REACTORS
330
52A
102
}
330
52A
100
AcDbScale
 70
     0
300
1:1
140
1.0
141
1.0
290
     1
  0
SCALE
  5
52C
102
{ACAD_REACTORS
330
52A
102
}
330
52A
100
AcDbScale
 70
     0
300
1:2
140
1.0
141
2.0
290
     0
  0
SCALE
  5
52D
102
{ACAD_REACTORS
330
52A
102
}
330
52A
100
AcDbScale
 70
     0
300
1:4
140
1.0
141
4.0
290
     0
  0
SCALE
  5
52E
102
{ACAD_REACTORS
330
52A
102
}
330
52A
100
AcDbScale
 70
     0
300
1:5
140
1.0
141
5.0
290
     0
  0
SCALE
  5
52F
102
{ACAD_REACTORS
330
52A
102
}
330
52A
100
AcDbScale
 70
     0
300
1:8
140
1.0
141
8.0
290
     0
  0
SCALE
  5
530
102
{ACAD_REACTORS
330
52A
102
}
330
52A
100
AcDbScale
 70
     0
300
1:10
140
1.0
141
10.0
290
     0
  0
SCALE
  5
531
102
{ACAD_REACTORS
330
52A
102
}
330
52A
100
AcDbScale
 70
     0
300
1:16
140
1.0
141
16.0
290
     0
  0
SCALE
  5
532
102
{ACAD_REACTORS
330
52A
102
}
330
52A
100
AcDbScale
 70
     0
300
1:20
140
1.0
141
20.0
290
     0
  0
SCALE
  5
533
102
{ACAD_REACTORS
330
52A
102
}
330
52A
100
AcDbScale
 70
     0
300
1:30
140
1.0
141
30.0
290
     0
  0
SCALE
  5
534
102
{ACAD_REACTORS
330
52A
102
}
330
52A
100
AcDbScale
 70
     0
300
1:40
140
1.0
141
40.0
290
     0
  0
SCALE
  5
535
102
{ACAD_REACTORS
330
52A
102
}
330
52A
100
AcDbScale
 70
     0
300
1:50
140
1.0
141
50.0
290
     0
  0
SCALE
  5
536
102
{ACAD_REACTORS
330
52A
102
}
330
52A
100
AcDbScale
 70
     0
300
1:100
140
1.0
141
100.0
290
     0
  0
SCALE
  5
537
102
{ACAD_REACTORS
330
52A
102
}
330
52A
100
AcDbScale
 70
     0
300
2:1
140
2.0
141
1.0
290
     0
  0
SCALE
  5
538
102
{ACAD_REACTORS
330
52A
102
}
330
52A
100
AcDbScale
 70
     0
300
4:1
140
4.0
141
1.0
290
     0
  0
SCALE
  5
539
102
{ACAD_REACTORS
330
52A
102
}
330
52A
100
AcDbScale
 70
     0
300
8:1
140
8.0
141
1.0
290
     0
  0
SCALE
  5
53A
102
{ACAD_REACTORS
330
52A
102
}
330
52A
100
AcDbScale
 70
     0
300
10:1
140
10.0
141
1.0
290
     0
  0
SCALE
  5
53B
102
{ACAD_REACTORS
330
52A
102
}
330
52A
100
AcDbScale
 70
     0
300
100:1
140
100.0
141
1.0
290
     0
  0
SCALE
  5
53C
102
{ACAD_REACTORS
330
52A
102
}
330
52A
100
AcDbScale
 70
     0
300
1/128" = 1'-0"
140
0.0078125
141
12.0
290
     0
  0
SCALE
  5
53D
102
{ACAD_REACTORS
330
52A
102
}
330
52A
100
AcDbScale
 70
     0
300
1/64" = 1'-0"
140
0.015625
141
12.0
290
     0
  0
SCALE
  5
53E
102
{ACAD_REACTORS
330
52A
102
}
330
52A
100
AcDbScale
 70
     0
300
1/32" = 1'-0"
140
0.03125
141
12.0
290
     0
  0
SCALE
  5
53F
102
{ACAD_REACTORS
330
52A
102
}
330
52A
100
AcDbScale
 70
     0
300
1/16" = 1'-0"
140
0.0625
141
12.0
290
     0
  0
SCALE
  5
540
102
{ACAD_REACTORS
330
52A
102
}
330
52A
100
AcDbScale
 70
     0
300
3/32" = 1'-0"
140
0.09375
141
12.0
290
     0
  0
SCALE
  5
541
102
{ACAD_REACTORS
330
52A
102
}
330
52A
100
AcDbScale
 70
     0
300
1/8" = 1'-0"
140
0.125
141
12.0
290
     0
  0
SCALE
  5
542
102
{ACAD_REACTORS
330
52A
102
}
330
52A
100
AcDbScale
 70
     0
300
3/16" = 1'-0"
140
0.1875
141
12.0
290
     0
  0
SCALE
  5
543
102
{ACAD_REACTORS
330
52A
102
}
330
52A
100
AcDbScale
 70
     0
300
1/4" = 1'-0"
140
0.25
141
12.0
290
     0
  0
SCALE
  5
544
102
{ACAD_REACTORS
330
52A
102
}
330
52A
100
AcDbScale
 70
     0
300
3/8" = 1'-0"
140
0.375
141
12.0
290
     0
  0
SCALE
  5
545
102
{ACAD_REACTORS
330
52A
102
}
330
52A
100
AcDbScale
 70
     0
300
1/2" = 1'-0"
140
0.5
141
12.0
290
     0
  0
SCALE
  5
546
102
{ACAD_REACTORS
330
52A
102
}
330
52A
100
AcDbScale
 70
     0
300
3/4" = 1'-0"
140
0.75
141
12.0
290
     0
  0
SCALE
  5
547
102
{ACAD_REACTORS
330
52A
102
}
330
52A
100
AcDbScale
 70
     0
300
1" = 1'-0"
140
1.0
141
12.0
290
     0
  0
SCALE
  5
548
102
{ACAD_REACTORS
330
52A
102
}
330
52A
100
AcDbScale
 70
     0
300
1-1/2" = 1'-0"
140
1.5
141
12.0
290
     0
  0
SCALE
  5
549
102
{ACAD_REACTORS
330
52A
102
}
330
52A
100
AcDbScale
 70
     0
300
3" = 1'-0"
140
3.0
141
12.0
290
     0
  0
SCALE
  5
54A
102
{ACAD_REACTORS
330
52A
102
}
330
52A
100
AcDbScale
 70
     0
300
6" = 1'-0"
140
6.0
141
12.0
290
     0
  0
SCALE
  5
54B
102
{ACAD_REACTORS
330
52A
102
}
330
52A
100
AcDbScale
 70
     0
300
1'-0" = 1'-0"
140
12.0
141
12.0
290
     0
  0
TABLESTYLE
  5
17A
102
{ACAD_REACTORS
330
179
102
}
102
{ACAD_XDICTIONARY
360
56E
102
}
330
179
100
AcDbTableStyle
  3

 70
     0
 71
     0
 40
0.06
 41
0.06
280
     0
281
     0
  7
Standard
140
0.1500000059604645
170
     5
 62
     0
 63
   257
283
     1
 90
        4
 91
        0
  1

274
    -2
284
     1
 64
     0
275
    -2
285
     1
 65
     0
276
    -2
286
     1
 66
     0
277
    -2
287
     1
 67
     0
278
    -2
288
     1
 68
     0
279
    -2
289
     1
 69
     0
  7
Standard
140
0.1500000059604645
170
     5
 62
     0
 63
   257
283
     1
 90
        4
 91
        0
  1

274
    -2
284
     1
 64
     0
275
    -2
285
     1
 65
     0
276
    -2
286
     1
 66
     0
277
    -2
287
     1
 67
     0
278
    -2
288
     1
 68
     0
279
    -2
289
     1
 69
     0
  7
Standard
140
0.1500000059604645
170
     5
 62
     0
 63
   257
283
     1
 90
        4
 91
        0
  1

274
    -2
284
     1
 64
     0
275
    -2
285
     1
 65
     0
276
    -2
286
     1
 66
     0
277
    -2
287
     1
 67
     0
278
    -2
288
     1
 68
     0
279
    -2
289
     1
 69
     0
  0
VISUALSTYLE
  5
2F
102
{ACAD_REACTORS
330
2A
102
}
102
{ACAD_XDICTIONARY
360
556
102
}
330
2A
100
AcDbVisualStyle
  2
2dWireframe
 70
     4
 71
     0
 72
     2
 73
     0
 90
        0
 40
-0.6
 41
-30.0
 62
     5
 63
     7
421
 16777215
 74
     1
 91
        4
 64
     7
 65
   257
 75
     1
175
     1
 42
1.0
 92
        0
 66
   257
 43
1.0
 76
     1
 77
     6
 78
     2
 67
     7
 79
     5
170
     0
171
     0
290
     0
174
     0
 93
        1
 44
0.0
173
     0
291
     0
 45
0.0
  0
VISUALSTYLE
  5
31
102
{ACAD_REACTORS
330
2A
102
}
102
{ACAD_XDICTIONARY
360
55A
102
}
330
2A
100
AcDbVisualStyle
  2
3D Hidden
 70
     6
 71
     1
 72
     2
 73
     2
 90
        0
 40
-0.6
 41
-30.0
 62
     5
 63
     7
421
 16777215
 74
     2
 91
        2
 64
     7
 65
   257
 75
     2
175
     1
 42
40.0
 92
        0
 66
   257
 43
1.0
 76
     1
 77
     6
 78
     2
 67
     7
 79
     3
170
     0
171
     0
290
     0
174
     0
 93
        1
 44
0.0
173
     0
291
     0
 45
0.0
  0
VISUALSTYLE
  5
30
102
{ACAD_REACTORS
330
2A
102
}
102
{ACAD_XDICTIONARY
360
558
102
}
330
2A
100
AcDbVisualStyle
  2
3dWireframe
 70
     5
 71
     0
 72
     2
 73
     0
 90
        0
 40
-0.6
 41
-30.0
 62
     5
 63
     7
421
 16777215
 74
     1
 91
        4
 64
     7
 65
   257
 75
     1
175
     1
 42
1.0
 92
        0
 66
   257
 43
1.0
 76
     1
 77
     6
 78
     2
 67
     7
 79
     5
170
     0
171
     0
290
     0
174
     0
 93
        1
 44
0.0
173
     0
291
     0
 45
0.0
  0
VISUALSTYLE
  5
32
102
{ACAD_REACTORS
330
2A
102
}
102
{ACAD_XDICTIONARY
360
55C
102
}
330
2A
100
AcDbVisualStyle
  2
Basic
 70
     7
 71
     1
 72
     0
 73
     1
 90
        0
 40
-0.6
 41
-30.0
 62
     5
 63
     7
421
 16777215
 74
     0
 91
        4
 64
     7
 65
   257
 75
     1
175
     1
 42
1.0
 92
        8
 66
     7
 43
1.0
 76
     1
 77
     6
 78
     2
 67
     7
 79
     5
170
     0
171
     0
290
     0
174
     0
 93
        1
 44
0.0
173
     0
291
     1
 45
0.0
  0
VISUALSTYLE
  5
36
102
{ACAD_REACTORS
330
2A
102
}
102
{ACAD_XDICTIONARY
360
564
102
}
330
2A
100
AcDbVisualStyle
  2
Brighten
 70
    12
 71
     2
 72
     2
 73
     0
 90
        0
 40
-0.6
 41
-30.0
 62
     5
 63
     7
421
 16777215
 74
     1
 91
        4
 64
     7
 65
   257
 75
     1
175
     1
 42
1.0
 92
        8
 66
     7
 43
1.0
 76
     1
 77
     6
 78
     2
 67
     7
 79
     5
170
     0
171
     0
290
     0
174
     0
 93
        1
 44
50.0
173
     0
291
     1
 45
0.0
  0
VISUALSTYLE
  5
3A
102
{ACAD_REACTORS
330
2A
102
}
102
{ACAD_XDICTIONARY
360
56C
102
}
330
2A
100
AcDbVisualStyle
  2
ColorChange
 70
    16
 71
     2
 72
     2
 73
     3
 90
        0
 40
-0.6
 41
-30.0
 62
     5
 63
     8
421
  8421504
 74
     1
 91
        4
 64
     7
 65
   257
 75
     1
175
     1
 42
1.0
 92
        8
 66
     8
424
  8421504
 43
1.0
 76
     1
 77
     6
 78
     2
 67
     7
 79
     5
170
     0
171
     0
290
     0
174
     0
 93
        1
 44
0.0
173
     0
291
     1
 45
0.0
  0
VISUALSTYLE
  5
34
102
{ACAD_REACTORS
330
2A
102
}
102
{ACAD_XDICTIONARY
360
560
102
}
330
2A
100
AcDbVisualStyle
  2
Conceptual
 70
     9
 71
     3
 72
     2
 73
     0
 90
        0
 40
-0.6
 41
-30.0
 62
     5
 63
     7
421
 16777215
 74
     2
 91
        2
 64
     7
 65
   257
 75
     1
175
     1
 42
40.0
 92
        8
 66
     7
 43
1.0
 76
     1
 77
     6
 78
     2
 67
     7
 79
     3
170
     0
171
     0
290
     0
174
     0
 93
        1
 44
0.0
173
     0
291
     0
 45
0.0
  0
VISUALSTYLE
  5
35
102
{ACAD_REACTORS
330
2A
102
}
102
{ACAD_XDICTIONARY
360
562
102
}
330
2A
100
AcDbVisualStyle
  2
Dim
 70
    11
 71
     2
 72
     2
 73
     0
 90
        0
 40
-0.6
 41
-30.0
 62
     5
 63
     7
421
 16777215
 74
     1
 91
        4
 64
     7
 65
   257
 75
     1
175
     1
 42
1.0
 92
        8
 66
     7
 43
1.0
 76
     1
 77
     6
 78
     2
 67
     7
 79
     5
170
     0
171
     0
290
     0
174
     0
 93
        1
 44
-50.0
173
     0
291
     1
 45
0.0
  0
VISUALSTYLE
  5
39
102
{ACAD_REACTORS
330
2A
102
}
102
{ACAD_XDICTIONARY
360
56A
102
}
330
2A
100
AcDbVisualStyle
  2
Facepattern
 70
    15
 71
     2
 72
     2
 73
     0
 90
        0
 40
-0.6
 41
-30.0
 62
     5
 63
     7
421
 16777215
 74
     1
 91
        4
 64
     7
 65
   257
 75
     1
175
     1
 42
1.0
 92
        8
 66
     7
 43
1.0
 76
     1
 77
     6
 78
     2
 67
     7
 79
     5
170
     0
171
     0
290
     0
174
     0
 93
        1
 44
0.0
173
     0
291
     1
 45
0.0
  0
VISUALSTYLE
  5
2B
102
{ACAD_REACTORS
330
2A
102
}
102
{ACAD_XDICTIONARY
360
54E
102
}
330
2A
100
AcDbVisualStyle
  2
Flat
 70
     0
 71
     2
 72
     1
 73
     1
 90
        2
 40
-0.6
 41
30.0
 62
     5
 63
     7
421
 16777215
 74
     0
 91
        4
 64
     7
 65
   257
 75
     1
175
     1
 42
1.0
 92
        8
 66
     7
 43
1.0
 76
     1
 77
     6
 78
     2
 67
     7
 79
     5
170
     0
171
     0
290
     0
174
     0
 93
       13
 44
0.0
173
     0
291
     1
 45
0.0
  0
VISUALSTYLE
  5
2C
102
{ACAD_REACTORS
330
2A
102
}
102
{ACAD_XDICTIONARY
360
550
102
}
330
2A
100
AcDbVisualStyle
  2
FlatWithEdges
 70
     1
 71
     2
 72
     1
 73
     1
 90
        2
 40
-0.6
 41
30.0
 62
     5
 63
     7
421
 16777215
 74
     1
 91
        4
 64
     7
 65
   257
 75
     1
175
     1
 42
1.0
 92
        0
 66
   257
 43
1.0
 76
     1
 77
     6
 78
     2
 67
     7
 79
     5
170
     0
171
     0
290
     0
174
     0
 93
       13
 44
0.0
173
     0
291
     1
 45
0.0
  0
VISUALSTYLE
  5
2D
102
{ACAD_REACTORS
330
2A
102
}
102
{ACAD_XDICTIONARY
360
552
102
}
330
2A
100
AcDbVisualStyle
  2
Gouraud
 70
     2
 71
     2
 72
     2
 73
     1
 90
        2
 40
-0.6
 41
30.0
 62
     5
 63
     7
421
 16777215
 74
     0
 91
        4
 64
     7
 65
   257
 75
     1
175
     1
 42
1.0
 92
        0
 66
     7
 43
1.0
 76
     1
 77
     6
 78
     2
 67
     7
 79
     5
170
     0
171
     0
290
     0
174
     0
 93
       13
 44
0.0
173
     0
291
     1
 45
0.0
  0
VISUALSTYLE
  5
2E
102
{ACAD_REACTORS
330
2A
102
}
102
{ACAD_XDICTIONARY
360
554
102
}
330
2A
100
AcDbVisualStyle
  2
GouraudWithEdges
 70
     3
 71
     2
 72
     2
 73
     1
 90
        2
 40
-0.6
 41
30.0
 62
     5
 63
     7
421
 16777215
 74
     1
 91
        4
 64
     7
 65
   257
 75
     1
175
     1
 42
1.0
 92
        0
 66
   257
 43
1.0
 76
     1
 77
     6
 78
     2
 67
     7
 79
     5
170
     0
171
     0
290
     0
174
     0
 93
       13
 44
0.0
173
     0
291
     1
 45
0.0
  0
VISUALSTYLE
  5
38
102
{ACAD_REACTORS
330
2A
102
}
102
{ACAD_XDICTIONARY
360
568
102
}
330
2A
100
AcDbVisualStyle
  2
Linepattern
 70
    14
 71
     2
 72
     2
 73
     0
 90
        0
 40
-0.6
 41
-30.0
 62
     5
 63
     7
421
 16777215
 74
     1
 91
        4
 64
     7
 65
   257
 75
     7
175
     7
 42
1.0
 92
        8
 66
     7
 43
1.0
 76
     1
 77
     6
 78
     2
 67
     7
 79
     5
170
     0
171
     0
290
     0
174
     0
 93
        1
 44
0.0
173
     0
291
     1
 45
0.0
  0
VISUALSTYLE
  5
33
102
{ACAD_REACTORS
330
2A
102
}
102
{ACAD_XDICTIONARY
360
55E
102
}
330
2A
100
AcDbVisualStyle
  2
Realistic
 70
     8
 71
     2
 72
     2
 73
     0
 90
        0
 40
-0.6
 41
-30.0
 62
     5
 63
     7
421
 16777215
 74
     1
 91
        0
 64
     7
 65
   257
 75
     1
175
     1
 42
1.0
 92
        8
 66
     8
424
  7895160
 43
1.0
 76
     1
 77
     6
 78
     2
 67
     7
 79
     5
170
     0
171
     0
290
     0
174
     0
 93
       13
 44
0.0
173
     0
291
     0
 45
0.0
  0
VISUALSTYLE
  5
37
102
{ACAD_REACTORS
330
2A
102
}
102
{ACAD_XDICTIONARY
360
566
102
}
330
2A
100
AcDbVisualStyle
  2
Thicken
 70
    13
 71
     2
 72
     2
 73
     0
 90
        0
 40
-0.6
 41
-30.0
 62
     5
 63
     7
421
 16777215
 74
     1
 91
        4
 64
     7
 65
   257
 75
     1
175
     1
 42
1.0
 92
       12
 66
     7
 43
1.0
 76
     1
 77
     6
 78
     2
 67
     7
 79
     5
170
     0
171
     0
290
     0
174
     0
 93
        1
 44
0.0
173
     0
291
     1
 45
0.0
  0
DICTIONARYVAR
  5
54D
102
{ACAD_REACTORS
330
54C
102
}
330
54C
100
DictionaryVariables
280
     0
  1
1:1
  0
DICTIONARY
  5
4A0
330
49F
100
AcDbDictionary
280
     1
281
     1
  3
TC_EXTENDED_DATA
360
4A1
  0
DICTIONARY
  5
522
330
521
100
AcDbDictionary
280
     1
281
     1
  3
TC_EXTENDED_DATA
360
523
  0
DICTIONARY
  5
56E
330
17A
100
AcDbDictionary
280
     1
281
     1
  3
ACAD_ROUNDTRIP_2008_TABLESTYLE_CELLSTYLEMAP
360
56F
  0
DICTIONARY
  5
556
330
2F
100
AcDbDictionary
280
     1
281
     1
  3
ACAD_XREC_ROUNDTRIP
360
557
  0
DICTIONARY
  5
55A
330
31
100
AcDbDictionary
280
     1
281
     1
  3
ACAD_XREC_ROUNDTRIP
360
55B
  0
DICTIONARY
  5
558
330
30
100
AcDbDictionary
280
     1
281
     1
  3
ACAD_XREC_ROUNDTRIP
360
559
  0
DICTIONARY
  5
55C
330
32
100
AcDbDictionary
280
     1
281
     1
  3
ACAD_XREC_ROUNDTRIP
360
55D
  0
DICTIONARY
  5
564
330
36
100
AcDbDictionary
280
     1
281
     1
  3
ACAD_XREC_ROUNDTRIP
360
565
  0
DICTIONARY
  5
56C
330
3A
100
AcDbDictionary
280
     1
281
     1
  3
ACAD_XREC_ROUNDTRIP
360
56D
  0
DICTIONARY
  5
560
330
34
100
AcDbDictionary
280
     1
281
     1
  3
ACAD_XREC_ROUNDTRIP
360
561
  0
DICTIONARY
  5
562
330
35
100
AcDbDictionary
280
     1
281
     1
  3
ACAD_XREC_ROUNDTRIP
360
563
  0
DICTIONARY
  5
56A
330
39
100
AcDbDictionary
280
     1
281
     1
  3
ACAD_XREC_ROUNDTRIP
360
56B
  0
DICTIONARY
  5
54E
330
2B
100
AcDbDictionary
280
     1
281
     1
  3
ACAD_XREC_ROUNDTRIP
360
54F
  0
DICTIONARY
  5
550
330
2C
100
AcDbDictionary
280
     1
281
     1
  3
ACAD_XREC_ROUNDTRIP
360
551
  0
DICTIONARY
  5
552
330
2D
100
AcDbDictionary
280
     1
281
     1
  3
ACAD_XREC_ROUNDTRIP
360
553
  0
DICTIONARY
  5
554
330
2E
100
AcDbDictionary
280
     1
281
     1
  3
ACAD_XREC_ROUNDTRIP
360
555
  0
DICTIONARY
  5
568
330
38
100
AcDbDictionary
280
     1
281
     1
  3
ACAD_XREC_ROUNDTRIP
360
569
  0
DICTIONARY
  5
55E
330
33
100
AcDbDictionary
280
     1
281
     1
  3
ACAD_XREC_ROUNDTRIP
360
55F
  0
DICTIONARY
  5
566
330
37
100
AcDbDictionary
280
     1
281
     1
  3
ACAD_XREC_ROUNDTRIP
360
567
  0
TCOPTIONALDATA
  5
4A1
102
{ACAD_REACTORS
330
4A0
102
}
330
4A0
100
TcOptionalData
 70
     2
 70
     2
 10
1348.08545074277
 20
4642.899139252238
 30
0.0
  0
TCOPTIONALDATA
  5
523
102
{ACAD_REACTORS
330
522
102
}
330
522
100
TcOptionalData
 70
     2
 70
     2
 10
3205.685723727931
 20
3902.499701623194
 30
0.0
  0
CELLSTYLEMAP
  5
56F
102
{ACAD_REACTORS
330
56E
102
}
330
56E
100
AcDbCellStyleMap
 90
        3
300
CELLSTYLE
  1
TABLEFORMAT_BEGIN
 90
        5
170
     1
 91
        0
 92
        0
 62
   257
 93
        1
300
CONTENTFORMAT
  1
CONTENTFORMAT_BEGIN
 90
        0
 91
        0
 92
        4
 93
        0
300

 40
0.0
140
1.0
 94
        5
 62
     0
340
11
144
0.1500000059604645
309
CONTENTFORMAT_END
171
     0
 94
        6
 95
        1
302
GRIDFORMAT
  1
GRIDFORMAT_BEGIN
 90
        0
 91
        1
 62
     0
 92
       -2
340
0
 93
        0
 40
0.045
309
GRIDFORMAT_END
 95
        2
302
GRIDFORMAT
  1
GRIDFORMAT_BEGIN
 90
        0
 91
        1
 62
     0
 92
       -2
340
0
 93
        0
 40
0.045
309
GRIDFORMAT_END
 95
        4
302
GRIDFORMAT
  1
GRIDFORMAT_BEGIN
 90
        0
 91
        1
 62
     0
 92
       -2
340
0
 93
        0
 40
0.045
309
GRIDFORMAT_END
 95
        8
302
GRIDFORMAT
  1
GRIDFORMAT_BEGIN
 90
        0
 91
        1
 62
     0
 92
       -2
340
0
 93
        0
 40
0.045
309
GRIDFORMAT_END
 95
       16
302
GRIDFORMAT
  1
GRIDFORMAT_BEGIN
 90
        0
 91
        1
 62
     0
 92
       -2
340
0
 93
        0
 40
0.045
309
GRIDFORMAT_END
 95
       32
302
GRIDFORMAT
  1
GRIDFORMAT_BEGIN
 90
        0
 91
        1
 62
     0
 92
       -2
340
0
 93
        0
 40
0.045
309
GRIDFORMAT_END
309
TABLEFORMAT_END
  1
CELLSTYLE_BEGIN
 90
        1
 91
        1
300
_TITLE
309
CELLSTYLE_END
300
CELLSTYLE
  1
TABLEFORMAT_BEGIN
 90
        5
170
     1
 91
        0
 92
        0
 62
   257
 93
        1
300
CONTENTFORMAT
  1
CONTENTFORMAT_BEGIN
 90
        0
 91
        0
 92
        4
 93
        0
300

 40
0.0
140
1.0
 94
        5
 62
     0
340
11
144
0.1500000059604645
309
CONTENTFORMAT_END
171
     0
 94
        6
 95
        1
302
GRIDFORMAT
  1
GRIDFORMAT_BEGIN
 90
        0
 91
        1
 62
     0
 92
       -2
340
0
 93
        0
 40
0.045
309
GRIDFORMAT_END
 95
        2
302
GRIDFORMAT
  1
GRIDFORMAT_BEGIN
 90
        0
 91
        1
 62
     0
 92
       -2
340
0
 93
        0
 40
0.045
309
GRIDFORMAT_END
 95
        4
302
GRIDFORMAT
  1
GRIDFORMAT_BEGIN
 90
        0
 91
        1
 62
     0
 92
       -2
340
0
 93
        0
 40
0.045
309
GRIDFORMAT_END
 95
        8
302
GRIDFORMAT
  1
GRIDFORMAT_BEGIN
 90
        0
 91
        1
 62
     0
 92
       -2
340
0
 93
        0
 40
0.045
309
GRIDFORMAT_END
 95
       16
302
GRIDFORMAT
  1
GRIDFORMAT_BEGIN
 90
        0
 91
        1
 62
     0
 92
       -2
340
0
 93
        0
 40
0.045
309
GRIDFORMAT_END
 95
       32
302
GRIDFORMAT
  1
GRIDFORMAT_BEGIN
 90
        0
 91
        1
 62
     0
 92
       -2
340
0
 93
        0
 40
0.045
309
GRIDFORMAT_END
309
TABLEFORMAT_END
  1
CELLSTYLE_BEGIN
 90
        2
 91
        1
300
_HEADER
309
CELLSTYLE_END
300
CELLSTYLE
  1
TABLEFORMAT_BEGIN
 90
        5
170
     1
 91
        0
 92
        0
 62
   257
 93
        1
300
CONTENTFORMAT
  1
CONTENTFORMAT_BEGIN
 90
        0
 91
        0
 92
        4
 93
        0
300

 40
0.0
140
1.0
 94
        5
 62
     0
340
11
144
0.1500000059604645
309
CONTENTFORMAT_END
171
     0
 94
        6
 95
        1
302
GRIDFORMAT
  1
GRIDFORMAT_BEGIN
 90
        0
 91
        1
 62
     0
 92
       -2
340
0
 93
        0
 40
0.045
309
GRIDFORMAT_END
 95
        2
302
GRIDFORMAT
  1
GRIDFORMAT_BEGIN
 90
        0
 91
        1
 62
     0
 92
       -2
340
0
 93
        0
 40
0.045
309
GRIDFORMAT_END
 95
        4
302
GRIDFORMAT
  1
GRIDFORMAT_BEGIN
 90
        0
 91
        1
 62
     0
 92
       -2
340
0
 93
        0
 40
0.045
309
GRIDFORMAT_END
 95
        8
302
GRIDFORMAT
  1
GRIDFORMAT_BEGIN
 90
        0
 91
        1
 62
     0
 92
       -2
340
0
 93
        0
 40
0.045
309
GRIDFORMAT_END
 95
       16
302
GRIDFORMAT
  1
GRIDFORMAT_BEGIN
 90
        0
 91
        1
 62
     0
 92
       -2
340
0
 93
        0
 40
0.045
309
GRIDFORMAT_END
 95
       32
302
GRIDFORMAT
  1
GRIDFORMAT_BEGIN
 90
        0
 91
        1
 62
     0
 92
       -2
340
0
 93
        0
 40
0.045
309
GRIDFORMAT_END
309
TABLEFORMAT_END
  1
CELLSTYLE_BEGIN
 90
        3
 91
        2
300
_DATA
309
CELLSTYLE_END
  0
XRECORD
  5
557
102
{ACAD_REACTORS
330
556
102
}
330
556
100
AcDbXrecord
280
     1
102
RTVSPropertyOp0
 70
     1
102
RTVSPropertyOp1
 70
     1
102
RTVSPropertyOp2
 70
     1
102
RTVSPropertyOp3
 70
     1
102
RTVSPropertyOp4
 70
     1
102
RTVSPropertyOp5
 70
     1
102
RTVSPropertyOp6
 70
     1
102
RTVSPropertyOp7
 70
     1
102
RTVSPropertyOp8
 70
     1
102
RTVSPropertyOp9
 70
     1
102
RTVSPropertyOp10
 70
     1
102
RTVSPropertyOp11
 70
     1
102
RTVSPropertyOp12
 70
     1
102
RTVSPropertyOp13
 70
     1
102
RTVSPropertyOp14
 70
     1
102
RTVSPropertyOp15
 70
     1
102
RTVSPropertyOp16
 70
     1
102
RTVSPropertyOp17
 70
     1
102
RTVSPropertyOp18
 70
     1
102
RTVSPropertyOp19
 70
     1
102
RTVSPropertyOp20
 70
     1
102
RTVSPropertyOp21
 70
     1
102
RTVSPropertyOp22
 70
     1
102
RTVSPropertyOp23
 70
     1
102
RTVSPropertyOp24
 70
     1
102
RTVSPropertyOp25
 70
     1
102
RTVSPropertyOp26
 70
     1
102
RTVSPropertyOp27
 70
     1
  0
XRECORD
  5
55B
102
{ACAD_REACTORS
330
55A
102
}
330
55A
100
AcDbXrecord
280
     1
102
RTVSPropertyOp0
 70
     1
102
RTVSPropertyOp1
 70
     1
102
RTVSPropertyOp2
 70
     1
102
RTVSPropertyOp3
 70
     1
102
RTVSPropertyOp4
 70
     1
102
RTVSPropertyOp5
 70
     1
102
RTVSPropertyOp6
 70
     1
102
RTVSPropertyOp7
 70
     1
102
RTVSPropertyOp8
 70
     1
102
RTVSPropertyOp9
 70
     1
102
RTVSPropertyOp10
 70
     1
102
RTVSPropertyOp11
 70
     1
102
RTVSPropertyOp12
 70
     1
102
RTVSPropertyOp13
 70
     1
102
RTVSPropertyOp14
 70
     1
102
RTVSPropertyOp15
 70
     1
102
RTVSPropertyOp16
 70
     1
102
RTVSPropertyOp17
 70
     1
102
RTVSPropertyOp18
 70
     1
102
RTVSPropertyOp19
 70
     1
102
RTVSPropertyOp20
 70
     1
102
RTVSPropertyOp21
 70
     1
102
RTVSPropertyOp22
 70
     1
102
RTVSPropertyOp23
 70
     1
102
RTVSPropertyOp24
 70
     1
102
RTVSPropertyOp25
 70
     1
102
RTVSPropertyOp26
 70
     1
102
RTVSPropertyOp27
 70
     1
  0
XRECORD
  5
559
102
{ACAD_REACTORS
330
558
102
}
330
558
100
AcDbXrecord
280
     1
102
RTVSPropertyOp0
 70
     1
102
RTVSPropertyOp1
 70
     1
102
RTVSPropertyOp2
 70
     1
102
RTVSPropertyOp3
 70
     1
102
RTVSPropertyOp4
 70
     1
102
RTVSPropertyOp5
 70
     1
102
RTVSPropertyOp6
 70
     1
102
RTVSPropertyOp7
 70
     1
102
RTVSPropertyOp8
 70
     1
102
RTVSPropertyOp9
 70
     1
102
RTVSPropertyOp10
 70
     1
102
RTVSPropertyOp11
 70
     1
102
RTVSPropertyOp12
 70
     1
102
RTVSPropertyOp13
 70
     1
102
RTVSPropertyOp14
 70
     1
102
RTVSPropertyOp15
 70
     1
102
RTVSPropertyOp16
 70
     1
102
RTVSPropertyOp17
 70
     1
102
RTVSPropertyOp18
 70
     1
102
RTVSPropertyOp19
 70
     1
102
RTVSPropertyOp20
 70
     1
102
RTVSPropertyOp21
 70
     1
102
RTVSPropertyOp22
 70
     1
102
RTVSPropertyOp23
 70
     1
102
RTVSPropertyOp24
 70
     1
102
RTVSPropertyOp25
 70
     1
102
RTVSPropertyOp26
 70
     1
102
RTVSPropertyOp27
 70
     1
  0
XRECORD
  5
55D
102
{ACAD_REACTORS
330
55C
102
}
330
55C
100
AcDbXrecord
280
     1
102
RTVSPropertyOp0
 70
     1
102
RTVSPropertyOp1
 70
     1
102
RTVSPropertyOp2
 70
     1
102
RTVSPropertyOp3
 70
     1
102
RTVSPropertyOp4
 70
     1
102
RTVSPropertyOp5
 70
     1
102
RTVSPropertyOp6
 70
     1
102
RTVSPropertyOp7
 70
     1
102
RTVSPropertyOp8
 70
     1
102
RTVSPropertyOp9
 70
     1
102
RTVSPropertyOp10
 70
     1
102
RTVSPropertyOp11
 70
     1
102
RTVSPropertyOp12
 70
     1
102
RTVSPropertyOp13
 70
     1
102
RTVSPropertyOp14
 70
     1
102
RTVSPropertyOp15
 70
     1
102
RTVSPropertyOp16
 70
     1
102
RTVSPropertyOp17
 70
     1
102
RTVSPropertyOp18
 70
     1
102
RTVSPropertyOp19
 70
     1
102
RTVSPropertyOp20
 70
     1
102
RTVSPropertyOp21
 70
     1
102
RTVSPropertyOp22
 70
     1
102
RTVSPropertyOp23
 70
     1
102
RTVSPropertyOp24
 70
     1
102
RTVSPropertyOp25
 70
     1
102
RTVSPropertyOp26
 70
     1
102
RTVSPropertyOp27
 70
     1
  0
XRECORD
  5
565
102
{ACAD_REACTORS
330
564
102
}
330
564
100
AcDbXrecord
280
     1
102
RTVSPropertyOp0
 70
     1
102
RTVSPropertyOp1
 70
     1
102
RTVSPropertyOp2
 70
     1
102
RTVSPropertyOp3
 70
     1
102
RTVSPropertyOp4
 70
     1
102
RTVSPropertyOp5
 70
     1
102
RTVSPropertyOp6
 70
     1
102
RTVSPropertyOp7
 70
     1
102
RTVSPropertyOp8
 70
     1
102
RTVSPropertyOp9
 70
     1
102
RTVSPropertyOp10
 70
     1
102
RTVSPropertyOp11
 70
     1
102
RTVSPropertyOp12
 70
     1
102
RTVSPropertyOp13
 70
     1
102
RTVSPropertyOp14
 70
     1
102
RTVSPropertyOp15
 70
     1
102
RTVSPropertyOp16
 70
     1
102
RTVSPropertyOp17
 70
     1
102
RTVSPropertyOp18
 70
     1
102
RTVSPropertyOp19
 70
     1
102
RTVSPropertyOp20
 70
     1
102
RTVSPropertyOp21
 70
     1
102
RTVSPropertyOp22
 70
     1
102
RTVSPropertyOp23
 70
     1
102
RTVSPropertyOp24
 70
     1
102
RTVSPropertyOp25
 70
     1
102
RTVSPropertyOp26
 70
     1
102
RTVSPropertyOp27
 70
     1
  0
XRECORD
  5
56D
102
{ACAD_REACTORS
330
56C
102
}
330
56C
100
AcDbXrecord
280
     1
102
RTVSPropertyOp0
 70
     1
102
RTVSPropertyOp1
 70
     1
102
RTVSPropertyOp2
 70
     1
102
RTVSPropertyOp3
 70
     1
102
RTVSPropertyOp4
 70
     1
102
RTVSPropertyOp5
 70
     1
102
RTVSPropertyOp6
 70
     1
102
RTVSPropertyOp7
 70
     1
102
RTVSPropertyOp8
 70
     1
102
RTVSPropertyOp9
 70
     1
102
RTVSPropertyOp10
 70
     1
102
RTVSPropertyOp11
 70
     1
102
RTVSPropertyOp12
 70
     1
102
RTVSPropertyOp13
 70
     1
102
RTVSPropertyOp14
 70
     1
102
RTVSPropertyOp15
 70
     1
102
RTVSPropertyOp16
 70
     1
102
RTVSPropertyOp17
 70
     1
102
RTVSPropertyOp18
 70
     1
102
RTVSPropertyOp19
 70
     1
102
RTVSPropertyOp20
 70
     1
102
RTVSPropertyOp21
 70
     1
102
RTVSPropertyOp22
 70
     1
102
RTVSPropertyOp23
 70
     1
102
RTVSPropertyOp24
 70
     1
102
RTVSPropertyOp25
 70
     1
102
RTVSPropertyOp26
 70
     1
102
RTVSPropertyOp27
 70
     1
  0
XRECORD
  5
561
102
{ACAD_REACTORS
330
560
102
}
330
560
100
AcDbXrecord
280
     1
102
RTVSPropertyOp0
 70
     1
102
RTVSPropertyOp1
 70
     1
102
RTVSPropertyOp2
 70
     1
102
RTVSPropertyOp3
 70
     1
102
RTVSPropertyOp4
 70
     1
102
RTVSPropertyOp5
 70
     1
102
RTVSPropertyOp6
 70
     1
102
RTVSPropertyOp7
 70
     1
102
RTVSPropertyOp8
 70
     1
102
RTVSPropertyOp9
 70
     1
102
RTVSPropertyOp10
 70
     1
102
RTVSPropertyOp11
 70
     1
102
RTVSPropertyOp12
 70
     1
102
RTVSPropertyOp13
 70
     1
102
RTVSPropertyOp14
 70
     1
102
RTVSPropertyOp15
 70
     1
102
RTVSPropertyOp16
 70
     1
102
RTVSPropertyOp17
 70
     1
102
RTVSPropertyOp18
 70
     1
102
RTVSPropertyOp19
 70
     1
102
RTVSPropertyOp20
 70
     1
102
RTVSPropertyOp21
 70
     1
102
RTVSPropertyOp22
 70
     1
102
RTVSPropertyOp23
 70
     1
102
RTVSPropertyOp24
 70
     1
102
RTVSPropertyOp25
 70
     1
102
RTVSPropertyOp26
 70
     1
102
RTVSPropertyOp27
 70
     1
  0
XRECORD
  5
563
102
{ACAD_REACTORS
330
562
102
}
330
562
100
AcDbXrecord
280
     1
102
RTVSPropertyOp0
 70
     1
102
RTVSPropertyOp1
 70
     1
102
RTVSPropertyOp2
 70
     1
102
RTVSPropertyOp3
 70
     1
102
RTVSPropertyOp4
 70
     1
102
RTVSPropertyOp5
 70
     1
102
RTVSPropertyOp6
 70
     1
102
RTVSPropertyOp7
 70
     1
102
RTVSPropertyOp8
 70
     1
102
RTVSPropertyOp9
 70
     1
102
RTVSPropertyOp10
 70
     1
102
RTVSPropertyOp11
 70
     1
102
RTVSPropertyOp12
 70
     1
102
RTVSPropertyOp13
 70
     1
102
RTVSPropertyOp14
 70
     1
102
RTVSPropertyOp15
 70
     1
102
RTVSPropertyOp16
 70
     1
102
RTVSPropertyOp17
 70
     1
102
RTVSPropertyOp18
 70
     1
102
RTVSPropertyOp19
 70
     1
102
RTVSPropertyOp20
 70
     1
102
RTVSPropertyOp21
 70
     1
102
RTVSPropertyOp22
 70
     1
102
RTVSPropertyOp23
 70
     1
102
RTVSPropertyOp24
 70
     1
102
RTVSPropertyOp25
 70
     1
102
RTVSPropertyOp26
 70
     1
102
RTVSPropertyOp27
 70
     1
  0
XRECORD
  5
56B
102
{ACAD_REACTORS
330
56A
102
}
330
56A
100
AcDbXrecord
280
     1
102
RTVSPropertyOp0
 70
     1
102
RTVSPropertyOp1
 70
     1
102
RTVSPropertyOp2
 70
     1
102
RTVSPropertyOp3
 70
     1
102
RTVSPropertyOp4
 70
     1
102
RTVSPropertyOp5
 70
     1
102
RTVSPropertyOp6
 70
     1
102
RTVSPropertyOp7
 70
     1
102
RTVSPropertyOp8
 70
     1
102
RTVSPropertyOp9
 70
     1
102
RTVSPropertyOp10
 70
     1
102
RTVSPropertyOp11
 70
     1
102
RTVSPropertyOp12
 70
     1
102
RTVSPropertyOp13
 70
     1
102
RTVSPropertyOp14
 70
     1
102
RTVSPropertyOp15
 70
     1
102
RTVSPropertyOp16
 70
     1
102
RTVSPropertyOp17
 70
     1
102
RTVSPropertyOp18
 70
     1
102
RTVSPropertyOp19
 70
     1
102
RTVSPropertyOp20
 70
     1
102
RTVSPropertyOp21
 70
     1
102
RTVSPropertyOp22
 70
     1
102
RTVSPropertyOp23
 70
     1
102
RTVSPropertyOp24
 70
     1
102
RTVSPropertyOp25
 70
     1
102
RTVSPropertyOp26
 70
     1
102
RTVSPropertyOp27
 70
     1
  0
XRECORD
  5
54F
102
{ACAD_REACTORS
330
54E
102
}
330
54E
100
AcDbXrecord
280
     1
102
RTVSPropertyOp0
 70
     1
102
RTVSPropertyOp1
 70
     1
102
RTVSPropertyOp2
 70
     1
102
RTVSPropertyOp3
 70
     1
102
RTVSPropertyOp4
 70
     1
102
RTVSPropertyOp5
 70
     1
102
RTVSPropertyOp6
 70
     1
102
RTVSPropertyOp7
 70
     1
102
RTVSPropertyOp8
 70
     1
102
RTVSPropertyOp9
 70
     1
102
RTVSPropertyOp10
 70
     1
102
RTVSPropertyOp11
 70
     1
102
RTVSPropertyOp12
 70
     1
102
RTVSPropertyOp13
 70
     1
102
RTVSPropertyOp14
 70
     1
102
RTVSPropertyOp15
 70
     1
102
RTVSPropertyOp16
 70
     1
102
RTVSPropertyOp17
 70
     1
102
RTVSPropertyOp18
 70
     1
102
RTVSPropertyOp19
 70
     1
102
RTVSPropertyOp20
 70
     1
102
RTVSPropertyOp21
 70
     1
102
RTVSPropertyOp22
 70
     1
102
RTVSPropertyOp23
 70
     1
102
RTVSPropertyOp24
 70
     1
102
RTVSPropertyOp25
 70
     1
102
RTVSPropertyOp26
 70
     1
102
RTVSPropertyOp27
 70
     1
  0
XRECORD
  5
551
102
{ACAD_REACTORS
330
550
102
}
330
550
100
AcDbXrecord
280
     1
102
RTVSPropertyOp0
 70
     1
102
RTVSPropertyOp1
 70
     1
102
RTVSPropertyOp2
 70
     1
102
RTVSPropertyOp3
 70
     1
102
RTVSPropertyOp4
 70
     1
102
RTVSPropertyOp5
 70
     1
102
RTVSPropertyOp6
 70
     1
102
RTVSPropertyOp7
 70
     1
102
RTVSPropertyOp8
 70
     1
102
RTVSPropertyOp9
 70
     1
102
RTVSPropertyOp10
 70
     1
102
RTVSPropertyOp11
 70
     1
102
RTVSPropertyOp12
 70
     1
102
RTVSPropertyOp13
 70
     1
102
RTVSPropertyOp14
 70
     1
102
RTVSPropertyOp15
 70
     1
102
RTVSPropertyOp16
 70
     1
102
RTVSPropertyOp17
 70
     1
102
RTVSPropertyOp18
 70
     1
102
RTVSPropertyOp19
 70
     1
102
RTVSPropertyOp20
 70
     1
102
RTVSPropertyOp21
 70
     1
102
RTVSPropertyOp22
 70
     1
102
RTVSPropertyOp23
 70
     1
102
RTVSPropertyOp24
 70
     1
102
RTVSPropertyOp25
 70
     1
102
RTVSPropertyOp26
 70
     1
102
RTVSPropertyOp27
 70
     1
  0
XRECORD
  5
553
102
{ACAD_REACTORS
330
552
102
}
330
552
100
AcDbXrecord
280
     1
102
RTVSPropertyOp0
 70
     1
102
RTVSPropertyOp1
 70
     1
102
RTVSPropertyOp2
 70
     1
102
RTVSPropertyOp3
 70
     1
102
RTVSPropertyOp4
 70
     1
102
RTVSPropertyOp5
 70
     1
102
RTVSPropertyOp6
 70
     1
102
RTVSPropertyOp7
 70
     1
102
RTVSPropertyOp8
 70
     1
102
RTVSPropertyOp9
 70
     1
102
RTVSPropertyOp10
 70
     1
102
RTVSPropertyOp11
 70
     1
102
RTVSPropertyOp12
 70
     1
102
RTVSPropertyOp13
 70
     1
102
RTVSPropertyOp14
 70
     1
102
RTVSPropertyOp15
 70
     1
102
RTVSPropertyOp16
 70
     1
102
RTVSPropertyOp17
 70
     1
102
RTVSPropertyOp18
 70
     1
102
RTVSPropertyOp19
 70
     1
102
RTVSPropertyOp20
 70
     1
102
RTVSPropertyOp21
 70
     1
102
RTVSPropertyOp22
 70
     1
102
RTVSPropertyOp23
 70
     1
102
RTVSPropertyOp24
 70
     1
102
RTVSPropertyOp25
 70
     1
102
RTVSPropertyOp26
 70
     1
102
RTVSPropertyOp27
 70
     1
  0
XRECORD
  5
555
102
{ACAD_REACTORS
330
554
102
}
330
554
100
AcDbXrecord
280
     1
102
RTVSPropertyOp0
 70
     1
102
RTVSPropertyOp1
 70
     1
102
RTVSPropertyOp2
 70
     1
102
RTVSPropertyOp3
 70
     1
102
RTVSPropertyOp4
 70
     1
102
RTVSPropertyOp5
 70
     1
102
RTVSPropertyOp6
 70
     1
102
RTVSPropertyOp7
 70
     1
102
RTVSPropertyOp8
 70
     1
102
RTVSPropertyOp9
 70
     1
102
RTVSPropertyOp10
 70
     1
102
RTVSPropertyOp11
 70
     1
102
RTVSPropertyOp12
 70
     1
102
RTVSPropertyOp13
 70
     1
102
RTVSPropertyOp14
 70
     1
102
RTVSPropertyOp15
 70
     1
102
RTVSPropertyOp16
 70
     1
102
RTVSPropertyOp17
 70
     1
102
RTVSPropertyOp18
 70
     1
102
RTVSPropertyOp19
 70
     1
102
RTVSPropertyOp20
 70
     1
102
RTVSPropertyOp21
 70
     1
102
RTVSPropertyOp22
 70
     1
102
RTVSPropertyOp23
 70
     1
102
RTVSPropertyOp24
 70
     1
102
RTVSPropertyOp25
 70
     1
102
RTVSPropertyOp26
 70
     1
102
RTVSPropertyOp27
 70
     1
  0
XRECORD
  5
569
102
{ACAD_REACTORS
330
568
102
}
330
568
100
AcDbXrecord
280
     1
102
RTVSPropertyOp0
 70
     1
102
RTVSPropertyOp1
 70
     1
102
RTVSPropertyOp2
 70
     1
102
RTVSPropertyOp3
 70
     1
102
RTVSPropertyOp4
 70
     1
102
RTVSPropertyOp5
 70
     1
102
RTVSPropertyOp6
 70
     1
102
RTVSPropertyOp7
 70
     1
102
RTVSPropertyOp8
 70
     1
102
RTVSPropertyOp9
 70
     1
102
RTVSPropertyOp10
 70
     1
102
RTVSPropertyOp11
 70
     1
102
RTVSPropertyOp12
 70
     1
102
RTVSPropertyOp13
 70
     1
102
RTVSPropertyOp14
 70
     1
102
RTVSPropertyOp15
 70
     1
102
RTVSPropertyOp16
 70
     1
102
RTVSPropertyOp17
 70
     1
102
RTVSPropertyOp18
 70
     1
102
RTVSPropertyOp19
 70
     1
102
RTVSPropertyOp20
 70
     1
102
RTVSPropertyOp21
 70
     1
102
RTVSPropertyOp22
 70
     1
102
RTVSPropertyOp23
 70
     1
102
RTVSPropertyOp24
 70
     1
102
RTVSPropertyOp25
 70
     1
102
RTVSPropertyOp26
 70
     1
102
RTVSPropertyOp27
 70
     1
  0
XRECORD
  5
55F
102
{ACAD_REACTORS
330
55E
102
}
330
55E
100
AcDbXrecord
280
     1
102
RTVSPropertyOp0
 70
     1
102
RTVSPropertyOp1
 70
     1
102
RTVSPropertyOp2
 70
     1
102
RTVSPropertyOp3
 70
     1
102
RTVSPropertyOp4
 70
     1
102
RTVSPropertyOp5
 70
     1
102
RTVSPropertyOp6
 70
     1
102
RTVSPropertyOp7
 70
     1
102
RTVSPropertyOp8
 70
     1
102
RTVSPropertyOp9
 70
     1
102
RTVSPropertyOp10
 70
     1
102
RTVSPropertyOp11
 70
     1
102
RTVSPropertyOp12
 70
     1
102
RTVSPropertyOp13
 70
     1
102
RTVSPropertyOp14
 70
     1
102
RTVSPropertyOp15
 70
     1
102
RTVSPropertyOp16
 70
     1
102
RTVSPropertyOp17
 70
     1
102
RTVSPropertyOp18
 70
     1
102
RTVSPropertyOp19
 70
     1
102
RTVSPropertyOp20
 70
     1
102
RTVSPropertyOp21
 70
     1
102
RTVSPropertyOp22
 70
     1
102
RTVSPropertyOp23
 70
     1
102
RTVSPropertyOp24
 70
     1
102
RTVSPropertyOp25
 70
     1
102
RTVSPropertyOp26
 70
     1
102
RTVSPropertyOp27
 70
     1
  0
XRECORD
  5
567
102
{ACAD_REACTORS
330
566
102
}
330
566
100
AcDbXrecord
280
     1
102
RTVSPropertyOp0
 70
     1
102
RTVSPropertyOp1
 70
     1
102
RTVSPropertyOp2
 70
     1
102
RTVSPropertyOp3
 70
     1
102
RTVSPropertyOp4
 70
     1
102
RTVSPropertyOp5
 70
     1
102
RTVSPropertyOp6
 70
     1
102
RTVSPropertyOp7
 70
     1
102
RTVSPropertyOp8
 70
     1
102
RTVSPropertyOp9
 70
     1
102
RTVSPropertyOp10
 70
     1
102
RTVSPropertyOp11
 70
     1
102
RTVSPropertyOp12
 70
     1
102
RTVSPropertyOp13
 70
     1
102
RTVSPropertyOp14
 70
     1
102
RTVSPropertyOp15
 70
     1
102
RTVSPropertyOp16
 70
     1
102
RTVSPropertyOp17
 70
     1
102
RTVSPropertyOp18
 70
     1
102
RTVSPropertyOp19
 70
     1
102
RTVSPropertyOp20
 70
     1
102
RTVSPropertyOp21
 70
     1
102
RTVSPropertyOp22
 70
     1
102
RTVSPropertyOp23
 70
     1
102
RTVSPropertyOp24
 70
     1
102
RTVSPropertyOp25
 70
     1
102
RTVSPropertyOp26
 70
     1
102
RTVSPropertyOp27
 70
     1
  0
ENDSEC
  0
EOF
