  0
SECTION
  2
HEADER
  9
$ACADVER
  1
AC1021
  9
$ACADMAINTVER
 70
    25
  9
$DWGCODEPAGE
  3
ANSI_1252
  9
$INSBASE
 10
0.0
 20
0.0
 30
0.0
  9
$EXTMIN
 10
129.9593784405977
 20
3.493325464057762
 30
0.0
  9
$EXTMAX
 10
2993.813757111407
 20
2310.685531759765
 30
0.0
  9
$LIMMIN
 10
-447.6454020101295
 20
3379.514347626603
  9
$LIMMAX
 10
-439.1454020101295
 20
3390.514347626603
  9
$ORTHOMODE
 70
     0
  9
$REGENMODE
 70
     1
  9
$FILLMODE
 70
     1
  9
$QTEXTMODE
 70
     0
  9
$MIRRTEXT
 70
     0
  9
$LTSCALE
 40
1.0
  9
$ATTMODE
 70
     1
  9
$TEXTSIZE
 40
24.0
  9
$TRACEWID
 40
1.0
  9
$TEXTSTYLE
  7
Standard
  9
$CLAYER
  8
0
  9
$CELTYPE
  6
ByLayer
  9
$CECOLOR
 62
     7
  9
$CELTSCALE
 40
1.0
  9
$DISPSILH
 70
     0
  9
$DIMSCALE
 40
1.0
  9
$DIMASZ
 40
0.25
  9
$DIMEXO
 40
0.0625
  9
$DIMDLI
 40
0.375
  9
$DIMRND
 40
0.01
  9
$DIMDLE
 40
0.0
  9
$DIMEXE
 40
0.125
  9
$DIMTP
 40
0.0
  9
$DIMTM
 40
0.0
  9
$DIMTXT
 40
0.15
  9
$DIMCEN
 40
0.0
  9
$DIMTSZ
 40
0.0
  9
$DIMTOL
 70
     0
  9
$DIMLIM
 70
     0
  9
$DIMTIH
 70
     1
  9
$DIMTOH
 70
     0
  9
$DIMSE1
 70
     0
  9
$DIMSE2
 70
     0
  9
$DIMTAD
 70
     1
  9
$DIMZIN
 70
     1
  9
$DIMBLK
  1

  9
$DIMASO
 70
     1
  9
$DIMSHO
 70
     1
  9
$DIMPOST
  1
 "
  9
$DIMAPOST
  1
 "
  9
$DIMALT
 70
     0
  9
$DIMALTD
 70
     2
  9
$DIMALTF
 40
1.0
  9
$DIMLFAC
 40
1.0
  9
$DIMTOFL
 70
     1
  9
$DIMTVP
 40
0.0
  9
$DIMTIX
 70
     0
  9
$DIMSOXD
 70
     0
  9
$DIMSAH
 70
     0
  9
$DIMBLK1
  1

  9
$DIMBLK2
  1

  9
$DIMSTYLE
  2
Standard
  9
$DIMCLRD
 70
     0
  9
$DIMCLRE
 70
     0
  9
$DIMCLRT
 70
     0
  9
$DIMTFAC
 40
1.0
  9
$DIMGAP
 40
0.0625
  9
$DIMJUST
 70
     0
  9
$DIMSD1
 70
     0
  9
$DIMSD2
 70
     0
  9
$DIMTOLJ
 70
     1
  9
$DIMTZIN
 70
     0
  9
$DIMALTZ
 70
     0
  9
$DIMALTTZ
 70
     0
  9
$DIMUPT
 70
     0
  9
$DIMDEC
 70
     2
  9
$DIMTDEC
 70
     3
  9
$DIMALTU
 70
     2
  9
$DIMALTTD
 70
     2
  9
$DIMTXSTY
  7
Standard
  9
$DIMAUNIT
 70
     0
  9
$DIMADEC
 70
     2
  9
$DIMALTRND
 40
0.01
  9
$DIMAZIN
 70
     0
  9
$DIMDSEP
 70
     0
  9
$DIMATFIT
 70
     3
  9
$DIMFRAC
 70
     2
  9
$DIMLDRBLK
  1

  9
$DIMLUNIT
 70
     2
  9
$DIMLWD
 70
    -2
  9
$DIMLWE
 70
    -2
  9
$DIMTMOVE
 70
     0
  9
$DIMFXL
 40
1.0
  9
$DIMFXLON
 70
     0
  9
$DIMJOGANG
 40
0.7853981633974483
  9
$DIMTFILL
 70
     0
  9
$DIMTFILLCLR
 70
     7
  9
$DIMARCSYM
 70
     0
  9
$DIMLTYPE
  6
ByBlock
  9
$DIMLTEX1
  6
ByBlock
  9
$DIMLTEX2
  6
ByBlock
  9
$LUNITS
 70
     4
  9
$LUPREC
 70
     3
  9
$SKETCHINC
 40
1.0
  9
$FILLETRAD
 40
1.0
  9
$AUNITS
 70
     0
  9
$AUPREC
 70
     2
  9
$MENU
  1
.
  9
$ELEVATION
 40
0.0
  9
$PELEVATION
 40
0.0
  9
$THICKNESS
 40
0.0
  9
$LIMCHECK
 70
     0
  9
$CHAMFERA
 40
0.5
  9
$CHAMFERB
 40
0.5
  9
$CHAMFERC
 40
1.0
  9
$CHAMFERD
 40
0.0
  9
$SKPOLY
 70
     0
  9
$TDCREATE
 40
2459060.420708878
  9
$TDUCREATE
 40
2459060.712375544
  9
$TDUPDATE
 40
2459060.420708889
  9
$TDUUPDATE
 40
2459060.712375556
  9
$TDINDWG
 40
0.0
  9
$TDUSRTIMER
 40
0.0
  9
$USRTIMER
 70
     1
  9
$ANGBASE
 50
0.0
  9
$ANGDIR
 70
     0
  9
$PDMODE
 70
     0
  9
$PDSIZE
 40
0.0
  9
$PLINEWID
 40
0.0
  9
$SPLFRAME
 70
     0
  9
$SPLINETYPE
 70
     5
  9
$SPLINESEGS
 70
    20
  9
$HANDSEED
  5
49A
  9
$SURFTAB1
 70
     6
  9
$SURFTAB2
 70
     6
  9
$SURFTYPE
 70
     6
  9
$SURFU
 70
     6
  9
$SURFV
 70
     6
  9
$UCSBASE
  2

  9
$UCSNAME
  2

  9
$UCSORG
 10
0.0
 20
0.0
 30
0.0
  9
$UCSXDIR
 10
1.0
 20
0.0
 30
0.0
  9
$UCSYDIR
 10
0.0
 20
1.0
 30
0.0
  9
$UCSORTHOREF
  2

  9
$UCSORTHOVIEW
 70
     0
  9
$UCSORGTOP
 10
0.0
 20
0.0
 30
0.0
  9
$UCSORGBOTTOM
 10
0.0
 20
0.0
 30
0.0
  9
$UCSORGLEFT
 10
0.0
 20
0.0
 30
0.0
  9
$UCSORGRIGHT
 10
0.0
 20
0.0
 30
0.0
  9
$UCSORGFRONT
 10
0.0
 20
0.0
 30
0.0
  9
$UCSORGBACK
 10
0.0
 20
0.0
 30
0.0
  9
$PUCSBASE
  2

  9
$PUCSNAME
  2

  9
$PUCSORG
 10
0.0
 20
0.0
 30
0.0
  9
$PUCSXDIR
 10
1.0
 20
0.0
 30
0.0
  9
$PUCSYDIR
 10
0.0
 20
1.0
 30
0.0
  9
$PUCSORTHOREF
  2

  9
$PUCSORTHOVIEW
 70
     0
  9
$PUCSORGTOP
 10
0.0
 20
0.0
 30
0.0
  9
$PUCSORGBOTTOM
 10
0.0
 20
0.0
 30
0.0
  9
$PUCSORGLEFT
 10
0.0
 20
0.0
 30
0.0
  9
$PUCSORGRIGHT
 10
0.0
 20
0.0
 30
0.0
  9
$PUCSORGFRONT
 10
0.0
 20
0.0
 30
0.0
  9
$PUCSORGBACK
 10
0.0
 20
0.0
 30
0.0
  9
$USERI1
 70
     0
  9
$USERI2
 70
     0
  9
$USERI3
 70
     0
  9
$USERI4
 70
     0
  9
$USERI5
 70
     0
  9
$USERR1
 40
0.0
  9
$USERR2
 40
0.0
  9
$USERR3
 40
0.0
  9
$USERR4
 40
0.0
  9
$USERR5
 40
0.0
  9
$WORLDVIEW
 70
     1
  9
$SHADEDGE
 70
     3
  9
$SHADEDIF
 70
    70
  9
$TILEMODE
 70
     1
  9
$MAXACTVP
 70
    64
  9
$PINSBASE
 10
0.0
 20
0.0
 30
0.0
  9
$PLIMCHECK
 70
     0
  9
$PEXTMIN
 10
0.0
 20
0.0
 30
0.0
  9
$PEXTMAX
 10
11.0
 20
8.5
 30
0.0
  9
$PLIMMIN
 10
0.0
 20
0.0
  9
$PLIMMAX
 10
11.0
 20
8.5
  9
$UNITMODE
 70
     0
  9
$VISRETAIN
 70
     1
  9
$PLINEGEN
 70
     0
  9
$PSLTSCALE
 70
     1
  9
$TREEDEPTH
 70
  3020
  9
$CMLSTYLE
  2
Standard
  9
$CMLJUST
 70
     0
  9
$CMLSCALE
 40
1.0
  9
$PROXYGRAPHICS
 70
     1
  9
$MEASUREMENT
 70
     0
  9
$CELWEIGHT
370
    -1
  9
$ENDCAPS
280
     0
  9
$JOINSTYLE
280
     0
  9
$LWDISPLAY
290
     0
  9
$INSUNITS
 70
     1
  9
$HYPERLINKBASE
  1

  9
$STYLESHEET
  1

  9
$XEDIT
290
     1
  9
$CEPSNTYPE
380
     0
  9
$PSTYLEMODE
290
     1
  9
$FINGERPRINTGUID
  2
{78070562-74D6-4163-9612-1250B2925733}
  9
$VERSIONGUID
  2
{FAEB1C32-E019-11D5-929B-00C0DF256EC4}
  9
$EXTNAMES
290
     1
  9
$PSVPSCALE
 40
0.0
  9
$OLESTARTUP
290
     0
  9
$SORTENTS
280
   127
  9
$INDEXCTL
280
     0
  9
$HIDETEXT
280
     1
  9
$XCLIPFRAME
290
     0
  9
$HALOGAP
280
     0
  9
$OBSCOLOR
 70
   257
  9
$OBSLTYPE
280
     0
  9
$INTERSECTIONDISPLAY
280
     0
  9
$INTERSECTIONCOLOR
 70
   257
  9
$DIMASSOC
280
     2
  9
$PROJECTNAME
  1

  9
$CAMERADISPLAY
290
     0
  9
$LENSLENGTH
 40
50.0
  9
$CAMERAHEIGHT
 40
0.0
  9
$STEPSPERSEC
 40
2.0
  9
$STEPSIZE
 40
6.0
  9
$3DDWFPREC
 40
2.0
  9
$PSOLWIDTH
 40
0.25
  9
$PSOLHEIGHT
 40
4.0
  9
$LOFTANG1
 40
1.570796326794897
  9
$LOFTANG2
 40
1.570796326794897
  9
$LOFTMAG1
 40
0.0
  9
$LOFTMAG2
 40
0.0
  9
$LOFTPARAM
 70
     7
  9
$LOFTNORMALS
280
     1
  9
$LATITUDE
 40
37.795
  9
$LONGITUDE
 40
-122.394
  9
$NORTHDIRECTION
 40
0.0
  9
$TIMEZONE
 70
 -8000
  9
$LIGHTGLYPHDISPLAY
280
     1
  9
$TILEMODELIGHTSYNCH
280
     1
  9
$SOLIDHIST
280
     1
  9
$SHOWHIST
280
     1
  9
$DWFFRAME
280
     2
  9
$DGNFRAME
280
     2
  9
$REALWORLDSCALE
290
     1
  9
$INTERFERECOLOR
 62
   256
  9
$CSHADOW
280
     0
  9
$SHADOWPLANELOCATION
 40
0.0
  0
ENDSEC
  0
SECTION
  2
CLASSES
  0
CLASS
  1
ACDBDICTIONARYWDFLT
  2
AcDbDictionaryWithDefault
  3
ObjectDBX Classes
 90
        0
 91
        4
280
     0
281
     0
  0
CLASS
  1
VISUALSTYLE
  2
AcDbVisualStyle
  3
ObjectDBX Classes
 90
     4095
 91
        4
280
     0
281
     0
  0
CLASS
  1
MATERIAL
  2
AcDbMaterial
  3
ObjectDBX Classes
 90
     1153
 91
        4
280
     0
281
     0
  0
CLASS
  1
AEC_VARS_DWG_SETUP
  2
AecDbVarsDwgSetup
  3
AecBase60
 90
      129
 91
        4
280
     0
281
     0
  0
CLASS
  1
AEC_DISP_REP_2D_SECTION
  2
AecDbDispRep2dSection
  3
AecBase60
 90
      129
 91
        4
280
     0
281
     0
  0
CLASS
  1
AEC_DISP_PROPS_2D_SECTION
  2
AecDbDispProps2dSection
  3
AecBase60
 90
      129
 91
        4
280
     0
281
     0
  0
CLASS
  1
AEC_DISP_REP_CLIP_VOLUME_MODEL
  2
AecDbDispRepClipVolModel
  3
AecBase60
 90
      129
 91
        6
280
     0
281
     0
  0
CLASS
  1
AEC_DISP_PROPS_CLIP_VOLUME
  2
AecDbDispPropsClipVol
  3
AecBase60
 90
      129
 91
        4
280
     0
281
     0
  0
CLASS
  1
AEC_DISP_REP_CLIP_VOLUME_PLAN
  2
AecDbDispRepClipVolPlan
  3
AecBase60
 90
      129
 91
        4
280
     0
281
     0
  0
CLASS
  1
AEC_DISP_REP_CLIP_VOLUME_RESULT
  2
AecDbDispRepClipVolResult
  3
AecBase60
 90
      129
 91
        6
280
     0
281
     0
  0
CLASS
  1
AEC_DISP_REP_CLIP_VOLUME_RESULT_SUBDIV
  2
AecDbDispRepClipVolResSubDiv
  3
AecBase60
 90
      129
 91
        5
280
     0
281
     0
  0
CLASS
  1
AEC_DISP_PROPS_CLIP_VOLUME_RESULT
  2
AecDbDispPropsClipVolResSubDiv
  3
AecBase60
 90
      129
 91
        4
280
     0
281
     0
  0
CLASS
  1
AEC_DISP_REP_DISPLAYTHEME
  2
AecDbDispRepDisplayTheme
  3
AecBase60
 90
      129
 91
        4
280
     0
281
     0
  0
CLASS
  1
AEC_DISP_REP_ENT_REF
  2
AecDbDispRepEntRef
  3
AecBase60
 90
      129
 91
        4
280
     0
281
     0
  0
CLASS
  1
AEC_DISP_PROPS_ENT_REF
  2
AecDbDispPropsEntRef
  3
AecBase60
 90
      129
 91
        4
280
     0
281
     0
  0
CLASS
  1
AEC_DISP_REP_LAYOUT_CURVE
  2
AecDbDispRepLayoutCurve
  3
AecBase60
 90
      129
 91
        4
280
     0
281
     0
  0
CLASS
  1
AEC_DISP_PROPS_LAYOUT_CURVE
  2
AecDbDispPropsLayoutCurve
  3
AecBase60
 90
      129
 91
        4
280
     0
281
     0
  0
CLASS
  1
AEC_DISP_REP_LAYOUT_GRID2D
  2
AecDbDispRepLayoutGrid2d
  3
AecBase60
 90
      129
 91
        6
280
     0
281
     0
  0
CLASS
  1
AEC_DISP_PROPS_LAYOUT_GRID2D
  2
AecDbDispPropsLayoutGrid2d
  3
AecBase60
 90
      129
 91
        5
280
     0
281
     0
  0
CLASS
  1
AEC_DISP_REP_LAYOUT_GRID3D
  2
AecDbDispRepLayoutGrid3d
  3
AecBase60
 90
      129
 91
        4
280
     0
281
     0
  0
CLASS
  1
AEC_DISP_PROPS_LAYOUT_GRID3D
  2
AecDbDispPropsLayoutGrid3d
  3
AecBase60
 90
      129
 91
        4
280
     0
281
     0
  0
CLASS
  1
AEC_DISP_REP_MASKBLOCK_REF
  2
AecDbDispRepMaskBlockRef
  3
AecBase60
 90
      129
 91
        5
280
     0
281
     0
  0
CLASS
  1
AEC_DISP_PROPS_MASKBLOCK
  2
AecDbDispPropsMaskBlock
  3
AecBase60
 90
      129
 91
        4
280
     0
281
     0
  0
CLASS
  1
AEC_DISP_REP_MASKBLOCK_REF_RCP
  2
AecDbDispRepMaskBlockRefRcp
  3
AecArchBase60
 90
      129
 91
        4
280
     0
281
     0
  0
CLASS
  1
AEC_DISP_REP_MASS_ELEM_MODEL
  2
AecDbDispRepMassElemModel
  3
AecBase60
 90
      129
 91
        4
280
     0
281
     0
  0
CLASS
  1
AEC_DISP_PROPS_MASS_ELEM_MODEL
  2
AecDbDispPropsMassElem
  3
AecBase60
 90
      129
 91
        5
280
     0
281
     0
  0
CLASS
  1
AEC_DISP_REP_MASS_ELEM_SCHEM
  2
AecDbDispRepMassElemSchem
  3
AecBase60
 90
      129
 91
        5
280
     0
281
     0
  0
CLASS
  1
AEC_DISPREPAECDBDISPREPMASSELEMPLAN50
  2
AecDbDispRepMassElemPlan50
  3
AecArchDACHBase60
 90
      129
 91
        4
280
     0
281
     0
  0
CLASS
  1
AEC_DISPROPSMASSELEMPLANCOMMON
  2
AecDbDispPropsMassElemPlanCommon
  3
AecArchDACHBase60
 90
      129
 91
        4
280
     0
281
     0
  0
CLASS
  1
AEC_DISPREPAECDBDISPREPMASSELEMPLAN100
  2
AecDbDispRepMassElemPlan100
  3
AecArchDACHBase60
 90
      129
 91
        4
280
     0
281
     0
  0
CLASS
  1
AEC_DISP_REP_MASS_ELEM_RCP
  2
AecDbDispRepMassElemRcp
  3
AecArchBase60
 90
      129
 91
        4
280
     0
281
     0
  0
CLASS
  1
AEC_DISP_REP_MASS_GROUP_MODEL
  2
AecDbDispRepMassGroupModel
  3
AecBase60
 90
      129
 91
        4
280
     0
281
     0
  0
CLASS
  1
AEC_DISP_PROPS_MASS_GROUP
  2
AecDbDispPropsMassGroup
  3
AecBase60
 90
      129
 91
        5
280
     0
281
     0
  0
CLASS
  1
AEC_DISP_REP_MASS_GROUP_PLAN
  2
AecDbDispRepMassGroupPlan
  3
AecBase60
 90
      129
 91
        8
280
     0
281
     0
  0
CLASS
  1
AEC_DISPREPAECDBDISPREPMASSGROUPPLAN50
  2
AecDbDispRepMassGroupPlan50
  3
AecArchDACHBase60
 90
      129
 91
        4
280
     0
281
     0
  0
CLASS
  1
AEC_DISPROPSMASSGROUPPLANCOMMON
  2
AecDbDispPropsMassGroupPlanCommon
  3
AecArchDACHBase60
 90
      129
 91
        4
280
     0
281
     0
  0
CLASS
  1
AEC_DISPREPAECDBDISPREPMASSGROUPPLAN100
  2
AecDbDispRepMassGroupPlan100
  3
AecArchDACHBase60
 90
      129
 91
        4
280
     0
281
     0
  0
CLASS
  1
AEC_DISP_REP_MASS_GROUP_RCP
  2
AecDbDispRepMassGroupRcp
  3
AecArchBase60
 90
      129
 91
        4
280
     0
281
     0
  0
CLASS
  1
AEC_DISP_REP_MVBLOCK_REF
  2
AecDbDispRepMvBlockRef
  3
AecBase60
 90
      129
 91
        8
280
     0
281
     0
  0
CLASS
  1
AEC_DISP_REP_MVBLOCK_REF_MODEL
  2
AecDbDispRepMvBlockRefModel
  3
AecBase60
 90
      129
 91
        4
280
     0
281
     0
  0
CLASS
  1
AEC_AECDBDISPREPMVBLOCKREFPLAN100
  2
AecDbDispRepMvBlockRefPlan100
  3
AecBase60
 90
      129
 91
        4
280
     0
281
     0
  0
CLASS
  1
AEC_AECDBDISPREPMVBLOCKREFPLAN50
  2
AecDbDispRepMvBlockRefPlan50
  3
AecBase60
 90
      129
 91
        4
280
     0
281
     0
  0
CLASS
  1
AEC_DISP_REP_POLYGON_MODEL
  2
AecDbDispRepPolygonModel
  3
AecBase60
 90
      129
 91
        4
280
     0
281
     0
  0
CLASS
  1
AEC_DISP_PROPS_POLYGON_MODEL
  2
AecDbDispPropsPolygonModel
  3
AecBase60
 90
      129
 91
        4
280
     0
281
     0
  0
CLASS
  1
AEC_DISP_REP_POLYGON_TRUECOLOUR
  2
AecDbDispRepPolygonTrueColour
  3
AecBase60
 90
      129
 91
        4
280
     0
281
     0
  0
CLASS
  1
AEC_DISP_PROPS_POLYGON_TRUECOLOUR
  2
AecDbDispPropsPolygonTrueColour
  3
AecBase60
 90
      129
 91
        4
280
     0
281
     0
  0
CLASS
  1
AEC_DISP_REP_SLICE
  2
AecDbDispRepSlice
  3
AecBase60
 90
      129
 91
        4
280
     0
281
     0
  0
CLASS
  1
AEC_DISP_PROPS_SLICE
  2
AecDbDispPropsSlice
  3
AecBase60
 90
      129
 91
        4
280
     0
281
     0
  0
CLASS
  1
AEC_DISP_REP_ANCHOR
  2
AecDbDispRepAnchor
  3
AecBase60
 90
      129
 91
        4
280
     0
281
     0
  0
CLASS
  1
AEC_DISP_REP_ANCHOR_ENT_TO_NODE
  2
AecDbDispRepAnchorEntToNode
  3
AecBase60
 90
      129
 91
        5
280
     0
281
     0
  0
CLASS
  1
AEC_DISP_PROPS_ENT
  2
AecDbDispPropsEnt
  3
AecBase60
 90
      129
 91
        4
280
     0
281
     0
  0
CLASS
  1
AEC_DISP_REP_MATERIAL
  2
AecDbDispRepMaterial
  3
AecBase60
 90
      129
 91
        4
280
     0
281
     0
  0
CLASS
  1
AEC_DISP_PROPS_MATERIAL
  2
AecDbDispPropsMaterial
  3
AecBase60
 90
      129
 91
        4
280
     0
281
     0
  0
CLASS
  1
AEC_DISP_REP_EDITINPLACEPROFILE
  2
AecDbDispRepEditInPlaceProfile
  3
AecBase60
 90
      129
 91
        4
280
     0
281
     0
  0
CLASS
  1
AEC_DISP_PROPS_EDITINPLACEPROFILE_MODEL
  2
AecDbDispPropsEditInPlaceProfile
  3
AecBase60
 90
      129
 91
        4
280
     0
281
     0
  0
CLASS
  1
AEC_VARS_ARCHBASE
  2
AecDbVarsArchBase
  3
AecArchBase60
 90
      129
 91
        4
280
     0
281
     0
  0
CLASS
  1
AEC_DISP_REP_BDG_ELEVLINE_PLAN
  2
AecDbDispRepBdgElevLinePlan
  3
AecArchBase60
 90
      129
 91
        7
280
     0
281
     0
  0
CLASS
  1
AEC_DISP_REP_BDG_ELEVLINE_MODEL
  2
AecDbDispRepBdgElevLineModel
  3
AecArchBase60
 90
      129
 91
        4
280
     0
281
     0
  0
CLASS
  1
AEC_DISP_REP_BDG_ELEVLINE_RCP
  2
AecDbDispRepBdgElevLineRcp
  3
AecArchBase60
 90
      129
 91
        4
280
     0
281
     0
  0
CLASS
  1
AEC_AECDBDISPREPBDGELEVLINEPLAN100
  2
AecDbDispRepBdgElevLinePlan100
  3
AecBase60
 90
      129
 91
        4
280
     0
281
     0
  0
CLASS
  1
AEC_AECDBDISPREPBDGELEVLINEPLAN50
  2
AecDbDispRepBdgElevLinePlan50
  3
AecBase60
 90
      129
 91
        4
280
     0
281
     0
  0
CLASS
  1
AEC_DISP_REP_BDG_SECTIONLINE_MODEL
  2
AecDbDispRepBdgSectionLineModel
  3
AecArchBase60
 90
      129
 91
        4
280
     0
281
     0
  0
CLASS
  1
AEC_DISP_REP_BDG_SECTIONLINE_PLAN
  2
AecDbDispRepBdgSectionLinePlan
  3
AecArchBase60
 90
      129
 91
        7
280
     0
281
     0
  0
CLASS
  1
AEC_DISP_REP_BDG_SECTIONLINE_RCP
  2
AecDbDispRepBdgSectionLineRcp
  3
AecArchBase60
 90
      129
 91
        4
280
     0
281
     0
  0
CLASS
  1
AEC_AECDBDISPREPBDGSECTIONLINEPLAN100
  2
AecDbDispRepBdgSectionLinePlan100
  3
AecBase60
 90
      129
 91
        4
280
     0
281
     0
  0
CLASS
  1
AEC_AECDBDISPREPBDGSECTIONLINEPLAN50
  2
AecDbDispRepBdgSectionLinePlan50
  3
AecBase60
 90
      129
 91
        4
280
     0
281
     0
  0
CLASS
  1
AEC_DISP_REP_BDG_SECTION_SUBDIV
  2
AecDbDispRepBdgSectionSubDiv
  3
AecArchBase60
 90
      129
 91
        4
280
     0
281
     0
  0
CLASS
  1
AEC_DISP_REP_BDG_SECTION_MODEL
  2
AecDbDispRepBdgSectionModel
  3
AecArchBase60
 90
      129
 91
        4
280
     0
281
     0
  0
CLASS
  1
AEC_DISP_REP_CEILING_GRID
  2
AecDbDispRepCeilingGrid
  3
AecArchBase60
 90
      893
 91
        8
280
     0
281
     0
  0
CLASS
  1
AEC_DISP_REP_CEILING_GRID_MODEL
  2
AecDbDispRepCeilingGridModel
  3
AecArchBase60
 90
      129
 91
        4
280
     0
281
     0
  0
CLASS
  1
AEC_DISP_REP_CEILING_GRID_RCP
  2
AecDbDispRepCeilingGridRcp
  3
AecArchBase60
 90
      129
 91
        4
280
     0
281
     0
  0
CLASS
  1
AEC_AECDBDISPREPCEILINGGRIDPLAN100
  2
AecDbDispRepCeilingGridPlan100
  3
AecBase60
 90
      129
 91
        4
280
     0
281
     0
  0
CLASS
  1
AEC_AECDBDISPREPCEILINGGRIDPLAN50
  2
AecDbDispRepCeilingGridPlan50
  3
AecBase60
 90
      129
 91
        4
280
     0
281
     0
  0
CLASS
  1
AEC_DISP_REP_CURTAIN_WALL_LAYOUT_MODEL
  2
AecDbDispRepCurtainWallLayoutModel
  3
AecArchBase60
 90
      129
 91
        4
280
     0
281
     0
  0
CLASS
  1
AEC_DISP_PROPS_GRID_ASSEMBLY_MODEL
  2
AecDbDispPropsGridAssemblyModel
  3
AecArchBase60
 90
      129
 91
        4
280
     0
281
     0
  0
CLASS
  1
AEC_DISP_REP_CURTAIN_WALL_LAYOUT_PLAN
  2
AecDbDispRepCurtainWallLayoutPlan
  3
AecArchBase60
 90
      129
 91
        6
280
     0
281
     0
  0
CLASS
  1
AEC_DISP_PROPS_GRID_ASSEMBLY_PLAN
  2
AecDbDispPropsGridAssemblyPlan
  3
AecArchBase60
 90
      129
 91
        4
280
     0
281
     0
  0
CLASS
  1
AEC_AECDBDISPREPCURTAINWALLLAYOUTPLAN100
  2
AecDbDispRepCurtainWallLayoutPlan100
  3
AecBase60
 90
      129
 91
        4
280
     0
281
     0
  0
CLASS
  1
AEC_AECDBDISPREPCURTAINWALLLAYOUTPLAN50
  2
AecDbDispRepCurtainWallLayoutPlan50
  3
AecBase60
 90
      129
 91
        4
280
     0
281
     0
  0
CLASS
  1
AEC_DISP_REP_CURTAIN_WALL_UNIT_MODEL
  2
AecDbDispRepCurtainWallUnitModel
  3
AecArchBase60
 90
      129
 91
        4
280
     0
281
     0
  0
CLASS
  1
AEC_DISP_REP_CURTAIN_WALL_UNIT_PLAN
  2
AecDbDispRepCurtainWallUnitPlan
  3
AecArchBase60
 90
      129
 91
        6
280
     0
281
     0
  0
CLASS
  1
AEC_AECDBDISPREPCURTAINWALLUNITPLAN100
  2
AecDbDispRepCurtainWallUnitPlan100
  3
AecBase60
 90
      129
 91
        4
280
     0
281
     0
  0
CLASS
  1
AEC_AECDBDISPREPCURTAINWALLUNITPLAN50
  2
AecDbDispRepCurtainWallUnitPlan50
  3
AecBase60
 90
      129
 91
        4
280
     0
281
     0
  0
CLASS
  1
AEC_DISP_REP_DOOR_MODEL
  2
AecDbDispRepDoorModel
  3
AecArchBase60
 90
      129
 91
        5
280
     0
281
     0
  0
CLASS
  1
AEC_DISP_PROPS_DOOR
  2
AecDbDispPropsDoor
  3
AecArchBase60
 90
      129
 91
        5
280
     0
281
     0
  0
CLASS
  1
AEC_DISP_REP_DOOR_ELEV
  2
AecDbDispRepDoorElev
  3
AecArchBase60
 90
      129
 91
        4
280
     0
281
     0
  0
CLASS
  1
AEC_DISP_REP_DOOR_PLAN
  2
AecDbDispRepDoorPlan
  3
AecArchBase60
 90
      129
 91
        8
280
     0
281
     0
  0
CLASS
  1
AEC_DISP_REP_DOOR_NOMINAL
  2
AecDbDispRepDoorNominal
  3
AecArchBase60
 90
      129
 91
        4
280
     0
281
     0
  0
CLASS
  1
AEC_DISP_PROPS_DOOR_NOMINAL
  2
AecDbDispPropsDoorNominal
  3
AecArchBase60
 90
      129
 91
        4
280
     0
281
     0
  0
CLASS
  1
AEC_DISP_REP_DOOR_THRESHOLD_PLAN
  2
AecDbDispRepDoorThresholdPlan
  3
AecArchBase60
 90
      129
 91
        4
280
     0
281
     0
  0
CLASS
  1
AEC_DISP_PROPS_DOOR_THRESHOLD_PLAN
  2
AecDbDispPropsDoorThresholdPlan
  3
AecArchBase60
 90
      129
 91
        4
280
     0
281
     0
  0
CLASS
  1
AEC_DISP_REP_DOOR_PLAN_50
  2
AecDbDispRepDoorPlan50
  3
AecArchDACHBase60
 90
      129
 91
        4
280
     0
281
     0
  0
CLASS
  1
AEC_DISP_PROPS_DOOR_PLAN_50
  2
AecDbDispPropsDoorPlan50
  3
AecArchDACHBase60
 90
      129
 91
        4
280
     0
281
     0
  0
CLASS
  1
AEC_DISP_REP_DOOR_PLAN_HEKTO
  2
AecDbDispRepDoorPlanHekto
  3
AecArchDACHBase60
 90
      129
 91
        4
280
     0
281
     0
  0
CLASS
  1
AEC_DISP_PROPS_DOOR_PLAN_100
  2
AecDbDispPropsDoorPlan100
  3
AecArchDACHBase60
 90
      129
 91
        4
280
     0
281
     0
  0
CLASS
  1
AEC_DISP_REP_DOOR_RCP
  2
AecDbDispRepDoorRcp
  3
AecArchBase60
 90
      129
 91
        4
280
     0
281
     0
  0
CLASS
  1
AEC_DISP_REP_DOOR_THRESHOLD_SYMBOL_PLAN
  2
AecDbDispRepDoorThresholdSymbolPlan
  3
AecArchDACHBase60
 90
      129
 91
        4
280
     0
281
     0
  0
CLASS
  1
AEC_DISP_PROPS_DOOR_THRESHOLD_SYMBOL_PLAN
  2
AecDbDispPropsDoorThresholdSymbolPlan
  3
AecArchDACHBase60
 90
      129
 91
        4
280
     0
281
     0
  0
CLASS
  1
AEC_DISP_REP_OPENING
  2
AecDbDispRepOpening
  3
AecArchBase60
 90
      129
 91
        6
280
     0
281
     0
  0
CLASS
  1
AEC_DISP_PROPS_OPENING
  2
AecDbDispPropsOpening
  3
AecArchBase60
 90
      129
 91
        5
280
     0
281
     0
  0
CLASS
  1
AEC_DISP_REP_OPENING_MODEL
  2
AecDbDispRepOpeningModel
  3
AecArchBase60
 90
      129
 91
        4
280
     0
281
     0
  0
CLASS
  1
AEC_DISPREPAECDBDISPREPOPENINGPLAN100
  2
AecDbDispRepOpeningPlan100
  3
AecArchDACHBase60
 90
      129
 91
        4
280
     0
281
     0
  0
CLASS
  1
AEC_DISPROPSOPENINGPLANCOMMONHATCHED
  2
AecDbDispPropsOpeningPlanCommonHatched
  3
AecArchDACHBase60
 90
      129
 91
        4
280
     0
281
     0
  0
CLASS
  1
AEC_DISPREPAECDBDISPREPOPENINGPLAN50
  2
AecDbDispRepOpeningPlan50
  3
AecArchDACHBase60
 90
      129
 91
        4
280
     0
281
     0
  0
CLASS
  1
AEC_DISPREPAECDBDISPREPOPENINGPLANREFLECTED
  2
AecDbDispRepOpeningPlanReflected
  3
AecArchDACHBase60
 90
      129
 91
        4
280
     0
281
     0
  0
CLASS
  1
AEC_DISPROPSOPENINGPLANCOMMON
  2
AecDbDispPropsOpeningPlanCommon
  3
AecArchDACHBase60
 90
      129
 91
        5
280
     0
281
     0
  0
CLASS
  1
AEC_DISPREPAECDBDISPREPOPENINGSILLPLAN
  2
AecDbDispRepOpeningSillPlan
  3
AecArchDACHBase60
 90
      129
 91
        4
280
     0
281
     0
  0
CLASS
  1
AEC_DISPROPSOPENINGSILLPLAN
  2
AecDbDispPropsOpeningSillPlan
  3
AecArchDACHBase60
 90
      129
 91
        4
280
     0
281
     0
  0
CLASS
  1
AEC_DISP_REP_RAILING_MODEL
  2
AecDbDispRepRailingModel
  3
AecArchBase60
 90
      129
 91
        4
280
     0
281
     0
  0
CLASS
  1
AEC_DISP_PROPS_RAILING_MODEL
  2
AecDbDispPropsRailingModel
  3
AecArchBase60
 90
      129
 91
        4
280
     0
281
     0
  0
CLASS
  1
AEC_DISP_REP_RAILING_PLAN
  2
AecDbDispRepRailingPlan
  3
AecArchBase60
 90
      129
 91
        5
280
     0
281
     0
  0
CLASS
  1
AEC_DISP_PROPS_RAILING_PLAN
  2
AecDbDispPropsRailingPlan
  3
AecArchBase60
 90
      129
 91
        5
280
     0
281
     0
  0
CLASS
  1
AEC_DISP_REP_RAILING_PLAN_100
  2
AecDbDispRepRailingPlan100
  3
AecArchDACHBase60
 90
      129
 91
        4
280
     0
281
     0
  0
CLASS
  1
AEC_DISP_ROPS_RAILING_PLAN_100
  2
AecDbDispPropsRailingPlan100
  3
AecArchDACHBase60
 90
      129
 91
        4
280
     0
281
     0
  0
CLASS
  1
AEC_DISP_REP_RAILING_PLAN_50
  2
AecDbDispRepRailingPlan50
  3
AecArchDACHBase60
 90
      129
 91
        4
280
     0
281
     0
  0
CLASS
  1
AEC_DISP_ROPS_RAILING_PLAN_50
  2
AecDbDispPropsRailingPlan50
  3
AecArchDACHBase60
 90
      129
 91
        4
280
     0
281
     0
  0
CLASS
  1
AEC_DISP_REP_ROOF_MODEL
  2
AecDbDispRepRoofModel
  3
AecArchBase60
 90
      129
 91
        4
280
     0
281
     0
  0
CLASS
  1
AEC_DISP_PROPS_ROOF
  2
AecDbDispPropsRoof
  3
AecArchBase60
 90
      129
 91
        4
280
     0
281
     0
  0
CLASS
  1
AEC_DISP_REP_ROOF_PLAN
  2
AecDbDispRepRoofPlan
  3
AecArchBase60
 90
      129
 91
        8
280
     0
281
     0
  0
CLASS
  1
AEC_DISP_REP_ROOF_RCP
  2
AecDbDispRepRoofRcp
  3
AecArchBase60
 90
      129
 91
        4
280
     0
281
     0
  0
CLASS
  1
AEC_AECDBDISPREPROOFPLAN100
  2
AecDbDispRepRoofPlan100
  3
AecBase60
 90
      129
 91
        4
280
     0
281
     0
  0
CLASS
  1
AEC_AECDBDISPREPROOFPLAN50
  2
AecDbDispRepRoofPlan50
  3
AecBase60
 90
      129
 91
        4
280
     0
281
     0
  0
CLASS
  1
AEC_DISP_REP_ROOFSLAB_MODEL
  2
AecDbDispRepRoofSlabModel
  3
AecArchBase60
 90
      129
 91
        4
280
     0
281
     0
  0
CLASS
  1
AEC_DISP_PROPS_ROOFSLAB
  2
AecDbDispPropsRoofSlab
  3
AecArchBase60
 90
      129
 91
        4
280
     0
281
     0
  0
CLASS
  1
AEC_DISP_REP_ROOFSLAB_PLAN
  2
AecDbDispRepRoofSlabPlan
  3
AecArchBase60
 90
      129
 91
        6
280
     0
281
     0
  0
CLASS
  1
AEC_DISP_PROPS_ROOFSLAB_PLAN
  2
AecDbDispPropsRoofSlabPlan
  3
AecArchBase60
 90
      129
 91
        4
280
     0
281
     0
  0
CLASS
  1
AEC_AECDBDISPREPROOFSLABPLAN100
  2
AecDbDispRepRoofSlabPlan100
  3
AecBase60
 90
      129
 91
        4
280
     0
281
     0
  0
CLASS
  1
AEC_AECDBDISPREPROOFSLABPLAN50
  2
AecDbDispRepRoofSlabPlan50
  3
AecBase60
 90
      129
 91
        4
280
     0
281
     0
  0
CLASS
  1
AEC_DISP_REP_SLAB_MODEL
  2
AecDbDispRepSlabModel
  3
AecArchBase60
 90
      129
 91
        5
280
     0
281
     0
  0
CLASS
  1
AEC_DISP_PROPS_SLAB
  2
AecDbDispPropsSlab
  3
AecArchBase60
 90
      129
 91
        6
280
     0
281
     0
  0
CLASS
  1
AEC_DISP_REP_SLAB_PLAN
  2
AecDbDispRepSlabPlan
  3
AecArchBase60
 90
      129
 91
        7
280
     0
281
     0
  0
CLASS
  1
AEC_DISP_PROPS_SLAB_PLAN
  2
AecDbDispPropsSlabPlan
  3
AecArchBase60
 90
      129
 91
        5
280
     0
281
     0
  0
CLASS
  1
AEC_AECDBDISPREPSLABPLAN100
  2
AecDbDispRepSlabPlan100
  3
AecBase60
 90
      129
 91
        4
280
     0
281
     0
  0
CLASS
  1
AEC_AECDBDISPREPSLABPLAN50
  2
AecDbDispRepSlabPlan50
  3
AecBase60
 90
      129
 91
        4
280
     0
281
     0
  0
CLASS
  1
AEC_DISP_REP_SPACE_MODEL
  2
AecDbDispRepSpaceModel
  3
AecArchBase60
 90
      129
 91
        4
280
     0
281
     0
  0
CLASS
  1
AEC_DISP_PROPS_SPACE_MODEL
  2
AecDbDispPropsSpaceModel
  3
AecArchBase60
 90
      129
 91
        4
280
     0
281
     0
  0
CLASS
  1
AEC_DISP_REP_SPACE_PLAN
  2
AecDbDispRepSpacePlan
  3
AecArchBase60
 90
      129
 91
        7
280
     0
281
     0
  0
CLASS
  1
AEC_DISP_PROPS_SPACE_PLAN
  2
AecDbDispPropsSpacePlan
  3
AecArchBase60
 90
      129
 91
        4
280
     0
281
     0
  0
CLASS
  1
AEC_DISP_REP_SPACE_RCP
  2
AecDbDispRepSpaceRcp
  3
AecArchBase60
 90
      129
 91
        4
280
     0
281
     0
  0
CLASS
  1
AEC_DISP_REP_SPACE_VOLUME
  2
AecDbDispRepSpaceVolume
  3
AecArchBase60
 90
      129
 91
        4
280
     0
281
     0
  0
CLASS
  1
AEC_DISP_REP_SPACE_DECOMPOSED
  2
AecDbDispRepSpaceDecomposed
  3
AecArchBase60
 90
      129
 91
        4
280
     0
281
     0
  0
CLASS
  1
AEC_DISP_PROPS_SPACE_DECOMPOSED
  2
AecDbDispPropsSpaceDecomposed
  3
AecArchBase60
 90
      129
 91
        4
280
     0
281
     0
  0
CLASS
  1
AEC_AECDBDISPREPSPACEPLAN100
  2
AecDbDispRepSpacePlan100
  3
AecBase60
 90
      129
 91
        4
280
     0
281
     0
  0
CLASS
  1
AEC_AECDBDISPREPSPACEPLAN50
  2
AecDbDispRepSpacePlan50
  3
AecBase60
 90
      129
 91
        4
280
     0
281
     0
  0
CLASS
  1
AEC_DISP_REP_STAIR_MODEL
  2
AecDbDispRepStairModel
  3
AecArchBase60
 90
      129
 91
        4
280
     0
281
     0
  0
CLASS
  1
AEC_DISP_PROPS_STAIR_MODEL
  2
AecDbDispPropsStairModel
  3
AecArchBase60
 90
      129
 91
        4
280
     0
281
     0
  0
CLASS
  1
AEC_DISP_REP_STAIR_PLAN
  2
AecDbDispRepStairPlan
  3
AecArchBase60
 90
      129
 91
        7
280
     0
281
     0
  0
CLASS
  1
AEC_DISP_PROPS_STAIR_PLAN
  2
AecDbDispPropsStairPlan
  3
AecArchBase60
 90
      129
 91
        6
280
     0
281
     0
  0
CLASS
  1
AEC_DISP_REP_STAIR_RCP
  2
AecDbDispRepStairRcp
  3
AecArchBase60
 90
      129
 91
        4
280
     0
281
     0
  0
CLASS
  1
AEC_DISP_REP_STAIR_PLAN_100
  2
AecDbDispRepStairPlan100
  3
AecArchDACHBase60
 90
      129
 91
        4
280
     0
281
     0
  0
CLASS
  1
AEC_DISP_ROPS_STAIR_PLAN_100
  2
AecDbDispPropsStairPlan100
  3
AecArchDACHBase60
 90
      129
 91
        4
280
     0
281
     0
  0
CLASS
  1
AEC_DISP_REP_STAIR_PLAN_50
  2
AecDbDispRepStairPlan50
  3
AecArchDACHBase60
 90
      129
 91
        4
280
     0
281
     0
  0
CLASS
  1
AEC_DISP_ROPS_STAIR_PLAN_50
  2
AecDbDispPropsStairPlan50
  3
AecArchDACHBase60
 90
      129
 91
        4
280
     0
281
     0
  0
CLASS
  1
AEC_DISP_REP_STAIR_PLAN_OVERLAPPING
  2
AecDbDispRepStairPlanOverlapping
  3
AecArchBase60
 90
      129
 91
        4
280
     0
281
     0
  0
CLASS
  1
AEC_DISP_PROPS_STAIR_PLAN_OVERLAPPING
  2
AecDbDispPropsStairPlanOverlapping
  3
AecArchBase60
 90
      129
 91
        4
280
     0
281
     0
  0
CLASS
  1
AEC_DISP_REP_WALL_GRAPH
  2
AecDbDispRepWallGraph
  3
AecArchBase60
 90
      129
 91
        4
280
     0
281
     0
  0
CLASS
  1
AEC_DISP_PROPS_WALL_GRAPH
  2
AecDbDispPropsWallGraph
  3
AecArchBase60
 90
      129
 91
        4
280
     0
281
     0
  0
CLASS
  1
AEC_DISP_REP_WALL_MODEL
  2
AecDbDispRepWallModel
  3
AecArchBase60
 90
      129
 91
        4
280
     0
281
     0
  0
CLASS
  1
AEC_DISP_PROPS_WALL_MODEL
  2
AecDbDispPropsWallModel
  3
AecArchBase60
 90
      129
 91
        4
280
     0
281
     0
  0
CLASS
  1
AEC_DISP_REP_WALL_PLAN
  2
AecDbDispRepWallPlan
  3
AecArchBase60
 90
      129
 91
        7
280
     0
281
     0
  0
CLASS
  1
AEC_DISP_PROPS_WALL_PLAN
  2
AecDbDispPropsWallPlan
  3
AecArchBase60
 90
      129
 91
        4
280
     0
281
     0
  0
CLASS
  1
AEC_DISP_REP_WALL_RCP
  2
AecDbDispRepWallRcp
  3
AecArchBase60
 90
      129
 91
        4
280
     0
281
     0
  0
CLASS
  1
AEC_DISP_REP_WALL_SCHEM
  2
AecDbDispRepWallSchem
  3
AecArchBase60
 90
      129
 91
        4
280
     0
281
     0
  0
CLASS
  1
AEC_DISP_PROPS_WALL_SCHEM
  2
AecDbDispPropsWallSchem
  3
AecArchBase60
 90
      129
 91
        4
280
     0
281
     0
  0
CLASS
  1
AEC_AECDBDISPREPWALLPLAN100
  2
AecDbDispRepWallPlan100
  3
AecBase60
 90
      129
 91
        4
280
     0
281
     0
  0
CLASS
  1
AEC_AECDBDISPREPWALLPLAN50
  2
AecDbDispRepWallPlan50
  3
AecBase60
 90
      129
 91
        4
280
     0
281
     0
  0
CLASS
  1
AEC_DISP_REP_WINDOW_MODEL
  2
AecDbDispRepWindowModel
  3
AecArchBase60
 90
      129
 91
        5
280
     0
281
     0
  0
CLASS
  1
AEC_DISP_PROPS_WINDOW
  2
AecDbDispPropsWindow
  3
AecArchBase60
 90
      129
 91
        6
280
     0
281
     0
  0
CLASS
  1
AEC_DISP_REP_WINDOW_ELEV
  2
AecDbDispRepWindowElev
  3
AecArchBase60
 90
      129
 91
        4
280
     0
281
     0
  0
CLASS
  1
AEC_DISP_REP_WINDOW_PLAN
  2
AecDbDispRepWindowPlan
  3
AecArchBase60
 90
      129
 91
        8
280
     0
281
     0
  0
CLASS
  1
AEC_DISP_REP_WINDOW_NOMINAL
  2
AecDbDispRepWindowNominal
  3
AecArchBase60
 90
      129
 91
        4
280
     0
281
     0
  0
CLASS
  1
AEC_DISP_PROPS_WINDOW_NOMINAL
  2
AecDbDispPropsWindowNominal
  3
AecArchBase60
 90
      129
 91
        4
280
     0
281
     0
  0
CLASS
  1
AEC_DISP_REP_WINDOW_RCP
  2
AecDbDispRepWindowRcp
  3
AecArchBase60
 90
      129
 91
        4
280
     0
281
     0
  0
CLASS
  1
AEC_DISP_REP_WINDOW_SILL_PLAN
  2
AecDbDispRepWindowSillPlan
  3
AecArchBase60
 90
      129
 91
        4
280
     0
281
     0
  0
CLASS
  1
AEC_DISP_PROPS_WINDOW_SILL_PLAN
  2
AecDbDispPropsWindowSillPlan
  3
AecArchBase60
 90
      129
 91
        4
280
     0
281
     0
  0
CLASS
  1
AEC_DISP_REP_WINDOW_PLAN_100
  2
AecDbDispRepWindowPlan100
  3
AecArchDACHBase60
 90
      129
 91
        4
280
     0
281
     0
  0
CLASS
  1
AEC_DISP_PROPS_WINDOW_PLAN_100
  2
AecDbDispPropsWindowPlan100
  3
AecArchDACHBase60
 90
      129
 91
        4
280
     0
281
     0
  0
CLASS
  1
AEC_DISP_REP_WINDOW_PLAN_50
  2
AecDbDispRepWindowPlan50
  3
AecArchDACHBase60
 90
      129
 91
        4
280
     0
281
     0
  0
CLASS
  1
AEC_DISP_PROPS_WINDOW_PLAN_50
  2
AecDbDispPropsWindowPlan50
  3
AecArchDACHBase60
 90
      129
 91
        4
280
     0
281
     0
  0
CLASS
  1
AEC_DISP_REP_WINDOW_ASSEMBLY_MODEL
  2
AecDbDispRepWindowAssemblyModel
  3
AecArchBase60
 90
      129
 91
        4
280
     0
281
     0
  0
CLASS
  1
AEC_DISP_REP_WINDOW_ASSEMBLY_PLAN
  2
AecDbDispRepWindowAssemblyPlan
  3
AecArchBase60
 90
      129
 91
        6
280
     0
281
     0
  0
CLASS
  1
AEC_DISP_REP_WINDOWASSEMBLY_SILL_PLAN
  2
AecDbDispRepWindowAssemblySillPlan
  3
AecArchBase60
 90
      129
 91
        4
280
     0
281
     0
  0
CLASS
  1
AEC_DISP_PROPS_WINDOW_ASSEMBLY_SILL_PLAN
  2
AecDbDispPropsWindowAssemblySillPlan
  3
AecArchBase60
 90
      129
 91
        4
280
     0
281
     0
  0
CLASS
  1
AEC_AECDBDISPREPWINDOWASSEMBLYPLAN100
  2
AecDbDispRepWindowAssemblyPlan100
  3
AecBase60
 90
      129
 91
        4
280
     0
281
     0
  0
CLASS
  1
AEC_AECDBDISPREPWINDOWASSEMBLYPLAN50
  2
AecDbDispRepWindowAssemblyPlan50
  3
AecBase60
 90
      129
 91
        4
280
     0
281
     0
  0
CLASS
  1
AEC_DB_DISP_REP_DIM_GROUP_PLAN
  2
AecDbDispRepDimGroupPlan
  3
AecArchDACHBase60
 90
      129
 91
        4
280
     0
281
     0
  0
CLASS
  1
AEC_DISP_PROPS_DIM
  2
AecDbDispPropsDimGroup
  3
AecArchDACHBase60
 90
      129
 91
        4
280
     0
281
     0
  0
CLASS
  1
AEC_DB_DISP_REP_DIM_GROUP_PLAN100
  2
AecDbDispRepDimGroupPlan100
  3
AecArchDACHBase60
 90
      129
 91
        4
280
     0
281
     0
  0
CLASS
  1
AEC_DB_DISP_REP_DIM_GROUP_PLAN50
  2
AecDbDispRepDimGroupPlan50
  3
AecArchDACHBase60
 90
      129
 91
        4
280
     0
281
     0
  0
CLASS
  1
AEC_DISP_REP_SCHEDULE_TABLE
  2
AecDbDispRepScheduleTable
  3
AecSchedule50
 90
      129
 91
        4
280
     0
281
     0
  0
CLASS
  1
AEC_DISP_PROPS_SCHEDULE_TABLE
  2
AecDbDispPropsScheduleTable
  3
AecSchedule50
 90
      129
 91
        4
280
     0
281
     0
  0
CLASS
  1
AEC_DISP_REP_ANCHOR_TAG_TO_ENT
  2
AecDbDispRepAnchorTagToEnt
  3
AecScheduleData60
 90
      129
 91
        5
280
     0
281
     0
  0
CLASS
  1
AEC_DISP_REP_ANCHOR_EXT_TAG_TO_ENT
  2
AecDbDispRepAnchorExtendedTagToEnt
  3
AecScheduleData60
 90
      129
 91
        4
280
     0
281
     0
  0
CLASS
  1
AEC_DISP_REP_SET
  2
AecDbDispRepSet
  3
AecBase60
 90
      129
 91
        4
280
     0
281
     0
  0
CLASS
  1
AECS_DISP_REP_MEMBER_MODEL_DESIGN
  2
AecsDbDispRepMemberModelDesign
  3
AecStructureBase60
 90
      129
 91
        4
280
     0
281
     0
  0
CLASS
  1
AECS_DISP_PROPS_MEMBER
  2
AecsDbDispPropsMember
  3
AecStructureBase60
 90
      129
 91
        6
280
     0
281
     0
  0
CLASS
  1
AECS_DISP_REP_MEMBER_PLAN_DESIGN
  2
AecsDbDispRepMemberPlanDesign
  3
AecStructureBase60
 90
      129
 91
        4
280
     0
281
     0
  0
CLASS
  1
AECS_DISP_PROPS_MEMBER_PLAN
  2
AecsDbDispPropsMemberPlan
  3
AecStructureBase60
 90
      129
 91
        5
280
     0
281
     0
  0
CLASS
  1
AEC_DISP_REP_CONFIG
  2
AecDbDispRepConfig
  3
AecBase60
 90
      129
 91
        4
280
     0
281
     0
  0
CLASS
  1
MLEADERSTYLE
  2
AcDbMLeaderStyle
  3
ACDB_MLEADERSTYLE_CLASS
 90
     4095
 91
        4
280
     0
281
     0
  0
CLASS
  1
AEC_WALL_STYLE
  2
AecDbWallStyle
  3
AecArchBase60
 90
      129
 91
        4
280
     0
281
     0
  0
CLASS
  1
AEC_CLEANUP_GROUP_DEF
  2
AecDbCleanupGroupDef
  3
AecArchBase60
 90
      129
 91
        4
280
     0
281
     0
  0
CLASS
  1
AEC_ENDCAP_STYLE
  2
AecDbEndcapStyle
  3
AecArchBase60
 90
      129
 91
        4
280
     0
281
     0
  0
CLASS
  1
AEC_FRAME_DEF
  2
AecDbOpeningEndcapStyle
  3
AecArchBase60
 90
      129
 91
        4
280
     0
281
     0
  0
CLASS
  1
AEC_MATERIAL_DEF
  2
AecDbMaterialDef
  3
AecBase60
 90
      129
 91
        4
280
     0
281
     0
  0
CLASS
  1
TABLESTYLE
  2
AcDbTableStyle
  3
ObjectDBX Classes
 90
     4095
 91
        4
280
     0
281
     0
  0
CLASS
  1
TCOPTIONALDATA
  2
TcOptionalData
  3
ExTcadCustObjs|Description: TurboCAD extension data object
 90
     4095
 91
        4
280
     0
281
     0
  0
CLASS
  1
SCALE
  2
AcDbScale
  3
ObjectDBX Classes
 90
     1153
 91
        4
280
     0
281
     0
  0
CLASS
  1
DICTIONARYVAR
  2
AcDbDictionaryVar
  3
ObjectDBX Classes
 90
        0
 91
        4
280
     0
281
     0
  0
CLASS
  1
CELLSTYLEMAP
  2
AcDbCellStyleMap
  3
ObjectDBX Classes
 90
     1152
 91
        4
280
     0
281
     0
  0
ENDSEC
  0
SECTION
  2
TABLES
  0
TABLE
  2
VPORT
  5
8
330
0
100
AcDbSymbolTable
 70
     1
  0
VPORT
  5
29
330
8
100
AcDbSymbolTableRecord
100
AcDbViewportTableRecord
  2
*Active
 70
     0
 10
0.0
 20
0.0
 11
1.0
 21
1.0
 12
0.0
 22
0.0
 13
0.0
 23
0.0
 14
50.0
 24
50.0
 15
50.0
 25
50.0
 16
0.0
 26
0.0
 36
1.0
 17
1679.950900476852
 27
494.9734282543266
 37
2.10405147075653
 40
4428.228280642074
 41
2.129587155963303
 42
50.0
 43
0.0
 44
0.0
 50
0.0
 51
0.0
 71
     0
 72
   100
 73
     1
 74
     3
 75
     0
 76
     1
 77
     0
 78
     0
281
     0
 65
     1
110
0.0
120
0.0
130
0.0
111
1.0
121
0.0
131
0.0
112
0.0
122
1.0
132
0.0
 79
     0
146
0.0
 60
     3
 61
     5
292
     1
282
     1
141
0.0
142
0.0
 63
   250
  0
ENDTAB
  0
TABLE
  2
LTYPE
  5
5
330
0
100
AcDbSymbolTable
 70
    14
  0
LTYPE
  5
14
330
5
100
AcDbSymbolTableRecord
100
AcDbLinetypeTableRecord
  2
ByBlock
 70
     0
  3

 72
    65
 73
     0
 40
0.0
  0
LTYPE
  5
15
330
5
100
AcDbSymbolTableRecord
100
AcDbLinetypeTableRecord
  2
ByLayer
 70
     0
  3

 72
    65
 73
     0
 40
0.0
  0
LTYPE
  5
16
330
5
100
AcDbSymbolTableRecord
100
AcDbLinetypeTableRecord
  2
Continuous
 70
     0
  3
Solid line
 72
    65
 73
     0
 40
0.0
  0
LTYPE
  5
14F
330
5
100
AcDbSymbolTableRecord
100
AcDbLinetypeTableRecord
  2
BORDER
 70
     0
  3
BORDER
 72
    65
 73
     6
 40
1.75
 49
0.5
 74
     0
 49
-0.25
 74
     0
 49
0.5
 74
     0
 49
-0.25
 74
     0
 49
0.0
 74
     0
 49
-0.25
 74
     0
  0
LTYPE
  5
150
330
5
100
AcDbSymbolTableRecord
100
AcDbLinetypeTableRecord
  2
CENTER
 70
     0
  3
CENTER
 72
    65
 73
     4
 40
2.0
 49
1.25
 74
     0
 49
-0.25
 74
     0
 49
0.25
 74
     0
 49
-0.25
 74
     0
  0
LTYPE
  5
151
330
5
100
AcDbSymbolTableRecord
100
AcDbLinetypeTableRecord
  2
DASHDOT
 70
     0
  3
DASHDOT
 72
    65
 73
     4
 40
1.0
 49
0.5
 74
     0
 49
-0.25
 74
     0
 49
0.0
 74
     0
 49
-0.25
 74
     0
  0
LTYPE
  5
152
330
5
100
AcDbSymbolTableRecord
100
AcDbLinetypeTableRecord
  2
DASHED
 70
     0
  3
DASHED
 72
    65
 73
     2
 40
0.75
 49
0.5
 74
     0
 49
-0.25
 74
     0
  0
LTYPE
  5
153
330
5
100
AcDbSymbolTableRecord
100
AcDbLinetypeTableRecord
  2
DIVIDE
 70
     0
  3
DIVIDE
 72
    65
 73
     6
 40
1.25
 49
0.5
 74
     0
 49
-0.25
 74
     0
 49
0.0
 74
     0
 49
-0.25
 74
     0
 49
0.0
 74
     0
 49
-0.25
 74
     0
  0
LTYPE
  5
154
330
5
100
AcDbSymbolTableRecord
100
AcDbLinetypeTableRecord
  2
DOT
 70
     0
  3
DOT
 72
    65
 73
     2
 40
0.25
 49
0.0
 74
     0
 49
-0.25
 74
     0
  0
LTYPE
  5
155
330
5
100
AcDbSymbolTableRecord
100
AcDbLinetypeTableRecord
  2
HIDDEN
 70
     0
  3
HIDDEN
 72
    65
 73
     2
 40
0.375
 49
0.25
 74
     0
 49
-0.125
 74
     0
  0
LTYPE
  5
156
330
5
100
AcDbSymbolTableRecord
100
AcDbLinetypeTableRecord
  2
PHANTOM
 70
     0
  3
PHANTOM
 72
    65
 73
     6
 40
2.5
 49
1.25
 74
     0
 49
-0.25
 74
     0
 49
0.25
 74
     0
 49
-0.25
 74
     0
 49
0.25
 74
     0
 49
-0.25
 74
     0
  0
LTYPE
  5
157
330
5
100
AcDbSymbolTableRecord
100
AcDbLinetypeTableRecord
  2
$INVISIBLE
 70
     0
  3
$INVISIBLE
 72
    65
 73
     2
 40
200.0
 49
-100.0
 74
     0
 49
-100.0
 74
     0
  0
LTYPE
  5
158
330
5
100
AcDbSymbolTableRecord
100
AcDbLinetypeTableRecord
  2
$MARGINS
 70
     0
  3
$MARGINS
 72
    65
 73
     2
 40
0.075
 49
0.05
 74
     0
 49
-0.025
 74
     0
  0
LTYPE
  5
159
330
5
100
AcDbSymbolTableRecord
100
AcDbLinetypeTableRecord
  2
$AUXILIARY
 70
     0
  3
$AUXILIARY
 72
    65
 73
     2
 40
0.1000000014901161
 49
0.0500000007450581
 74
     0
 49
-0.0500000007450581
 74
     0
  0
LTYPE
  5
15A
330
5
100
AcDbSymbolTableRecord
100
AcDbLinetypeTableRecord
  2
$CONSTRUCTION
 70
     0
  3
$CONSTRUCTION
 72
    65
 73
     4
 40
0.3
 49
0.2
 74
     0
 49
-0.05
 74
     0
 49
0.0
 74
     0
 49
-0.05
 74
     0
  0
LTYPE
  5
15B
330
5
100
AcDbSymbolTableRecord
100
AcDbLinetypeTableRecord
  2
$SNAPEXT
 70
     0
  3
$SNAPEXT
 72
    65
 73
     2
 40
0.04
 49
0.02
 74
     0
 49
-0.02
 74
     0
  0
ENDTAB
  0
TABLE
  2
LAYER
  5
2
330
0
100
AcDbSymbolTable
 70
     5
  0
LAYER
  5
10
330
2
100
AcDbSymbolTableRecord
100
AcDbLayerTableRecord
  2
0
 70
     0
 62
    18
420
        0
  6
Continuous
370
     0
390
F
347
3E
  0
LAYER
  5
15C
330
2
100
AcDbSymbolTableRecord
100
AcDbLayerTableRecord
  2
$CONSTRUCTION
 70
     0
 62
   254
420
 12572888
  6
$CONSTRUCTION
370
     0
390
F
347
3E
  0
LAYER
  5
15D
330
2
100
AcDbSymbolTableRecord
100
AcDbLayerTableRecord
  2
LAYER_0
 70
     0
 62
    18
420
        0
  6
Continuous
370
     0
390
F
347
3E
  0
LAYER
  5
15E
330
2
100
AcDbSymbolTableRecord
100
AcDbLayerTableRecord
  2
LAYER_100
 70
     0
 62
    18
420
        0
  6
Continuous
370
     0
390
F
347
3E
  0
LAYER
  5
15F
330
2
100
AcDbSymbolTableRecord
100
AcDbLayerTableRecord
  2
Defpoints
 70
     0
 62
    18
420
        0
  6
Continuous
290
     0
370
     0
390
F
347
3E
  0
ENDTAB
  0
TABLE
  2
STYLE
  5
3
330
0
100
AcDbSymbolTable
 70
    11
  0
STYLE
  5
11
330
3
100
AcDbSymbolTableRecord
100
AcDbTextStyleTableRecord
  2
Standard
 70
     0
 40
0.0
 41
1.0
 50
0.0
 71
     0
 42
0.1500000059604645
  3
times.ttf
  4

1001
ACAD
1000
Times New Roman
1071
      290
  0
STYLE
  5
164
330
3
100
AcDbSymbolTableRecord
100
AcDbTextStyleTableRecord
  2
Text Style 1
 70
     0
 40
0.0
 41
1.0
 50
0.0
 71
     0
 42
0.1500000059604645
  3

  4

1001
ACAD
1000
Times New Roman
1071
      290
  0
STYLE
  5
165
330
3
100
AcDbSymbolTableRecord
100
AcDbTextStyleTableRecord
  2
Text Style 2
 70
     0
 40
0.0
 41
1.0
 50
0.0
 71
     0
 42
0.1500000059604645
  3

  4

1001
ACAD
1000
Times New Roman
1071
      290
  0
STYLE
  5
1F7
330
3
100
AcDbSymbolTableRecord
100
AcDbTextStyleTableRecord
  2
_TCW_TXTSTY_1
 70
     0
 40
15.33333396911621
 41
1.0
 50
0.0
 71
     0
 42
15.33333396911621
  3
arial.ttf
  4

1001
ACAD
1000
Arial
1071
       34
  0
STYLE
  5
1FB
330
3
100
AcDbSymbolTableRecord
100
AcDbTextStyleTableRecord
  2
_TCW_TXTSTY_2
 70
     0
 40
15.33333396911621
 41
1.0
 50
0.0
 71
     0
 42
15.33333396911621
  3

  4

1001
ACAD
1000
Arial
1071
       34
  0
STYLE
  5
205
330
3
100
AcDbSymbolTableRecord
100
AcDbTextStyleTableRecord
  2
_TCW_TXTSTY_3
 70
     0
 40
23.0
 41
1.0
 50
0.0
 71
     0
 42
23.0
  3

  4

1001
ACAD
1000
Arial
1071
       34
  0
STYLE
  5
2A8
330
3
100
AcDbSymbolTableRecord
100
AcDbTextStyleTableRecord
  2
_TCW_TXTSTY_4
 70
     0
 40
16.33301162719727
 41
1.0
 50
0.0
 71
     0
 42
16.33301162719727
  3

  4

1001
ACAD
1000
Arial
1071
       34
  0
STYLE
  5
2DD
330
3
100
AcDbSymbolTableRecord
100
AcDbTextStyleTableRecord
  2
_TCW_TXTSTY_5
 70
     0
 40
14.55768394470215
 41
1.0
 50
0.0
 71
     0
 42
14.55768394470215
  3

  4

1001
ACAD
1000
Arial
1071
       34
  0
STYLE
  5
3E2
330
3
100
AcDbSymbolTableRecord
100
AcDbTextStyleTableRecord
  2
_TCW_TXTSTY_6
 70
     0
 40
23.0
 41
1.0
 50
0.0
 71
     0
 42
23.0
  3

  4

1001
ACAD
1000
Arial
1071
 33554466
  0
STYLE
  5
3E6
330
3
100
AcDbSymbolTableRecord
100
AcDbTextStyleTableRecord
  2
_TCW_TXTSTY_7
 70
     0
 40
19.16666603088379
 41
1.0
 50
0.0
 71
     0
 42
19.16666603088379
  3

  4

1001
ACAD
1000
Arial
1071
       34
  0
STYLE
  5
44A
330
3
100
AcDbSymbolTableRecord
100
AcDbTextStyleTableRecord
  2
_TCW_TXTSTY_8
 70
     0
 40
24.91666603088379
 41
1.0
 50
0.0
 71
     0
 42
24.91666603088379
  3

  4

1001
ACAD
1000
Arial
1071
       34
  0
ENDTAB
  0
TABLE
  2
VIEW
  5
6
330
0
100
AcDbSymbolTable
 70
     4
  0
VIEW
  5
160
330
6
100
AcDbSymbolTableRecord
100
AcDbViewTableRecord
  2
View_0
 70
     0
 40
8.267716535433072
 10
5.846456692913386
 20
4.133858267716536
 41
11.69291338582677
 11
0.0
 21
0.0
 31
1.0
 12
0.0
 22
0.0
 32
0.0
 42
50.0
 43
0.0
 44
0.0
 50
0.0
 71
     0
281
     0
 72
     0
 73
     0
  0
VIEW
  5
161
330
6
100
AcDbSymbolTableRecord
100
AcDbViewTableRecord
  2
Margin width bottom
 70
     0
 40
5.712264649569988
 10
5.251354204490781
 20
2.814647857099771
 41
10.58552744612098
 11
0.0
 21
0.0
 31
1.0
 12
0.0
 22
0.0
 32
0.0
 42
50.0
 43
0.0
 44
0.0
 50
0.0
 71
     0
281
     0
 72
     0
 73
     0
  0
VIEW
  5
162
330
6
100
AcDbSymbolTableRecord
100
AcDbViewTableRecord
  2
Margin width top
 70
     0
 40
5.711362838745117
 10
5.248193185776472
 20
5.180384635925293
 41
10.58281818777323
 11
0.0
 21
0.0
 31
1.0
 12
0.0
 22
0.0
 32
0.0
 42
50.0
 43
0.0
 44
0.0
 50
0.0
 71
     0
281
     0
 72
     0
 73
     0
  0
VIEW
  5
163
330
6
100
AcDbSymbolTableRecord
100
AcDbViewTableRecord
  2
View_3
 70
     0
 40
816.0
 10
504.0
 20
384.0
 41
1056.0
 11
0.0
 21
0.0
 31
1.0
 12
0.0
 22
0.0
 32
0.0
 42
50.0
 43
0.0
 44
0.0
 50
0.0
 71
     0
281
     0
 72
     0
 73
     0
  0
ENDTAB
  0
TABLE
  2
UCS
  5
7
330
0
100
AcDbSymbolTable
 70
     0
  0
ENDTAB
  0
TABLE
  2
APPID
  5
9
330
0
100
AcDbSymbolTable
 70
     6
  0
APPID
  5
12
330
9
100
AcDbSymbolTableRecord
100
AcDbRegAppTableRecord
  2
ACAD
 70
     0
  0
APPID
  5
3F
330
9
100
AcDbSymbolTableRecord
100
AcDbRegAppTableRecord
  2
TCAD
 70
     0
  0
APPID
  5
40
330
9
100
AcDbSymbolTableRecord
100
AcDbRegAppTableRecord
  2
AECBASE
 70
     0
  0
APPID
  5
41
330
9
100
AcDbSymbolTableRecord
100
AcDbRegAppTableRecord
  2
AEC_2DSECTION_XDATA
 70
     0
  0
APPID
  5
42
330
9
100
AcDbSymbolTableRecord
100
AcDbRegAppTableRecord
  2
AEC_MASSGROUP_XDADA
 70
     0
  0
APPID
  5
169
330
9
100
AcDbSymbolTableRecord
100
AcDbRegAppTableRecord
  2
ACAD_MLEADERVER
 70
     0
  0
ENDTAB
  0
TABLE
  2
DIMSTYLE
  5
A
330
0
100
AcDbSymbolTable
 70
     1
100
AcDbDimStyleTable
  0
DIMSTYLE
105
27
102
{ACAD_REACTORS
330
345
330
355
330
365
330
375
330
384
330
393
330
3A2
330
3F3
330
402
330
411
330
420
330
430
102
}
330
A
100
AcDbSymbolTableRecord
100
AcDbDimStyleTableRecord
  2
Standard
 70
     0
  3
 "
  4
 "
 41
0.25
 43
0.375
 44
0.125
 45
0.01
 74
     0
 77
     1
 78
     1
140
0.15
141
0.0
143
1.0
147
0.0625
148
0.01
172
     1
179
     2
271
     2
272
     3
276
     2
278
     0
340
11
345
14
346
14
347
14
  0
ENDTAB
  0
TABLE
  2
BLOCK_RECORD
  5
1
330
0
100
AcDbSymbolTable
 70
    15
  0
BLOCK_RECORD
  5
1F
330
1
100
AcDbSymbolTableRecord
100
AcDbBlockTableRecord
  2
*Model_Space
340
22
 70
     0
280
     1
281
     0
  0
BLOCK_RECORD
  5
1B
330
1
100
AcDbSymbolTableRecord
100
AcDbBlockTableRecord
  2
*Paper_Space
340
1E
 70
     0
280
     1
281
     0
  0
BLOCK_RECORD
  5
341
330
1
100
AcDbSymbolTableRecord
100
AcDbBlockTableRecord
  2
TC_DIMARROW_FILLED30
340
0
102
{BLKREFS
331
34B
331
34C
331
35B
331
35C
331
36B
331
36C
331
37A
331
37B
331
389
331
38A
331
398
331
399
331
3A7
331
3A8
331
3F8
331
3F9
331
407
331
408
331
416
331
417
331
426
331
427
331
436
331
437
102
}
 70
     0
280
     1
281
     0
  0
BLOCK_RECORD
  5
346
330
1
100
AcDbSymbolTableRecord
100
AcDbBlockTableRecord
  2
*D3
340
0
 70
     0
280
     1
281
     0
  0
BLOCK_RECORD
  5
356
330
1
100
AcDbSymbolTableRecord
100
AcDbBlockTableRecord
  2
*D4
340
0
 70
     0
280
     1
281
     0
  0
BLOCK_RECORD
  5
366
330
1
100
AcDbSymbolTableRecord
100
AcDbBlockTableRecord
  2
*D5
340
0
 70
     0
280
     1
281
     0
  0
BLOCK_RECORD
  5
376
330
1
100
AcDbSymbolTableRecord
100
AcDbBlockTableRecord
  2
*D6
340
0
 70
     0
280
     1
281
     0
  0
BLOCK_RECORD
  5
385
330
1
100
AcDbSymbolTableRecord
100
AcDbBlockTableRecord
  2
*D7
340
0
 70
     0
280
     1
281
     0
  0
BLOCK_RECORD
  5
394
330
1
100
AcDbSymbolTableRecord
100
AcDbBlockTableRecord
  2
*D8
340
0
 70
     0
280
     1
281
     0
  0
BLOCK_RECORD
  5
3A3
330
1
100
AcDbSymbolTableRecord
100
AcDbBlockTableRecord
  2
*D9
340
0
 70
     0
280
     1
281
     0
  0
BLOCK_RECORD
  5
3F4
330
1
100
AcDbSymbolTableRecord
100
AcDbBlockTableRecord
  2
*D10
340
0
 70
     0
280
     1
281
     0
  0
BLOCK_RECORD
  5
403
330
1
100
AcDbSymbolTableRecord
100
AcDbBlockTableRecord
  2
*D11
340
0
 70
     0
280
     1
281
     0
  0
BLOCK_RECORD
  5
412
330
1
100
AcDbSymbolTableRecord
100
AcDbBlockTableRecord
  2
*D12
340
0
 70
     0
280
     1
281
     0
  0
BLOCK_RECORD
  5
421
330
1
100
AcDbSymbolTableRecord
100
AcDbBlockTableRecord
  2
*D13
340
0
 70
     0
280
     1
281
     0
  0
BLOCK_RECORD
  5
431
330
1
100
AcDbSymbolTableRecord
100
AcDbBlockTableRecord
  2
*D14
340
0
 70
     0
280
     1
281
     0
  0
ENDTAB
  0
ENDSEC
  0
SECTION
  2
BLOCKS
  0
BLOCK
  5
20
330
1F
100
AcDbEntity
  8
0
100
AcDbBlockBegin
  2
*Model_Space
 70
     0
 10
0.0
 20
0.0
 30
0.0
  3
*Model_Space
  1

  0
ENDBLK
  5
21
330
1F
100
AcDbEntity
  8
0
100
AcDbBlockEnd
  0
BLOCK
  5
1C
330
1B
100
AcDbEntity
 67
     1
  8
0
100
AcDbBlockBegin
  2
*Paper_Space
 70
     0
 10
0.0
 20
0.0
 30
0.0
  3
*Paper_Space
  1

  0
ENDBLK
  5
1D
330
1B
100
AcDbEntity
 67
     1
  8
0
100
AcDbBlockEnd
  0
BLOCK
  5
343
330
341
100
AcDbEntity
  8
0
100
AcDbBlockBegin
  2
TC_DIMARROW_FILLED30
 70
     0
 10
0.0
 20
0.0
 30
0.0
  3
TC_DIMARROW_FILLED30
  1

  0
SOLID
  5
342
330
341
100
AcDbEntity
  8
0
  6
ByBlock
 62
     0
100
AcDbTrace
 10
0.0
 20
0.0
 30
0.0
 11
-1.0
 21
0.267949
 31
0.0
 12
-1.0
 22
-0.267949
 32
0.0
 13
-1.0
 23
-0.267949
 33
0.0
  0
ENDBLK
  5
344
330
341
100
AcDbEntity
  8
0
100
AcDbBlockEnd
  0
BLOCK
  5
351
330
346
100
AcDbEntity
  8
0
100
AcDbBlockBegin
  2
*D3
 70
     1
 10
0.0
 20
0.0
 30
0.0
  3
*D3
  1

  0
LINE
  5
347
330
346
100
AcDbEntity
  8
0
  6
ByBlock
 62
     7
370
    -2
100
AcDbLine
 10
1810.683816920441
 20
964.8611712564627
 30
0.0
 11
1817.58001894498
 21
964.8611712564627
 31
0.0
  0
LINE
  5
348
330
346
100
AcDbEntity
  8
0
  6
ByBlock
 62
     7
370
    -2
100
AcDbLine
 10
1810.683816920441
 20
515.407160458299
 30
0.0
 11
1817.58001894498
 21
515.407160458299
 31
0.0
  0
LINE
  5
349
330
346
100
AcDbEntity
  8
0
  6
ByBlock
 62
     7
370
    -2
100
AcDbLine
 10
1805.58001894498
 20
952.8611712564627
 30
0.0
 11
1805.58001894498
 21
760.7064426094415
 31
0.0
  0
LINE
  5
34A
330
346
100
AcDbEntity
  8
0
  6
ByBlock
 62
     7
370
    -2
100
AcDbLine
 10
1805.58001894498
 20
527.407160458299
 30
0.0
 11
1805.58001894498
 21
719.5618891053201
 31
0.0
  0
INSERT
  5
34B
330
346
100
AcDbEntity
  8
0
 62
     7
370
    -2
100
AcDbBlockReference
  2
TC_DIMARROW_FILLED30
 10
1805.58001894498
 20
964.8611712564627
 30
0.0
 41
12.0
 42
12.0
 43
12.0
 50
90.0
  0
INSERT
  5
34C
330
346
100
AcDbEntity
  8
0
 62
     7
370
    -2
100
AcDbBlockReference
  2
TC_DIMARROW_FILLED30
 10
1805.58001894498
 20
515.407160458299
 30
0.0
 41
12.0
 42
12.0
 43
12.0
 50
270.0
  0
MTEXT
  5
34D
330
346
100
AcDbEntity
  8
0
 62
     7
370
     0
100
AcDbMText
 10
1805.58001894498
 20
740.1341658573808
 30
0.0
 40
28.57253086419753
 41
0.0
 46
0.0
 71
     5
 72
     1
  1
\A1;37'-6"
 73
     1
 44
1.0
  0
POINT
  5
34E
330
346
100
AcDbEntity
  8
Defpoints
 62
     0
100
AcDbPoint
 10
1804.683816920441
 20
964.8611712564627
 30
0.0
  0
POINT
  5
34F
330
346
100
AcDbEntity
  8
Defpoints
 62
     0
100
AcDbPoint
 10
1804.683816920441
 20
515.407160458299
 30
0.0
  0
POINT
  5
350
330
346
100
AcDbEntity
  8
Defpoints
 62
     0
100
AcDbPoint
 10
1805.58001894498
 20
515.407160458299
 30
0.0
  0
ENDBLK
  5
352
330
346
100
AcDbEntity
  8
0
100
AcDbBlockEnd
  0
BLOCK
  5
361
330
356
100
AcDbEntity
  8
0
100
AcDbBlockBegin
  2
*D4
 70
     1
 10
0.0
 20
0.0
 30
0.0
  3
*D4
  1

  0
LINE
  5
357
330
356
100
AcDbEntity
  8
0
  6
ByBlock
 62
     7
370
    -2
100
AcDbLine
 10
1800.533273830586
 20
977.2016704001221
 30
0.0
 11
1794.197198071596
 21
977.2016704001243
 31
0.0
  0
LINE
  5
358
330
356
100
AcDbEntity
  8
0
  6
ByBlock
 62
     7
370
    -2
100
AcDbLine
 10
1800.197198071596
 20
1545.201670400122
 30
0.0
 11
1794.197198071596
 21
1545.201670400124
 31
0.0
  0
LINE
  5
359
330
356
100
AcDbEntity
  8
0
  6
ByBlock
 62
     7
370
    -2
100
AcDbLine
 10
1806.197198071596
 20
989.2016704001202
 30
0.0
 11
1806.197198071596
 21
1240.629393648059
 31
0.0
  0
LINE
  5
35A
330
356
100
AcDbEntity
  8
0
  6
ByBlock
 62
     7
370
    -2
100
AcDbLine
 10
1806.197198071596
 20
1533.20167040012
 30
0.0
 11
1806.197198071596
 21
1281.773947152181
 31
0.0
  0
INSERT
  5
35B
330
356
100
AcDbEntity
  8
0
 62
     7
370
    -2
100
AcDbBlockReference
  2
TC_DIMARROW_FILLED30
 10
1806.197198071596
 20
977.2016704001202
 30
0.0
 41
12.0
 42
12.0
 43
12.0
 50
270.0
  0
INSERT
  5
35C
330
356
100
AcDbEntity
  8
0
 62
     7
370
    -2
100
AcDbBlockReference
  2
TC_DIMARROW_FILLED30
 10
1806.197198071596
 20
1545.20167040012
 30
0.0
 41
12.0
 42
12.0
 43
12.0
 50
90.0
  0
MTEXT
  5
35D
330
356
100
AcDbEntity
  8
0
 62
     7
370
     0
100
AcDbMText
 10
1806.197198071596
 20
1261.20167040012
 30
0.0
 40
28.57253086419753
 41
0.0
 46
0.0
 71
     5
 72
     1
  1
\A1;47'-4"
 73
     1
 44
1.0
  0
POINT
  5
35E
330
356
100
AcDbEntity
  8
Defpoints
 62
     0
100
AcDbPoint
 10
1806.533273830586
 20
977.2016704001201
 30
0.0
  0
POINT
  5
35F
330
356
100
AcDbEntity
  8
Defpoints
 62
     0
100
AcDbPoint
 10
1806.197198071596
 20
1545.20167040012
 30
0.0
  0
POINT
  5
360
330
356
100
AcDbEntity
  8
Defpoints
 62
     0
100
AcDbPoint
 10
1806.197198071596
 20
1545.20167040012
 30
0.0
  0
ENDBLK
  5
362
330
356
100
AcDbEntity
  8
0
100
AcDbBlockEnd
  0
BLOCK
  5
371
330
366
100
AcDbEntity
  8
0
100
AcDbBlockBegin
  2
*D5
 70
     1
 10
0.0
 20
0.0
 30
0.0
  3
*D5
  1

  0
LINE
  5
367
330
366
100
AcDbEntity
  8
0
  6
ByBlock
 62
     7
370
    -2
100
AcDbLine
 10
1812.870322086668
 20
1557.447651160583
 30
0.0
 11
1819.094372521712
 21
1557.447651160583
 31
0.0
  0
LINE
  5
368
330
366
100
AcDbEntity
  8
0
  6
ByBlock
 62
     7
370
    -2
100
AcDbLine
 10
1813.094372521712
 20
2122.564893059385
 30
0.0
 11
1819.094372521712
 21
2122.564893059385
 31
0.0
  0
LINE
  5
369
330
366
100
AcDbEntity
  8
0
  6
ByBlock
 62
     7
370
    -2
100
AcDbLine
 10
1807.094372521712
 20
1569.447651160583
 30
0.0
 11
1807.094372521712
 21
1819.433995357923
 31
0.0
  0
LINE
  5
36A
330
366
100
AcDbEntity
  8
0
  6
ByBlock
 62
     7
370
    -2
100
AcDbLine
 10
1807.094372521712
 20
2110.564893059385
 30
0.0
 11
1807.094372521712
 21
1860.578548862045
 31
0.0
  0
INSERT
  5
36B
330
366
100
AcDbEntity
  8
0
 62
     7
370
    -2
100
AcDbBlockReference
  2
TC_DIMARROW_FILLED30
 10
1807.094372521712
 20
1557.447651160583
 30
0.0
 41
12.0
 42
12.0
 43
12.0
 50
270.0
  0
INSERT
  5
36C
330
366
100
AcDbEntity
  8
0
 62
     7
370
    -2
100
AcDbBlockReference
  2
TC_DIMARROW_FILLED30
 10
1807.094372521712
 20
2122.564893059385
 30
0.0
 41
12.0
 42
12.0
 43
12.0
 50
90.0
  0
MTEXT
  5
36D
330
366
100
AcDbEntity
  8
0
 62
     7
370
     0
100
AcDbMText
 10
1807.094372521712
 20
1840.006272109984
 30
0.0
 40
28.57253086419753
 41
0.0
 46
0.0
 71
     5
 72
     1
  1
\A1;47'-2"
 73
     1
 44
1.0
  0
POINT
  5
36E
330
366
100
AcDbEntity
  8
Defpoints
 62
     0
100
AcDbPoint
 10
1806.870322086668
 20
1557.447651160583
 30
0.0
  0
POINT
  5
36F
330
366
100
AcDbEntity
  8
Defpoints
 62
     0
100
AcDbPoint
 10
1807.094372521712
 20
2122.564893059385
 30
0.0
  0
POINT
  5
370
330
366
100
AcDbEntity
  8
Defpoints
 62
     0
100
AcDbPoint
 10
1807.094372521712
 20
2122.564893059385
 30
0.0
  0
ENDBLK
  5
372
330
366
100
AcDbEntity
  8
0
100
AcDbBlockEnd
  0
BLOCK
  5
380
330
376
100
AcDbEntity
  8
0
100
AcDbBlockBegin
  2
*D6
 70
     1
 10
0.0
 20
0.0
 30
0.0
  3
*D6
  1

  0
LINE
  5
377
330
376
100
AcDbEntity
  8
0
  6
ByBlock
 62
     7
370
    -2
100
AcDbLine
 10
644.5819208174585
 20
1549.882481599459
 30
0.0
 11
644.5819208174585
 21
1540.255696167975
 31
0.0
  0
LINE
  5
378
330
376
100
AcDbEntity
  8
0
  6
ByBlock
 62
     7
370
    -2
100
AcDbLine
 10
334.7860527496468
 20
1549.882481599459
 30
0.0
 11
334.7860527496468
 21
1540.255696167975
 31
0.0
  0
LINE
  5
379
330
376
100
AcDbEntity
  8
0
  6
ByBlock
 62
     7
370
    -2
100
AcDbLine
 10
632.5819208174585
 20
1552.255696167975
 30
0.0
 11
346.7860527496468
 21
1552.255696167975
 31
0.0
  0
INSERT
  5
37A
330
376
100
AcDbEntity
  8
0
 62
     7
370
    -2
100
AcDbBlockReference
  2
TC_DIMARROW_FILLED30
 10
644.5819208174585
 20
1552.255696167975
 30
0.0
 41
12.0
 42
12.0
 43
12.0
  0
INSERT
  5
37B
330
376
100
AcDbEntity
  8
0
 62
     7
370
    -2
100
AcDbBlockReference
  2
TC_DIMARROW_FILLED30
 10
334.7860527496468
 20
1552.255696167975
 30
0.0
 41
12.0
 42
12.0
 43
12.0
 50
180.0
  0
MTEXT
  5
37C
330
376
100
AcDbEntity
  8
0
 62
     7
370
     0
100
AcDbMText
 10
489.6839867835527
 20
1572.785071222041
 30
0.0
 40
28.57253086419753
 41
0.0
 46
0.0
 71
     5
 72
     1
  1
\A1;25'-10"
 73
     1
 44
1.0
  0
POINT
  5
37D
330
376
100
AcDbEntity
  8
Defpoints
 62
     0
100
AcDbPoint
 10
644.5819208174585
 20
1555.882481599459
 30
0.0
  0
POINT
  5
37E
330
376
100
AcDbEntity
  8
Defpoints
 62
     0
100
AcDbPoint
 10
334.7860527496468
 20
1555.882481599459
 30
0.0
  0
POINT
  5
37F
330
376
100
AcDbEntity
  8
Defpoints
 62
     0
100
AcDbPoint
 10
334.7860527496468
 20
1552.255696167975
 30
0.0
  0
ENDBLK
  5
381
330
376
100
AcDbEntity
  8
0
100
AcDbBlockEnd
  0
BLOCK
  5
38F
330
385
100
AcDbEntity
  8
0
100
AcDbBlockBegin
  2
*D7
 70
     1
 10
0.0
 20
0.0
 30
0.0
  3
*D7
  1

  0
LINE
  5
386
330
385
100
AcDbEntity
  8
0
  6
ByBlock
 62
     7
370
    -2
100
AcDbLine
 10
654.4543141330172
 20
1556.313741848828
 30
0.0
 11
654.4543141330172
 21
1564.649519150892
 31
0.0
  0
LINE
  5
387
330
385
100
AcDbEntity
  8
0
  6
ByBlock
 62
     7
370
    -2
100
AcDbLine
 10
1223.148129099875
 20
1556.313741848828
 30
0.0
 11
1223.148129099875
 21
1564.649519150892
 31
0.0
  0
LINE
  5
388
330
385
100
AcDbEntity
  8
0
  6
ByBlock
 62
     7
370
    -2
100
AcDbLine
 10
666.4543141330172
 20
1552.649519150892
 30
0.0
 11
1211.148129099875
 21
1552.649519150892
 31
0.0
  0
INSERT
  5
389
330
385
100
AcDbEntity
  8
0
 62
     7
370
    -2
100
AcDbBlockReference
  2
TC_DIMARROW_FILLED30
 10
654.4543141330172
 20
1552.649519150892
 30
0.0
 41
12.0
 42
12.0
 43
12.0
 50
180.0
  0
INSERT
  5
38A
330
385
100
AcDbEntity
  8
0
 62
     7
370
    -2
100
AcDbBlockReference
  2
TC_DIMARROW_FILLED30
 10
1223.148129099875
 20
1552.649519150892
 30
0.0
 41
12.0
 42
12.0
 43
12.0
  0
MTEXT
  5
38B
330
385
100
AcDbEntity
  8
0
 62
     7
370
     0
100
AcDbMText
 10
938.8012216164459
 20
1573.221795902952
 30
0.0
 40
28.57253086419753
 41
0.0
 46
0.0
 71
     5
 72
     1
  1
\A1;47'-4"
 73
     1
 44
1.0
  0
POINT
  5
38C
330
385
100
AcDbEntity
  8
Defpoints
 62
     0
100
AcDbPoint
 10
654.4543141330172
 20
1550.313741848828
 30
0.0
  0
POINT
  5
38D
330
385
100
AcDbEntity
  8
Defpoints
 62
     0
100
AcDbPoint
 10
1223.148129099875
 20
1550.313741848828
 30
0.0
  0
POINT
  5
38E
330
385
100
AcDbEntity
  8
Defpoints
 62
     0
100
AcDbPoint
 10
1223.148129099875
 20
1552.649519150892
 30
0.0
  0
ENDBLK
  5
390
330
385
100
AcDbEntity
  8
0
100
AcDbBlockEnd
  0
BLOCK
  5
39E
330
394
100
AcDbEntity
  8
0
100
AcDbBlockBegin
  2
*D8
 70
     1
 10
0.0
 20
0.0
 30
0.0
  3
*D8
  1

  0
LINE
  5
395
330
394
100
AcDbEntity
  8
0
  6
ByBlock
 62
     7
370
    -2
100
AcDbLine
 10
1233.079102384439
 20
1558.077335751643
 30
0.0
 11
1233.079102384439
 21
1564.973537776181
 31
0.0
  0
LINE
  5
396
330
394
100
AcDbEntity
  8
0
  6
ByBlock
 62
     7
370
    -2
100
AcDbLine
 10
1801.332756495774
 20
1558.077335751643
 30
0.0
 11
1801.332756495774
 21
1564.973537776181
 31
0.0
  0
LINE
  5
397
330
394
100
AcDbEntity
  8
0
  6
ByBlock
 62
     7
370
    -2
100
AcDbLine
 10
1245.079102384439
 20
1552.973537776181
 30
0.0
 11
1789.332756495774
 21
1552.973537776181
 31
0.0
  0
INSERT
  5
398
330
394
100
AcDbEntity
  8
0
 62
     7
370
    -2
100
AcDbBlockReference
  2
TC_DIMARROW_FILLED30
 10
1233.079102384439
 20
1552.973537776181
 30
0.0
 41
12.0
 42
12.0
 43
12.0
 50
180.0
  0
INSERT
  5
399
330
394
100
AcDbEntity
  8
0
 62
     7
370
    -2
100
AcDbBlockReference
  2
TC_DIMARROW_FILLED30
 10
1801.332756495774
 20
1552.973537776181
 30
0.0
 41
12.0
 42
12.0
 43
12.0
  0
MTEXT
  5
39A
330
394
100
AcDbEntity
  8
0
 62
     7
370
     0
100
AcDbMText
 10
1517.205929440107
 20
1573.545814528242
 30
0.0
 40
28.57253086419753
 41
0.0
 46
0.0
 71
     5
 72
     1
  1
\A1;47'-4"
 73
     1
 44
1.0
  0
POINT
  5
39B
330
394
100
AcDbEntity
  8
Defpoints
 62
     0
100
AcDbPoint
 10
1233.079102384439
 20
1552.077335751643
 30
0.0
  0
POINT
  5
39C
330
394
100
AcDbEntity
  8
Defpoints
 62
     0
100
AcDbPoint
 10
1801.332756495774
 20
1552.077335751643
 30
0.0
  0
POINT
  5
39D
330
394
100
AcDbEntity
  8
Defpoints
 62
     0
100
AcDbPoint
 10
1801.332756495774
 20
1552.973537776181
 30
0.0
  0
ENDBLK
  5
39F
330
394
100
AcDbEntity
  8
0
100
AcDbBlockEnd
  0
BLOCK
  5
3AD
330
3A3
100
AcDbEntity
  8
0
100
AcDbBlockBegin
  2
*D9
 70
     1
 10
0.0
 20
0.0
 30
0.0
  3
*D9
  1

  0
LINE
  5
3A4
330
3A3
100
AcDbEntity
  8
0
  6
ByBlock
 62
     7
370
    -2
100
AcDbLine
 10
1810.713827144249
 20
1558.561280635723
 30
0.0
 11
1810.713827144249
 21
1565.907091934837
 31
0.0
  0
LINE
  5
3A5
330
3A3
100
AcDbEntity
  8
0
  6
ByBlock
 62
     7
370
    -2
100
AcDbLine
 10
2342.154149047023
 20
1558.561280635723
 30
0.0
 11
2342.154149047023
 21
1565.907091934837
 31
0.0
  0
LINE
  5
3A6
330
3A3
100
AcDbEntity
  8
0
  6
ByBlock
 62
     7
370
    -2
100
AcDbLine
 10
1822.713827144249
 20
1553.907091934837
 30
0.0
 11
2330.154149047023
 21
1553.907091934837
 31
0.0
  0
INSERT
  5
3A7
330
3A3
100
AcDbEntity
  8
0
 62
     7
370
    -2
100
AcDbBlockReference
  2
TC_DIMARROW_FILLED30
 10
1810.713827144249
 20
1553.907091934837
 30
0.0
 41
12.0
 42
12.0
 43
12.0
 50
180.0
  0
INSERT
  5
3A8
330
3A3
100
AcDbEntity
  8
0
 62
     7
370
    -2
100
AcDbBlockReference
  2
TC_DIMARROW_FILLED30
 10
2342.154149047023
 20
1553.907091934837
 30
0.0
 41
12.0
 42
12.0
 43
12.0
  0
MTEXT
  5
3A9
330
3A3
100
AcDbEntity
  8
0
 62
     7
370
     0
100
AcDbMText
 10
2076.433988095636
 20
1574.436466988903
 30
0.0
 40
28.57253086419753
 41
0.0
 46
0.0
 71
     5
 72
     1
  1
\A1;44'-6"
 73
     1
 44
1.0
  0
POINT
  5
3AA
330
3A3
100
AcDbEntity
  8
Defpoints
 62
     0
100
AcDbPoint
 10
1810.713827144249
 20
1552.561280635723
 30
0.0
  0
POINT
  5
3AB
330
3A3
100
AcDbEntity
  8
Defpoints
 62
     0
100
AcDbPoint
 10
2342.154149047023
 20
1552.561280635723
 30
0.0
  0
POINT
  5
3AC
330
3A3
100
AcDbEntity
  8
Defpoints
 62
     0
100
AcDbPoint
 10
2342.154149047023
 20
1553.907091934837
 30
0.0
  0
ENDBLK
  5
3AE
330
3A3
100
AcDbEntity
  8
0
100
AcDbBlockEnd
  0
BLOCK
  5
3FE
330
3F4
100
AcDbEntity
  8
0
100
AcDbBlockBegin
  2
*D10
 70
     1
 10
0.0
 20
0.0
 30
0.0
  3
*D10
  1

  0
LINE
  5
3F5
330
3F4
100
AcDbEntity
  8
0
  6
ByBlock
 62
     7
370
    -2
100
AcDbLine
 10
444.6922606037979
 20
2144.094432923291
 30
0.0
 11
444.6922606037979
 21
2155.986360895035
 31
0.0
  0
LINE
  5
3F6
330
3F4
100
AcDbEntity
  8
0
  6
ByBlock
 62
     7
370
    -2
100
AcDbLine
 10
594.414249679709
 20
2144.094432923291
 30
0.0
 11
594.414249679709
 21
2155.986360895035
 31
0.0
  0
LINE
  5
3F7
330
3F4
100
AcDbEntity
  8
0
  6
ByBlock
 62
     7
370
    -2
100
AcDbLine
 10
456.6922606037979
 20
2143.986360895035
 30
0.0
 11
582.414249679709
 21
2143.986360895035
 31
0.0
  0
INSERT
  5
3F8
330
3F4
100
AcDbEntity
  8
0
 62
     7
370
    -2
100
AcDbBlockReference
  2
TC_DIMARROW_FILLED30
 10
444.6922606037979
 20
2143.986360895035
 30
0.0
 41
12.0
 42
12.0
 43
12.0
 50
180.0
  0
INSERT
  5
3F9
330
3F4
100
AcDbEntity
  8
0
 62
     7
370
    -2
100
AcDbBlockReference
  2
TC_DIMARROW_FILLED30
 10
594.414249679709
 20
2143.986360895035
 30
0.0
 41
12.0
 42
12.0
 43
12.0
  0
MTEXT
  5
3FA
330
3F4
100
AcDbEntity
  8
0
 62
     7
370
     0
100
AcDbMText
 10
519.5532551417534
 20
2164.515735949101
 30
0.0
 40
28.57253086419753
 41
0.0
 46
0.0
 71
     5
 72
     1
  1
\A1;12'-6"
 73
     1
 44
1.0
  0
POINT
  5
3FB
330
3F4
100
AcDbEntity
  8
Defpoints
 62
     0
100
AcDbPoint
 10
444.6922606037979
 20
2138.094432923291
 30
0.0
  0
POINT
  5
3FC
330
3F4
100
AcDbEntity
  8
Defpoints
 62
     0
100
AcDbPoint
 10
594.414249679709
 20
2138.094432923291
 30
0.0
  0
POINT
  5
3FD
330
3F4
100
AcDbEntity
  8
Defpoints
 62
     0
100
AcDbPoint
 10
594.414249679709
 20
2143.986360895035
 30
0.0
  0
ENDBLK
  5
3FF
330
3F4
100
AcDbEntity
  8
0
100
AcDbBlockEnd
  0
BLOCK
  5
40D
330
403
100
AcDbEntity
  8
0
100
AcDbBlockBegin
  2
*D11
 70
     1
 10
0.0
 20
0.0
 30
0.0
  3
*D11
  1

  0
LINE
  5
404
330
403
100
AcDbEntity
  8
0
  6
ByBlock
 62
     7
370
    -2
100
AcDbLine
 10
1405.458668925599
 20
2141.211067773834
 30
0.0
 11
1405.458668925599
 21
2154.268575372696
 31
0.0
  0
LINE
  5
405
330
403
100
AcDbEntity
  8
0
  6
ByBlock
 62
     7
370
    -2
100
AcDbLine
 10
1530.70226333802
 20
2141.211067773834
 30
0.0
 11
1530.70226333802
 21
2154.268575372696
 31
0.0
  0
LINE
  5
406
330
403
100
AcDbEntity
  8
0
  6
ByBlock
 62
     7
370
    -2
100
AcDbLine
 10
1417.458668925599
 20
2142.268575372696
 30
0.0
 11
1518.70226333802
 21
2142.268575372696
 31
0.0
  0
INSERT
  5
407
330
403
100
AcDbEntity
  8
0
 62
     7
370
    -2
100
AcDbBlockReference
  2
TC_DIMARROW_FILLED30
 10
1405.458668925599
 20
2142.268575372696
 30
0.0
 41
12.0
 42
12.0
 43
12.0
 50
180.0
  0
INSERT
  5
408
330
403
100
AcDbEntity
  8
0
 62
     7
370
    -2
100
AcDbBlockReference
  2
TC_DIMARROW_FILLED30
 10
1530.70226333802
 20
2142.268575372696
 30
0.0
 41
12.0
 42
12.0
 43
12.0
  0
MTEXT
  5
409
330
403
100
AcDbEntity
  8
0
 62
     7
370
     0
100
AcDbMText
 10
1468.08046613181
 20
2162.797950426762
 30
0.0
 40
28.57253086419753
 41
0.0
 46
0.0
 71
     5
 72
     1
  1
\A1;10'-6"
 73
     1
 44
1.0
  0
POINT
  5
40A
330
403
100
AcDbEntity
  8
Defpoints
 62
     0
100
AcDbPoint
 10
1405.458668925599
 20
2135.211067773834
 30
0.0
  0
POINT
  5
40B
330
403
100
AcDbEntity
  8
Defpoints
 62
     0
100
AcDbPoint
 10
1530.70226333802
 20
2135.211067773834
 30
0.0
  0
POINT
  5
40C
330
403
100
AcDbEntity
  8
Defpoints
 62
     0
100
AcDbPoint
 10
1530.70226333802
 20
2142.268575372696
 30
0.0
  0
ENDBLK
  5
40E
330
403
100
AcDbEntity
  8
0
100
AcDbBlockEnd
  0
BLOCK
  5
41C
330
412
100
AcDbEntity
  8
0
100
AcDbBlockBegin
  2
*D12
 70
     1
 10
0.0
 20
0.0
 30
0.0
  3
*D12
  1

  0
LINE
  5
413
330
412
100
AcDbEntity
  8
0
  6
ByBlock
 62
     7
370
    -2
100
AcDbLine
 10
1549.075503985957
 20
444.4068838745288
 30
0.0
 11
1549.075503985957
 21
456.3990255319613
 31
0.0
  0
LINE
  5
414
330
412
100
AcDbEntity
  8
0
  6
ByBlock
 62
     7
370
    -2
100
AcDbLine
 10
1692.368720783026
 20
444.4068838745288
 30
0.0
 11
1692.368720783026
 21
456.3990255319613
 31
0.0
  0
LINE
  5
415
330
412
100
AcDbEntity
  8
0
  6
ByBlock
 62
     7
370
    -2
100
AcDbLine
 10
1561.075503985957
 20
444.3990255319613
 30
0.0
 11
1680.368720783026
 21
444.3990255319613
 31
0.0
  0
INSERT
  5
416
330
412
100
AcDbEntity
  8
0
 62
     7
370
    -2
100
AcDbBlockReference
  2
TC_DIMARROW_FILLED30
 10
1549.075503985957
 20
444.3990255319613
 30
0.0
 41
12.0
 42
12.0
 43
12.0
 50
180.0
  0
INSERT
  5
417
330
412
100
AcDbEntity
  8
0
 62
     7
370
    -2
100
AcDbBlockReference
  2
TC_DIMARROW_FILLED30
 10
1692.368720783026
 20
444.3990255319613
 30
0.0
 41
12.0
 42
12.0
 43
12.0
  0
MTEXT
  5
418
330
412
100
AcDbEntity
  8
0
 62
     7
370
     0
100
AcDbMText
 10
1620.722112384492
 20
464.9284005860277
 30
0.0
 40
28.57253086419753
 41
0.0
 46
0.0
 71
     5
 72
     1
  1
\A1;12'-0"
 73
     1
 44
1.0
  0
POINT
  5
419
330
412
100
AcDbEntity
  8
Defpoints
 62
     0
100
AcDbPoint
 10
1549.075503985957
 20
438.4068838745288
 30
0.0
  0
POINT
  5
41A
330
412
100
AcDbEntity
  8
Defpoints
 62
     0
100
AcDbPoint
 10
1692.368720783026
 20
438.4068838745288
 30
0.0
  0
POINT
  5
41B
330
412
100
AcDbEntity
  8
Defpoints
 62
     0
100
AcDbPoint
 10
1692.368720783026
 20
444.3990255319613
 30
0.0
  0
ENDBLK
  5
41D
330
412
100
AcDbEntity
  8
0
100
AcDbBlockEnd
  0
BLOCK
  5
42C
330
421
100
AcDbEntity
  8
0
100
AcDbBlockBegin
  2
*D13
 70
     1
 10
0.0
 20
0.0
 30
0.0
  3
*D13
  1

  0
LINE
  5
422
330
421
100
AcDbEntity
  8
0
  6
ByBlock
 62
     7
370
    -2
100
AcDbLine
 10
285.1987612370849
 20
1822.479394659243
 30
0.0
 11
293.0207426951674
 21
1822.479394659243
 31
0.0
  0
LINE
  5
423
330
421
100
AcDbEntity
  8
0
  6
ByBlock
 62
     7
370
    -2
100
AcDbLine
 10
285.1987612370849
 20
1581.379099441065
 30
0.0
 11
293.0207426951674
 21
1581.379099441065
 31
0.0
  0
LINE
  5
424
330
421
100
AcDbEntity
  8
0
  6
ByBlock
 62
     7
370
    -2
100
AcDbLine
 10
281.0207426951674
 20
1810.479394659243
 30
0.0
 11
281.0207426951674
 21
1722.45862210422
 31
0.0
  0
LINE
  5
425
330
421
100
AcDbEntity
  8
0
  6
ByBlock
 62
     7
370
    -2
100
AcDbLine
 10
281.0207426951674
 20
1593.379099441065
 30
0.0
 11
281.0207426951674
 21
1681.399871996087
 31
0.0
  0
INSERT
  5
426
330
421
100
AcDbEntity
  8
0
 62
     7
370
    -2
100
AcDbBlockReference
  2
TC_DIMARROW_FILLED30
 10
281.0207426951674
 20
1822.479394659243
 30
0.0
 41
12.0
 42
12.0
 43
12.0
 50
90.0
  0
INSERT
  5
427
330
421
100
AcDbEntity
  8
0
 62
     7
370
    -2
100
AcDbBlockReference
  2
TC_DIMARROW_FILLED30
 10
281.0207426951674
 20
1581.379099441065
 30
0.0
 41
12.0
 42
12.0
 43
12.0
 50
270.0
  0
MTEXT
  5
428
330
421
100
AcDbEntity
  8
0
 62
     7
370
     0
100
AcDbMText
 10
281.0207426951674
 20
1701.929247050154
 30
0.0
 40
28.57253086419753
 41
0.0
 46
0.0
 71
     5
 72
     1
  1
\A1;20'-0"
 73
     1
 44
1.0
  0
POINT
  5
429
330
421
100
AcDbEntity
  8
Defpoints
 62
     0
100
AcDbPoint
 10
279.1987612370849
 20
1822.479394659243
 30
0.0
  0
POINT
  5
42A
330
421
100
AcDbEntity
  8
Defpoints
 62
     0
100
AcDbPoint
 10
279.1987612370849
 20
1581.379099441065
 30
0.0
  0
POINT
  5
42B
330
421
100
AcDbEntity
  8
Defpoints
 62
     0
100
AcDbPoint
 10
281.0207426951674
 20
1581.379099441065
 30
0.0
  0
ENDBLK
  5
42D
330
421
100
AcDbEntity
  8
0
100
AcDbBlockEnd
  0
BLOCK
  5
43C
330
431
100
AcDbEntity
  8
0
100
AcDbBlockBegin
  2
*D14
 70
     1
 10
0.0
 20
0.0
 30
0.0
  3
*D14
  1

  0
LINE
  5
432
330
431
100
AcDbEntity
  8
0
  6
ByBlock
 62
     7
370
    -2
100
AcDbLine
 10
2485.482393763895
 20
1014.608013585762
 30
0.0
 11
2479.146318004906
 21
1014.60801358576
 31
0.0
  0
LINE
  5
433
330
431
100
AcDbEntity
  8
0
  6
ByBlock
 62
     7
370
    -2
100
AcDbLine
 10
2485.146318004906
 20
1491.796041974061
 30
0.0
 11
2479.146318004906
 21
1491.796041974059
 31
0.0
  0
LINE
  5
434
330
431
100
AcDbEntity
  8
0
  6
ByBlock
 62
     7
370
    -2
100
AcDbLine
 10
2491.146318004906
 20
1026.608013585764
 30
0.0
 11
2491.146318004906
 21
1232.672652725847
 31
0.0
  0
LINE
  5
435
330
431
100
AcDbEntity
  8
0
  6
ByBlock
 62
     7
370
    -2
100
AcDbLine
 10
2491.146318004906
 20
1479.796041974063
 30
0.0
 11
2491.146318004906
 21
1273.73140283398
 31
0.0
  0
INSERT
  5
436
330
431
100
AcDbEntity
  8
0
 62
     7
370
    -2
100
AcDbBlockReference
  2
TC_DIMARROW_FILLED30
 10
2491.146318004906
 20
1014.608013585764
 30
0.0
 41
12.0
 42
12.0
 43
12.0
 50
270.0
  0
INSERT
  5
437
330
431
100
AcDbEntity
  8
0
 62
     7
370
    -2
100
AcDbBlockReference
  2
TC_DIMARROW_FILLED30
 10
2491.146318004906
 20
1491.796041974063
 30
0.0
 41
12.0
 42
12.0
 43
12.0
 50
90.0
  0
MTEXT
  5
438
330
431
100
AcDbEntity
  8
0
 62
     7
370
     0
100
AcDbMText
 10
2491.146318004906
 20
1253.202027779913
 30
0.0
 40
28.57253086419753
 41
0.0
 46
0.0
 71
     5
 72
     1
  1
\A1;40'-0"
 73
     1
 44
1.0
  0
POINT
  5
439
330
431
100
AcDbEntity
  8
Defpoints
 62
     0
100
AcDbPoint
 10
2491.482393763895
 20
1014.608013585764
 30
0.0
  0
POINT
  5
43A
330
431
100
AcDbEntity
  8
Defpoints
 62
     0
100
AcDbPoint
 10
2491.146318004906
 20
1491.796041974063
 30
0.0
  0
POINT
  5
43B
330
431
100
AcDbEntity
  8
Defpoints
 62
     0
100
AcDbPoint
 10
2491.146318004906
 20
1491.796041974063
 30
0.0
  0
ENDBLK
  5
43D
330
431
100
AcDbEntity
  8
0
100
AcDbBlockEnd
  0
ENDSEC
  0
SECTION
  2
ENTITIES
  0
LWPOLYLINE
  5
17B
330
1F
100
AcDbEntity
  8
0
  6
Continuous
 62
     7
370
     0
100
AcDbPolyline
 90
        2
 70
   128
 43
0.0
 10
2343.044634952366
 20
1490.428369365081
 10
2342.990249647287
 20
1824.681560324902
  0
LWPOLYLINE
  5
17C
330
1F
100
AcDbEntity
  8
0
  6
Continuous
 62
     7
370
     0
100
AcDbPolyline
 90
        2
 70
   128
 43
0.0
 10
2342.988772318721
 20
1833.761251909753
 10
2342.986800527305
 20
1845.879922281703
  0
LWPOLYLINE
  5
17D
330
1F
100
AcDbEntity
  8
0
  6
Continuous
 62
     7
370
     0
100
AcDbPolyline
 90
        2
 70
   128
 43
0.0
 10
2342.98533616511
 20
1854.879922281703
 10
2342.9444225874
 20
2106.33560777535
  0
LWPOLYLINE
  5
17E
330
1F
100
AcDbEntity
  8
0
  6
Continuous
 62
     7
370
     0
100
AcDbPolyline
 90
        2
 70
   128
 43
0.0
 10
2342.942945258835
 20
2115.415299360201
 10
2342.941964744065
 20
2121.441569697089
  0
LWPOLYLINE
  5
17F
330
1F
100
AcDbEntity
  8
0
  6
Continuous
 62
     7
370
     0
100
AcDbPolyline
 90
        2
 70
   128
 43
0.0
 10
2351.941964863196
 20
2121.441569697089
 10
2351.942945380083
 20
2115.415299360201
  0
LWPOLYLINE
  5
180
330
1F
100
AcDbEntity
  8
0
  6
Continuous
 62
     7
370
     0
100
AcDbPolyline
 90
        2
 70
   128
 43
0.0
 10
2351.944422708651
 20
2106.33560777535
 10
2352.019736424078
 20
1643.45597221972
  0
LWPOLYLINE
  5
181
330
1F
100
AcDbEntity
  8
0
  6
Continuous
 62
     7
370
     0
100
AcDbPolyline
 90
        2
 70
   129
 43
0.0
 10
2352.021213752644
 20
1634.376280634868
 10
2352.044635071497
 20
1490.428369365081
  0
LWPOLYLINE
  5
182
330
1F
100
AcDbEntity
  8
0
  6
Continuous
 62
     7
370
     0
100
AcDbPolyline
 90
        4
 70
   128
 43
0.0
 10
2343.203380986248
 20
514.7719979935018
 10
2343.122296170469
 20
1013.120934353183
 10
2352.1222962896
 20
1013.120934353183
 10
2352.123105794851
 20
1008.145698909305
  0
LWPOLYLINE
  5
183
330
1F
100
AcDbEntity
  8
0
  6
Continuous
 62
     7
370
     0
100
AcDbPolyline
 90
        2
 70
   128
 43
0.0
 10
2352.124570157103
 20
999.1456989093049
 10
2352.148375146658
 20
852.8397519461814
  0
LWPOLYLINE
  5
184
330
1F
100
AcDbEntity
  8
0
  6
Continuous
 62
     7
370
     0
100
AcDbPolyline
 90
        2
 70
   128
 43
0.0
 10
2352.149852475225
 20
843.7600603613291
 10
2352.203381105379
 20
514.7719979935018
  0
LWPOLYLINE
  5
185
330
1F
100
AcDbEntity
  8
0
  6
Continuous
 62
     7
370
     0
100
AcDbPolyline
 90
        2
 70
   128
 43
0.0
 10
1378.980912132957
 20
505.7719979935018
 10
1370.156329222026
 20
505.7719979935018
  0
LWPOLYLINE
  5
186
330
1F
100
AcDbEntity
  8
0
  6
Continuous
 62
     7
370
     0
100
AcDbPolyline
 90
        2
 70
   128
 43
0.0
 10
1364.156329222026
 20
505.7719979935018
 10
686.1827557640507
 20
505.7719979935018
  0
LWPOLYLINE
  5
187
330
1F
100
AcDbEntity
  8
0
  6
Continuous
 62
     7
370
     0
100
AcDbPolyline
 90
        2
 70
   128
 43
0.0
 10
686.1827557640507
 20
514.7719979935018
 10
716.9244695732676
 20
514.7719979935018
  0
LWPOLYLINE
  5
188
330
1F
100
AcDbEntity
  8
0
  6
Continuous
 62
     7
370
     0
100
AcDbPolyline
 90
        3
 70
   128
 43
0.0
 10
725.9641433501555
 20
514.7719979935018
 10
1378.980912132957
 20
514.7719979935018
 10
1378.980912132957
 20
505.7719979935018
  0
LWPOLYLINE
  5
189
330
1F
100
AcDbEntity
  8
0
  6
Continuous
 62
     7
370
     0
100
AcDbPolyline
 90
        4
 70
   129
 43
0.0
 10
1548.973052373372
 20
505.7719979935018
 10
1415.865999166029
 20
505.7719979935018
 10
1415.865999166029
 20
514.7719979935018
 10
1548.973052373372
 20
514.7719979935018
  0
LWPOLYLINE
  5
18A
330
1F
100
AcDbEntity
  8
0
  6
Continuous
 62
     7
370
     0
100
AcDbPolyline
 90
        4
 70
   128
 43
0.0
 10
2371.67086309322
 20
505.7719979935018
 10
2336.790400333653
 20
505.7719979935018
 10
2336.790400333653
 20
514.7719979935018
 10
2343.203380986248
 20
514.7719979935018
  0
LWPOLYLINE
  5
18B
330
1F
100
AcDbEntity
  8
0
  6
Continuous
 62
     7
370
     0
100
AcDbPolyline
 90
        2
 70
   128
 43
0.0
 10
2352.247902736774
 20
514.7719979935018
 10
2371.67086309322
 20
514.7719979935018
  0
LWPOLYLINE
  5
18C
330
1F
100
AcDbEntity
  8
0
  6
Continuous
 62
     7
370
     0
100
AcDbPolyline
 90
        4
 70
   129
 43
0.0
 10
2299.905313300583
 20
505.7719979935018
 10
1692.504151915106
 20
505.7719979935018
 10
1692.504151915106
 20
514.7719979935018
 10
2299.905313300583
 20
514.7719979935018
  0
LWPOLYLINE
  5
18D
330
1F
100
AcDbEntity
  8
0
  6
Continuous
 62
     7
370
     0
100
AcDbPolyline
 90
        4
 70
   128
 43
0.0
 10
2342.986800527305
 20
1845.879922281703
 10
2290.995480565663
 20
1845.879922281704
 10
2290.995480565663
 20
1854.879922281704
 10
2342.98533616511
 20
1854.879922281703
  0
LWPOLYLINE
  5
18E
330
1F
100
AcDbEntity
  8
0
  6
Continuous
 62
     7
370
     0
100
AcDbPolyline
 90
        2
 70
   128
 43
0.0
 10
2254.110393532591
 20
1845.879922281704
 10
2209.918832485972
 20
1845.879922281704
  0
LWPOLYLINE
  5
18F
330
1F
100
AcDbEntity
  8
0
  6
Continuous
 62
     7
370
     0
100
AcDbPolyline
 90
        2
 70
   129
 43
0.0
 10
2218.918832485972
 20
1854.879922281704
 10
2254.110393532591
 20
1854.879922281704
  0
LWPOLYLINE
  5
190
330
1F
100
AcDbEntity
  8
0
  6
Continuous
 62
     7
370
     0
100
AcDbPolyline
 90
        2
 70
   128
 43
0.0
 10
2209.912482423474
 20
1845.894956505048
 10
2209.912482423474
 20
2121.44165166873
  0
LWPOLYLINE
  5
191
330
1F
100
AcDbEntity
  8
0
  6
Continuous
 62
     7
370
     0
100
AcDbPolyline
 90
        2
 70
   128
 43
0.0
 10
2218.912482423474
 20
2121.44165166873
 10
2218.912482423474
 20
1854.894956505048
  0
LWPOLYLINE
  5
192
330
1F
100
AcDbEntity
  8
0
  6
Continuous
 62
     7
370
     0
100
AcDbPolyline
 90
        2
 70
   128
 43
0.0
 10
1290.825771012557
 20
2121.44165166873
 10
1290.825771012557
 20
2037.56966456891
  0
LWPOLYLINE
  5
193
330
1F
100
AcDbEntity
  8
0
  6
Continuous
 62
     7
370
     0
100
AcDbPolyline
 90
        2
 70
   128
 43
0.0
 10
1281.825771012557
 20
2046.56966456891
 10
1281.825771012557
 20
2121.44165166873
  0
LWPOLYLINE
  5
194
330
1F
100
AcDbEntity
  8
0
  6
Continuous
 62
     7
370
     0
100
AcDbPolyline
 90
        4
 70
   128
 43
0.0
 10
1036.240920720876
 20
2046.574417109041
 10
1049.446896068052
 20
2046.574417109041
 10
1049.446896068052
 20
2037.574417109041
 10
1027.240920720876
 20
2037.574417109041
  0
LWPOLYLINE
  5
195
330
1F
100
AcDbEntity
  8
0
  6
Continuous
 62
     7
370
     0
100
AcDbPolyline
 90
        2
 70
   128
 43
0.0
 10
1086.331983101124
 20
2046.574417109041
 10
1281.828206195419
 20
2046.574417109041
  0
LWPOLYLINE
  5
196
330
1F
100
AcDbEntity
  8
0
  6
Continuous
 62
     7
370
     0
100
AcDbPolyline
 90
        2
 70
   129
 43
0.0
 10
1290.828206195419
 20
2037.574417109041
 10
1086.331983101124
 20
2037.574417109041
  0
LWPOLYLINE
  5
197
330
1F
100
AcDbEntity
  8
0
  6
Continuous
 62
     7
370
     0
100
AcDbPolyline
 90
        2
 70
   128
 43
0.0
 10
1036.238485538014
 20
2121.44165166873
 10
1036.238485538014
 20
2046.56966456891
  0
LWPOLYLINE
  5
198
330
1F
100
AcDbEntity
  8
0
  6
Continuous
 62
     7
370
     0
100
AcDbPolyline
 90
        2
 70
   128
 43
0.0
 10
1027.238485538014
 20
2037.56966456891
 10
1027.238485538014
 20
2121.44165166873
  0
LWPOLYLINE
  5
199
330
1F
100
AcDbEntity
  8
0
  6
Continuous
 62
     7
370
     0
100
AcDbPolyline
 90
        2
 70
   128
 43
0.0
 10
437.7764293800237
 20
2121.44165166873
 10
437.7764293800237
 20
1916.864634581882
  0
LWPOLYLINE
  5
19A
330
1F
100
AcDbEntity
  8
0
  6
Continuous
 62
     7
370
     0
100
AcDbPolyline
 90
        2
 70
   128
 43
0.0
 10
428.7764293800237
 20
1925.864634581882
 10
428.7764293800237
 20
2121.44165166873
  0
LWPOLYLINE
  5
19B
330
1F
100
AcDbEntity
  8
0
  6
Continuous
 62
     7
370
     0
100
AcDbPolyline
 90
        4
 70
   128
 43
0.0
 10
437.7764293800237
 20
1916.864634581882
 10
422.2099674180017
 20
1916.864634581882
 10
422.2099674180017
 20
1925.864634581882
 10
428.7764293800237
 20
1925.864634581882
  0
LWPOLYLINE
  5
19C
330
1F
100
AcDbEntity
  8
0
  6
Continuous
 62
     7
370
     0
100
AcDbPolyline
 90
        2
 70
   128
 43
0.0
 10
385.3248803849301
 20
1916.864634581882
 10
382.608232921938
 20
1916.864634581882
  0
LWPOLYLINE
  5
19D
330
1F
100
AcDbEntity
  8
0
  6
Continuous
 62
     7
370
     0
100
AcDbPolyline
 90
        2
 70
   128
 43
0.0
 10
373.608232921938
 20
1916.864634581882
 10
335.5026765919347
 20
1916.864634581882
  0
LWPOLYLINE
  5
19E
330
1F
100
AcDbEntity
  8
0
  6
Continuous
 62
     7
370
     0
100
AcDbPolyline
 90
        2
 70
   129
 43
0.0
 10
335.5026765919347
 20
1925.864634581882
 10
385.3248803849301
 20
1925.864634581882
  0
LWPOLYLINE
  5
19F
330
1F
100
AcDbEntity
  8
0
  6
Continuous
 62
     7
370
     0
100
AcDbPolyline
 90
        4
 70
   128
 43
0.0
 10
382.608232921938
 20
1916.864634581882
 10
382.608232921938
 20
1906.179605520447
 10
373.608232921938
 20
1906.179605520447
 10
373.608232921938
 20
1916.864634581882
  0
LWPOLYLINE
  5
1A0
330
1F
100
AcDbEntity
  8
0
  6
Continuous
 62
     7
370
     0
100
AcDbPolyline
 90
        2
 70
   128
 43
0.0
 10
382.608232921938
 20
1869.695443346431
 10
382.608232921938
 20
1852.716657111412
  0
LWPOLYLINE
  5
1A1
330
1F
100
AcDbEntity
  8
0
  6
Continuous
 62
     7
370
     0
100
AcDbPolyline
 90
        2
 70
   129
 43
0.0
 10
373.608232921938
 20
1861.716657111412
 10
373.608232921938
 20
1869.695443346431
  0
LWPOLYLINE
  5
1A2
330
1F
100
AcDbEntity
  8
0
  6
Continuous
 62
     7
370
     0
100
AcDbPolyline
 90
        2
 70
   128
 43
0.0
 10
382.608232921938
 20
1852.716657111412
 10
335.5026765919347
 20
1852.716657111412
  0
LWPOLYLINE
  5
1A3
330
1F
100
AcDbEntity
  8
0
  6
Continuous
 62
     7
370
     0
100
AcDbPolyline
 90
        2
 70
   128
 43
0.0
 10
335.5026765919347
 20
1861.716657111412
 10
373.608232921938
 20
1861.716657111412
  0
LWPOLYLINE
  5
1A4
330
1F
100
AcDbEntity
  8
0
  6
Continuous
 62
     7
370
     0
100
AcDbPolyline
 90
        2
 70
   128
 43
0.0
 10
335.5037148376368
 20
1145.769004553091
 10
444.8822419795351
 20
1145.769004553091
  0
LWPOLYLINE
  5
1A5
330
1F
100
AcDbEntity
  8
0
  6
Continuous
 62
     7
370
     0
100
AcDbPolyline
 90
        2
 70
   128
 43
0.0
 10
435.8822419795351
 20
1136.769004553091
 10
335.5037148376368
 20
1136.769004553091
  0
LWPOLYLINE
  5
1A6
330
1F
100
AcDbEntity
  8
0
  6
Continuous
 62
     7
370
     0
100
AcDbPolyline
 90
        4
 70
   128
 43
0.0
 10
449.8969727901012
 20
1145.016794931506
 10
449.8969727901012
 20
1127.457547265845
 10
440.8969727901012
 20
1127.457547265845
 10
440.8969727901012
 20
1136.016794931506
  0
LWPOLYLINE
  5
1A7
330
1F
100
AcDbEntity
  8
0
  6
Continuous
 62
     7
370
     0
100
AcDbPolyline
 90
        2
 70
   128
 43
0.0
 10
449.8969727901012
 20
1091.374309950885
 10
449.8969727901012
 20
612.2085831475051
  0
LWPOLYLINE
  5
1A8
330
1F
100
AcDbEntity
  8
0
  6
Continuous
 62
     7
370
     0
100
AcDbPolyline
 90
        2
 70
   128
 43
0.0
 10
449.8969727901012
 20
603.2085831475051
 10
449.8969727901012
 20
514.7377275430999
  0
LWPOLYLINE
  5
1A9
330
1F
100
AcDbEntity
  8
0
  6
Continuous
 62
     7
370
     0
100
AcDbPolyline
 90
        2
 70
   129
 43
0.0
 10
440.8969727901012
 20
514.7377275430999
 10
440.8969727901012
 20
1091.374309950885
  0
LWPOLYLINE
  5
1AA
330
1F
100
AcDbEntity
  8
0
  6
Continuous
 62
     7
370
     0
100
AcDbPolyline
 90
        2
 70
   128
 43
0.0
 10
725.9244695732677
 20
642.0035895900828
 10
725.9244695732676
 20
514.7719979935018
  0
LWPOLYLINE
  5
1AB
330
1F
100
AcDbEntity
  8
0
  6
Continuous
 62
     7
370
     0
100
AcDbPolyline
 90
        2
 70
   128
 43
0.0
 10
716.9244695732676
 20
514.7719979935018
 10
716.9244695732677
 20
633.0035895900829
  0
SOLID
  5
1AE
102
{ACAD_XDICTIONARY
360
1AC
102
}
330
1F
100
AcDbEntity
  8
0
  6
Continuous
 62
     7
100
AcDbTrace
 10
1801.319519259965
 20
964.8255451718351
 30
0.0
 11
1812.023259615
 21
964.8255451758732
 31
0.0
 12
1801.319519255318
 22
977.1445034030803
 32
0.0
 13
1812.023259610353
 23
977.1445034071185
 33
0.0
  0
LWPOLYLINE
  5
1B1
102
{ACAD_XDICTIONARY
360
1AF
102
}
330
1F
100
AcDbEntity
  8
0
  6
Continuous
 62
     7
370
     0
100
AcDbPolyline
 90
        4
 70
   129
 43
0.0
 10
336.0046974065908
 20
1332.872630111589
 10
336.0046974065908
 20
1584.25251673915
 10
340.4148708561961
 20
1584.25251673915
 10
340.4148708561961
 20
1332.872630111589
  0
LWPOLYLINE
  5
1B4
102
{ACAD_XDICTIONARY
360
1B2
102
}
330
1F
100
AcDbEntity
  8
0
  6
Continuous
 62
     7
370
     0
100
AcDbPolyline
 90
        4
 70
   129
 43
0.0
 10
330.2259161885513
 20
1869.774097618993
 10
312.323617134628
 20
1901.103120963357
 10
314.0641184315382
 20
1902.097693133019
 10
331.9664174854615
 20
1870.768669788655
  0
ARC
  5
1B7
102
{ACAD_XDICTIONARY
360
1B5
102
}
330
1F
100
AcDbEntity
  8
0
  6
$MARGINS
 62
     7
370
     0
100
AcDbCircle
 10
330.5644393561151
 20
1869.698438598967
 30
0.0
 40
36.11885749867361
100
AcDbArc
 50
90.0
 51
130.32583628887
  0
LWPOLYLINE
  5
1BA
102
{ACAD_XDICTIONARY
360
1B8
102
}
330
1F
100
AcDbEntity
  8
0
  6
Continuous
 62
     7
370
     0
100
AcDbPolyline
 90
        4
 70
   129
 43
0.0
 10
378.2973401224872
 20
1905.962118910405
 10
360.3950410685657
 20
1874.633095566041
 10
362.1355423654741
 20
1873.638523396379
 10
380.0378414193974
 20
1904.967546740743
  0
ARC
  5
1BD
102
{ACAD_XDICTIONARY
360
1BB
102
}
330
1F
100
AcDbEntity
  8
0
  6
$MARGINS
 62
     7
370
     0
100
AcDbCircle
 10
378.635863290051
 20
1906.037777930431
 30
0.0
 40
36.11885749867339
100
AcDbArc
 50
229.6741637111325
 51
270.0
  0
LWPOLYLINE
  5
1C0
102
{ACAD_XDICTIONARY
360
1BE
102
}
330
1F
100
AcDbEntity
  8
0
  6
Continuous
 62
     7
370
     0
100
AcDbPolyline
 90
        4
 70
   129
 43
0.0
 10
385.711626880161
 20
1919.235501234507
 10
417.0406502120486
 20
1901.333202158752
 10
418.0352223829241
 20
1903.073703454969
 10
386.7061990510365
 20
1920.976002530724
  0
ARC
  5
1C3
102
{ACAD_XDICTIONARY
360
1C1
102
}
330
1F
100
AcDbEntity
  8
0
  6
$MARGINS
 62
     7
370
     0
100
AcDbCircle
 10
386.4047223867628
 20
1919.626284475034
 30
0.0
 40
36.11885749867437
100
AcDbArc
 50
319.6741636711998
 51
0.0
  0
LWPOLYLINE
  5
1C6
102
{ACAD_XDICTIONARY
360
1C4
102
}
330
1F
100
AcDbEntity
  8
0
  6
Continuous
 62
     7
370
     0
100
AcDbPolyline
 90
        4
 70
   129
 43
0.0
 10
591.5691145836963
 20
2121.124197184911
 10
591.5691145836963
 20
2118.317723171524
 10
724.275242930943
 20
2118.317723171524
 10
724.275242930943
 20
2121.124197184911
  0
LWPOLYLINE
  5
1C9
102
{ACAD_XDICTIONARY
360
1C7
102
}
330
1F
100
AcDbEntity
  8
0
  6
Continuous
 62
     7
370
     0
100
AcDbPolyline
 90
        4
 70
   129
 43
0.0
 10
591.3686521418194
 20
2133.753330213233
 10
591.3686521418194
 20
2130.946856199846
 10
724.0747804890661
 20
2130.946856199846
 10
724.0747804890661
 20
2133.753330213233
  0
LWPOLYLINE
  5
1CC
102
{ACAD_XDICTIONARY
360
1CA
102
}
330
1F
100
AcDbEntity
  8
0
  6
Continuous
 62
     7
370
     0
100
AcDbPolyline
 90
        4
 70
   129
 43
0.0
 10
442.7426424980504
 20
1127.524269112329
 10
424.8403434336606
 20
1096.195245773944
 10
426.5808447302397
 20
1095.200673603702
 10
444.4831437946259
 20
1126.529696942085
  0
ARC
  5
1CF
102
{ACAD_XDICTIONARY
360
1CD
102
}
330
1F
100
AcDbEntity
  8
0
  6
$MARGINS
 62
     7
370
     0
100
AcDbCircle
 10
443.0811656656397
 20
1127.599928132241
 30
0.0
 40
36.11885749867348
100
AcDbArc
 50
229.6741636919927
 51
270.0
  0
LWPOLYLINE
  5
1D2
102
{ACAD_XDICTIONARY
360
1D0
102
}
330
1F
100
AcDbEntity
  8
0
  6
Continuous
 62
     7
370
     0
100
AcDbPolyline
 90
        4
 70
   129
 43
0.0
 10
554.9382224469126
 20
637.2623641702858
 10
586.2672457788002
 20
619.3600650945309
 10
587.2618179496757
 20
621.1005663907463
 10
555.9327946177863
 20
639.0028654665011
  0
ARC
  5
1D5
102
{ACAD_XDICTIONARY
360
1D3
102
}
330
1F
100
AcDbEntity
  8
0
  6
$MARGINS
 62
     7
370
     0
100
AcDbCircle
 10
554.8625634271201
 20
637.6008873379023
 30
0.0
 40
36.11885749867381
100
AcDbArc
 50
319.6741636712048
 51
0.0
  0
LWPOLYLINE
  5
1D8
102
{ACAD_XDICTIONARY
360
1D6
102
}
330
1F
100
AcDbEntity
  8
0
  6
Continuous
 62
     7
370
     0
100
AcDbPolyline
 90
        4
 70
   129
 43
0.0
 10
1050.106641375912
 20
2042.560166452631
 10
1081.435664707801
 20
2060.462465528386
 10
1082.430236878677
 20
2058.721964232171
 10
1051.101213546787
 20
2040.819665156416
  0
ARC
  5
1DB
102
{ACAD_XDICTIONARY
360
1D9
102
}
330
1F
100
AcDbEntity
  8
0
  6
$MARGINS
 62
     7
370
     0
100
AcDbCircle
 10
1050.030982356123
 20
2042.221643285015
 30
0.0
 40
36.11885749867361
100
AcDbArc
 50
0.0
 51
40.32583632879723
  0
LWPOLYLINE
  5
1DE
102
{ACAD_XDICTIONARY
360
1DC
102
}
330
1F
100
AcDbEntity
  8
0
  6
Continuous
 62
     7
370
     0
100
AcDbPolyline
 90
        4
 70
   129
 43
0.0
 10
1379.440195011318
 20
508.6156000338378
 10
1410.769218343207
 20
490.713300958083
 10
1411.763790514081
 20
492.4538022542993
 10
1380.434767182193
 20
510.3561013300541
  0
ARC
  5
1E1
102
{ACAD_XDICTIONARY
360
1DF
102
}
330
1F
100
AcDbEntity
  8
0
  6
$MARGINS
 62
     7
370
     0
100
AcDbCircle
 10
1379.364535991529
 20
508.9541232014553
 30
0.0
 40
36.11885749867386
100
AcDbArc
 50
319.6741636712026
 51
0.0
  0
LWPOLYLINE
  5
1E4
102
{ACAD_XDICTIONARY
360
1E2
102
}
330
1F
100
AcDbEntity
  8
0
  6
Continuous
 62
     7
370
     0
100
AcDbPolyline
 90
        4
 70
   129
 43
0.0
 10
2254.231396061156
 20
1851.456600205675
 10
2285.560419393044
 20
1869.35889928143
 10
2286.554991563919
 20
1867.618397985215
 10
2255.225968232032
 20
1849.71609890946
  0
ARC
  5
1E7
102
{ACAD_XDICTIONARY
360
1E5
102
}
330
1F
100
AcDbEntity
  8
0
  6
$MARGINS
 62
     7
370
     0
100
AcDbCircle
 10
2254.155737041368
 20
1851.118077038059
 30
0.0
 40
36.11885749867361
100
AcDbArc
 50
0.0
 51
40.32583632879926
  0
LWPOLYLINE
  5
1EA
102
{ACAD_XDICTIONARY
360
1E8
102
}
330
1F
100
AcDbEntity
  8
0
  6
Continuous
 62
     7
370
     0
100
AcDbPolyline
 90
        4
 70
   129
 43
0.0
 10
2336.470439156946
 20
509.1624310488196
 10
2305.141415825056
 20
491.2601319730647
 10
2304.146843654181
 20
493.0006332692801
 10
2335.47586698607
 20
510.902932345035
  0
ARC
  5
1ED
102
{ACAD_XDICTIONARY
360
1EB
102
}
330
1F
100
AcDbEntity
  8
0
  6
$MARGINS
 62
     7
370
     0
100
AcDbCircle
 10
2336.546098176736
 20
509.5009542164362
 30
0.0
 40
36.11885749867361
100
AcDbArc
 50
180.0
 51
220.3258363287952
  0
LWPOLYLINE
  5
1F0
102
{ACAD_XDICTIONARY
360
1EE
102
}
330
1F
100
AcDbEntity
  8
0
  6
Continuous
 62
     7
370
     0
100
AcDbPolyline
 90
        4
 70
   129
 43
0.0
 10
2342.702706816798
 20
779.0522786441816
 10
2342.702706816798
 20
1019.607194077254
 10
2337.891608508137
 20
1019.607194077254
 10
2337.891608508137
 20
779.0522786441816
  0
LWPOLYLINE
  5
1F3
102
{ACAD_XDICTIONARY
360
1F1
102
}
330
1F
100
AcDbEntity
  8
0
  6
Continuous
 62
     7
370
     0
100
AcDbPolyline
 90
        4
 70
   129
 43
0.0
 10
2342.702706816798
 20
1478.065696458956
 10
2342.702706816798
 20
1718.620611892029
 10
2337.891608508137
 20
1718.620611892029
 10
2337.891608508137
 20
1478.065696458956
  0
LWPOLYLINE
  5
1F6
102
{ACAD_XDICTIONARY
360
1F4
102
}
330
1F
100
AcDbEntity
  8
0
  6
Continuous
 62
     7
370
     0
100
AcDbPolyline
 90
        4
 70
   129
 43
0.0
 10
1688.433010672358
 20
515.4705195142587
 10
1688.433010672358
 20
518.6779183867002
 10
1840.383532254248
 20
518.6779183867002
 10
1840.383532254248
 20
515.4705195142587
  0
TEXT
  5
1FA
102
{ACAD_XDICTIONARY
360
1F8
102
}
330
1F
100
AcDbEntity
  8
0
  6
Continuous
 62
     7
100
AcDbText
 10
360.97147791649
 20
1867.51123347219
 30
0.0
 40
15.33333333333333
  1
EXIT
 50
90.0
  7
_TCW_TXTSTY_1
 11
345.6381445831566
 21
1867.51123347219
 31
0.0
100
AcDbText
 73
     3
  0
TEXT
  5
1FE
102
{ACAD_XDICTIONARY
360
1FC
102
}
330
1F
100
AcDbEntity
  8
0
  6
Continuous
 62
     7
100
AcDbText
 10
551.6993222349896
 20
606.2853231918375
 30
0.0
 40
15.33333333333333
  1
EXIT
 50
0.4526895332921325
  7
_TCW_TXTSTY_2
 11
551.5781760117884
 21
621.6181779392
 31
0.0
100
AcDbText
 73
     3
  0
TEXT
  5
201
102
{ACAD_XDICTIONARY
360
1FF
102
}
330
1F
100
AcDbEntity
  8
0
  6
Continuous
 62
     7
100
AcDbText
 10
1379.330551598052
 20
475.5894952989864
 30
0.0
 40
15.33333333333333
  1
EXIT
 50
-0.2321292259195371
  7
_TCW_TXTSTY_2
 11
1379.392673190438
 21
490.922702791839
 31
0.0
100
AcDbText
 73
     3
  0
TEXT
  5
204
102
{ACAD_XDICTIONARY
360
202
102
}
330
1F
100
AcDbEntity
  8
0
  6
Continuous
 62
     7
100
AcDbText
 10
2296.734971112668
 20
482.1676680616247
 30
0.0
 40
15.33333333333333
  1
EXIT
 50
0.2897765715068499
  7
_TCW_TXTSTY_2
 11
2296.657422262495
 21
497.5008052907422
 31
0.0
100
AcDbText
 73
     3
  0
TEXT
  5
208
102
{ACAD_XDICTIONARY
360
206
102
}
330
1F
100
AcDbEntity
  8
0
  6
Continuous
 62
     7
100
AcDbText
 10
395.7413691352549
 20
738.7096903455013
 30
0.0
 40
23.0
  1
ELECTRICAL CLOSET
 50
90.0
  7
_TCW_TXTSTY_3
 11
372.7413691352549
 21
738.7096903455013
 31
0.0
100
AcDbText
 73
     3
  0
MTEXT
  5
20B
102
{ACAD_XDICTIONARY
360
209
102
}
330
1F
100
AcDbEntity
  8
0
  6
Continuous
 62
     7
100
AcDbMText
 10
1072.283697223312
 20
2115.872319409134
 30
0.0
 40
23.0
 41
0.0
 46
0.0
 71
     1
 72
     1
  1
ELECTRICAL\P  CLOSET
  7
_TCW_TXTSTY_3
 11
0.9999997198717278
 21
-0.0007485028163498837
 31
0.0
 73
     1
 44
1.0
  0
TEXT
  5
20E
102
{ACAD_XDICTIONARY
360
20C
102
}
330
1F
100
AcDbEntity
  8
0
  6
Continuous
 62
     7
100
AcDbText
 10
392.0768832533677
 20
1963.029764104885
 30
0.0
 40
23.0
  1
STORAGE
 50
90.0
  7
_TCW_TXTSTY_3
 11
369.0768832533677
 21
1963.029764104885
 31
0.0
100
AcDbText
 73
     3
  0
TEXT
  5
211
102
{ACAD_XDICTIONARY
360
20F
102
}
330
1F
100
AcDbEntity
  8
0
  6
Continuous
 62
     7
100
AcDbText
 10
2289.07815797632
 20
1916.759665137305
 30
0.0
 40
23.0
  1
LOCK-UP
 50
90.0
  7
_TCW_TXTSTY_3
 11
2266.07815797632
 21
1916.759665137305
 31
0.0
100
AcDbText
 73
     3
  0
LWPOLYLINE
  5
212
330
1F
100
AcDbEntity
  8
0
  6
Continuous
 62
     7
370
     0
100
AcDbPolyline
 90
        2
 70
   128
 43
0.0
 10
335.5026765919347
 20
1581.397519728437
 10
335.5026765919347
 20
514.7377275430999
  0
LWPOLYLINE
  5
213
330
1F
100
AcDbEntity
  8
0
  6
Continuous
 62
     7
370
     0
100
AcDbPolyline
 90
        2
 70
   129
 43
0.0
 10
326.5026765919347
 20
505.7377275430999
 10
326.5026765919347
 20
1581.397519728437
  0
LWPOLYLINE
  5
214
330
1F
100
AcDbEntity
  8
0
  6
Continuous
 62
     7
370
     0
100
AcDbPolyline
 90
        2
 70
   128
 43
0.0
 10
335.5026765919347
 20
2121.34036330331
 10
335.5026765919347
 20
1925.864634581882
  0
LWPOLYLINE
  5
215
330
1F
100
AcDbEntity
  8
0
  6
Continuous
 62
     7
370
     0
100
AcDbPolyline
 90
        4
 70
   128
 43
0.0
 10
335.5026765919347
 20
1916.864634581882
 10
335.5026765919347
 20
1906.194865832887
 10
326.5026765919347
 20
1906.194865832887
 10
326.5026765919347
 20
2121.34036330331
  0
LWPOLYLINE
  5
216
330
1F
100
AcDbEntity
  8
0
  6
Continuous
 62
     7
370
     0
100
AcDbPolyline
 90
        2
 70
   128
 43
0.0
 10
335.5026765919347
 20
1869.666381590998
 10
335.5026765919347
 20
1861.716657111412
  0
LWPOLYLINE
  5
217
330
1F
100
AcDbEntity
  8
0
  6
Continuous
 62
     7
370
     0
100
AcDbPolyline
 90
        4
 70
   129
 43
0.0
 10
335.5026765919347
 20
1852.716657111412
 10
335.5026765919347
 20
1822.105450570944
 10
326.5026765919347
 20
1822.105450570944
 10
326.5026765919347
 20
1869.666381590998
  0
LWPOLYLINE
  5
218
330
1F
100
AcDbEntity
  8
0
  6
Continuous
 62
     7
370
     0
100
AcDbPolyline
 90
        4
 70
   128
 43
0.0
 10
449.9366465669891
 20
642.0035895900828
 10
555.0591531774816
 20
642.0035895900828
 10
555.0591531774816
 20
633.0035895900828
 10
449.9366465669891
 20
633.0035895900828
  0
LWPOLYLINE
  5
219
330
1F
100
AcDbEntity
  8
0
  6
Continuous
 62
     7
370
     0
100
AcDbPolyline
 90
        2
 70
   128
 43
0.0
 10
591.042159277681
 20
642.0035895900828
 10
725.9244695732677
 20
642.0035895900828
  0
LWPOLYLINE
  5
21A
330
1F
100
AcDbEntity
  8
0
  6
Continuous
 62
     7
370
     0
100
AcDbPolyline
 90
        2
 70
   129
 43
0.0
 10
716.9244695732676
 20
633.0035895900828
 10
591.042159277681
 20
633.0035895900828
  0
SOLID
  5
21D
102
{ACAD_XDICTIONARY
360
21B
102
}
330
1F
100
AcDbEntity
  8
0
  6
Continuous
 62
     7
100
AcDbTrace
 10
1223.273694421893
 20
964.9047589879358
 30
0.0
 11
1233.977434776927
 21
964.904758991974
 31
0.0
 12
1223.273694417247
 22
977.2237172191801
 32
0.0
 13
1233.977434772282
 23
977.2237172232183
 33
0.0
  0
SOLID
  5
220
102
{ACAD_XDICTIONARY
360
21E
102
}
330
1F
100
AcDbEntity
  8
0
  6
Continuous
 62
     7
100
AcDbTrace
 10
1222.474981040144
 20
1545.14379451267
 30
0.0
 11
1233.178721395178
 21
1545.143794516708
 31
0.0
 12
1222.474981035494
 22
1557.462752743915
 32
0.0
 13
1233.178721390529
 23
1557.462752747953
 33
0.0
  0
SOLID
  5
223
102
{ACAD_XDICTIONARY
360
221
102
}
330
1F
100
AcDbEntity
  8
0
  6
Continuous
 62
     7
100
AcDbTrace
 10
1800.718840418464
 20
1545.223008328771
 30
0.0
 11
1811.422580773501
 21
1545.223008332809
 31
0.0
 12
1800.718840413816
 22
1557.541966560016
 32
0.0
 13
1811.422580768851
 23
1557.541966564054
 33
0.0
  0
SOLID
  5
226
102
{ACAD_XDICTIONARY
360
224
102
}
330
1F
100
AcDbEntity
  8
0
  6
Continuous
 62
     7
100
AcDbTrace
 10
644.386110360045
 20
1545.838674386584
 30
0.0
 11
655.0898507150798
 21
1545.838674390622
 31
0.0
 12
644.3861103553957
 22
1558.157632617829
 32
0.0
 13
655.0898507104305
 23
1558.157632621867
 33
0.0
  0
SOLID
  5
229
102
{ACAD_XDICTIONARY
360
227
102
}
330
1F
100
AcDbEntity
  8
0
  6
Continuous
 62
     7
100
AcDbTrace
 10
645.0263961095943
 20
965.4808181377009
 30
0.0
 11
655.7301364646291
 21
965.4808181417391
 31
0.0
 12
645.026396104945
 22
977.7997763689452
 32
0.0
 13
655.7301364599798
 23
977.7997763729834
 33
0.0
  0
LWPOLYLINE
  5
22C
102
{ACAD_XDICTIONARY
360
22A
102
}
330
1F
100
AcDbEntity
  8
0
  6
Continuous
 62
     7
370
     0
100
AcDbPolyline
 90
        4
 70
   129
 43
0.0
 10
493.5054659708612
 20
507.862489175689
 10
524.8344893027505
 20
489.9601900999342
 10
525.8290614736242
 20
491.7006913961495
 10
494.5000381417348
 20
509.6029904719044
  0
ARC
  5
22F
102
{ACAD_XDICTIONARY
360
22D
102
}
330
1F
100
AcDbEntity
  8
0
  6
$MARGINS
 62
     7
370
     0
100
AcDbCircle
 10
493.4298069510705
 20
508.2010123433056
 30
0.0
 40
36.11885749867343
100
AcDbArc
 50
319.6741636712043
 51
0.0
  0
LWPOLYLINE
  5
230
330
1F
100
AcDbEntity
  8
0
  6
Continuous
 62
     7
370
     0
100
AcDbPolyline
 90
        2
 70
   128
 43
0.0
 10
2437.456823969616
 20
514.7771815305771
 10
2437.456823969615
 20
840.611055672749
  0
LWPOLYLINE
  5
231
330
1F
100
AcDbEntity
  8
0
  6
Continuous
 62
     7
370
     0
100
AcDbPolyline
 90
        2
 70
   128
 43
0.0
 10
2437.456823969615
 20
849.611055672749
 10
2437.456823969615
 20
999.1456989093049
  0
LWPOLYLINE
  5
232
330
1F
100
AcDbEntity
  8
0
  6
Continuous
 62
     7
370
     0
100
AcDbPolyline
 90
        4
 70
   128
 43
0.0
 10
2437.456823969615
 20
1008.145698909305
 10
2437.456823969616
 20
1013.009687059164
 10
2446.456823969616
 20
1013.009687059164
 10
2446.456823969616
 20
514.777923133711
  0
LWPOLYLINE
  5
233
330
1F
100
AcDbEntity
  8
0
  6
Continuous
 62
     7
370
     0
100
AcDbPolyline
 90
        2
 70
   128
 43
0.0
 10
2437.456823969615
 20
1490.313849883063
 10
2437.456823969615
 20
1624.288112978637
  0
LWPOLYLINE
  5
234
330
1F
100
AcDbEntity
  8
0
  6
Continuous
 62
     7
370
     0
100
AcDbPolyline
 90
        2
 70
   128
 43
0.0
 10
2437.456823969615
 20
1633.288112978637
 10
2437.456823969615
 20
1816.769945225434
  0
LWPOLYLINE
  5
235
330
1F
100
AcDbEntity
  8
0
  6
Continuous
 62
     7
370
     0
100
AcDbPolyline
 90
        2
 70
   128
 43
0.0
 10
2437.456823969615
 20
1825.769945225434
 10
2437.456823969615
 20
2121.441569697089
  0
LWPOLYLINE
  5
236
330
1F
100
AcDbEntity
  8
0
  6
Continuous
 62
     7
370
     0
100
AcDbPolyline
 90
        2
 70
   128
 43
0.0
 10
2446.456823969615
 20
2121.441569697089
 10
2446.456823969615
 20
1835.188788374272
  0
LWPOLYLINE
  5
237
330
1F
100
AcDbEntity
  8
0
  6
Continuous
 62
     7
370
     0
100
AcDbPolyline
 90
        2
 70
   129
 43
0.0
 10
2446.456823969615
 20
1826.188788374272
 10
2446.456823969615
 20
1490.313849883063
  0
LWPOLYLINE
  5
23A
102
{ACAD_XDICTIONARY
360
238
102
}
330
1F
100
AcDbEntity
  8
0
  6
Continuous
 62
     7
370
     0
100
AcDbPolyline
 90
        4
 70
   129
 43
0.0
 10
2447.047095948169
 20
777.5773935188645
 10
2447.047095948169
 20
1017.974196064573
 10
2451.820662321198
 20
1017.974196064573
 10
2451.820662321198
 20
777.5773935188645
  0
LWPOLYLINE
  5
23D
102
{ACAD_XDICTIONARY
360
23B
102
}
330
1F
100
AcDbEntity
  8
0
  6
Continuous
 62
     7
370
     0
100
AcDbPolyline
 90
        4
 70
   129
 43
0.0
 10
2447.428981257973
 20
1478.145994354451
 10
2447.428981257973
 20
1718.542796900158
 10
2452.202547631002
 20
1718.542796900158
 10
2452.202547631002
 20
1478.145994354451
  0
LWPOLYLINE
  5
242
102
{ACAD_XDICTIONARY
360
23E
102
}
330
1F
100
AcDbEntity
  8
0
  6
Continuous
 62
     7
370
     0
100
AcDbPolyline
 90
        2
 70
   128
 43
0.0
 10
2368.485518254443
 20
514.7714982709709
 10
2437.456823969616
 20
514.7771815305771
  0
LWPOLYLINE
  5
245
102
{ACAD_XDICTIONARY
360
240
102
}
330
1F
100
AcDbEntity
  8
0
  6
Continuous
 62
     7
370
     0
100
AcDbPolyline
 90
        2
 70
   128
 43
0.0
 10
2446.496497746503
 20
514.7779264028441
 10
2804.73978301467
 20
514.8074457742856
  0
LWPOLYLINE
  5
248
102
{ACAD_XDICTIONARY
360
243
102
}
330
1F
100
AcDbEntity
  8
0
  6
Continuous
 62
     7
370
     0
100
AcDbPolyline
 90
        2
 70
   128
 43
0.0
 10
2804.740524617801
 20
505.8074458048398
 10
2368.486259857575
 20
505.7714983015251
  0
LWPOLYLINE
  5
24D
102
{ACAD_XDICTIONARY
360
249
102
}
330
1F
100
AcDbEntity
  8
0
  6
Continuous
 62
     7
370
     0
100
AcDbPolyline
 90
        4
 70
   128
 43
0.0
 10
2352.123105794851
 20
1008.145698909305
 10
2375.579494101862
 20
1008.145698909305
 10
2375.579494101862
 20
999.1456989093049
 10
2352.124570157103
 20
999.1456989093049
  0
LWPOLYLINE
  5
252
102
{ACAD_XDICTIONARY
360
24E
102
}
330
1F
100
AcDbEntity
  8
0
  6
Continuous
 62
     7
370
     0
100
AcDbPolyline
 90
        2
 70
   128
 43
0.0
 10
2411.685555937943
 20
1008.145698909305
 10
2437.456823969615
 20
1008.145698909305
  0
LWPOLYLINE
  5
253
102
{ACAD_XDICTIONARY
360
250
102
}
330
1F
100
AcDbEntity
  8
0
  6
Continuous
 62
     7
370
     0
100
AcDbPolyline
 90
        2
 70
   129
 43
0.0
 10
2437.456823969615
 20
999.1456989093049
 10
2411.685555937943
 20
999.1456989093049
  0
LWPOLYLINE
  5
258
102
{ACAD_XDICTIONARY
360
254
102
}
330
1F
100
AcDbEntity
  8
0
  6
Continuous
 62
     7
370
     0
100
AcDbPolyline
 90
        4
 70
   128
 43
0.0
 10
2351.907657221299
 20
1504.328675380925
 10
2376.092501492089
 20
1504.328675380925
 10
2376.092501492089
 20
1495.328675380925
 10
2351.909134549865
 20
1495.328675380925
  0
LWPOLYLINE
  5
25D
102
{ACAD_XDICTIONARY
360
259
102
}
330
1F
100
AcDbEntity
  8
0
  6
Continuous
 62
     7
370
     0
100
AcDbPolyline
 90
        2
 70
   128
 43
0.0
 10
2412.19856332817
 20
1504.328675380926
 10
2437.344744766836
 20
1504.328675380926
  0
LWPOLYLINE
  5
25E
102
{ACAD_XDICTIONARY
360
25B
102
}
330
1F
100
AcDbEntity
  8
0
  6
Continuous
 62
     7
370
     0
100
AcDbPolyline
 90
        2
 70
   129
 43
0.0
 10
2437.344744766836
 20
1495.328675380926
 10
2412.19856332817
 20
1495.328675380926
  0
LWPOLYLINE
  5
261
102
{ACAD_XDICTIONARY
360
25F
102
}
330
1F
100
AcDbEntity
  8
0
  6
Continuous
 62
     7
370
     0
100
AcDbPolyline
 90
        4
 70
     1
 43
0.0
 10
2375.579494105973
 20
1001.953227231709
 10
2375.579494105973
 20
1004.585960907256
 10
2411.685555942056
 20
1004.585960907256
 10
2411.685555942056
 20
1001.953227231709
  0
LWPOLYLINE
  5
264
102
{ACAD_XDICTIONARY
360
262
102
}
330
1F
100
AcDbEntity
  8
0
  6
Continuous
 62
     7
370
     0
100
AcDbPolyline
 90
        4
 70
     1
 43
0.0
 10
2376.092501492089
 20
1498.637676813402
 10
2376.092501492089
 20
1501.270410488949
 10
2412.198563328168
 20
1501.270410488949
 10
2412.198563328168
 20
1498.637676813402
  0
LINE
  5
267
102
{ACAD_XDICTIONARY
360
265
102
}
330
1F
100
AcDbEntity
  8
0
  6
Continuous
 62
     7
370
     0
100
AcDbLine
 10
2437.446980716207
 20
1816.307703210702
 30
0.0
 11
2437.446980716207
 21
1826.587901372363
 31
0.0
  0
LINE
  5
26A
102
{ACAD_XDICTIONARY
360
268
102
}
330
1F
100
AcDbEntity
  8
0
  6
Continuous
 62
     7
370
     0
100
AcDbLine
 10
2342.94991243289
 20
2091.983959394959
 30
0.0
 11
2342.94991243289
 21
2101.292553462074
 31
0.0
  0
LINE
  5
26D
102
{ACAD_XDICTIONARY
360
26B
102
}
330
1F
100
AcDbEntity
  8
0
  6
Continuous
 62
     7
370
     0
100
AcDbLine
 10
2351.945085824343
 20
2091.874262158478
 30
0.0
 11
2351.945085824343
 21
2101.229869326941
 31
0.0
  0
LWPOLYLINE
  5
26E
330
1F
100
AcDbEntity
  8
0
  6
Continuous
 62
     7
370
     0
100
AcDbPolyline
 90
        2
 70
   128
 43
0.0
 10
335.9368172450768
 20
2130.44165166873
 10
425.0983980846895
 20
2130.44165166873
  0
LWPOLYLINE
  5
26F
330
1F
100
AcDbEntity
  8
0
  6
Continuous
 62
     7
370
     0
100
AcDbPolyline
 90
        4
 70
   128
 43
0.0
 10
433.0983980846895
 20
2130.44165166873
 10
444.7281709552617
 20
2130.44165166873
 10
444.7281709552617
 20
2121.44165166873
 10
437.7764293800237
 20
2121.44165166873
  0
LWPOLYLINE
  5
270
330
1F
100
AcDbEntity
  8
0
  6
Continuous
 62
     7
370
     0
100
AcDbPolyline
 90
        2
 70
   128
 43
0.0
 10
428.7764293800237
 20
2121.44165166873
 10
335.9368172450768
 20
2121.44165166873
  0
LWPOLYLINE
  5
271
330
1F
100
AcDbEntity
  8
0
  6
Continuous
 62
     7
370
     0
100
AcDbPolyline
 90
        2
 70
   128
 43
0.0
 10
594.4011807267425
 20
2130.44165166873
 10
1026.941128528425
 20
2130.44165166873
  0
LWPOLYLINE
  5
272
330
1F
100
AcDbEntity
  8
0
  6
Continuous
 62
     7
370
     0
100
AcDbPolyline
 90
        2
 70
   128
 43
0.0
 10
1035.941128528425
 20
2130.44165166873
 10
1281.52841400297
 20
2130.44165166873
  0
LWPOLYLINE
  5
273
330
1F
100
AcDbEntity
  8
0
  6
Continuous
 62
     7
370
     0
100
AcDbPolyline
 90
        4
 70
   128
 43
0.0
 10
1290.52841400297
 20
2130.44165166873
 10
1405.235684824914
 20
2130.44165166873
 10
1405.235684824914
 20
2121.44165166873
 10
1290.825771012557
 20
2121.44165166873
  0
LWPOLYLINE
  5
274
330
1F
100
AcDbEntity
  8
0
  6
Continuous
 62
     7
370
     0
100
AcDbPolyline
 90
        2
 70
   128
 43
0.0
 10
1281.825771012557
 20
2121.44165166873
 10
1036.238485538014
 20
2121.44165166873
  0
LWPOLYLINE
  5
275
330
1F
100
AcDbEntity
  8
0
  6
Continuous
 62
     7
370
     0
100
AcDbPolyline
 90
        2
 70
   129
 43
0.0
 10
1027.238485538014
 20
2121.44165166873
 10
594.4011807267425
 20
2121.44165166873
  0
LWPOLYLINE
  5
276
330
1F
100
AcDbEntity
  8
0
  6
Continuous
 62
     7
370
     0
100
AcDbPolyline
 90
        2
 70
   128
 43
0.0
 10
1530.491699370746
 20
2130.44165166873
 10
1544.232571870532
 20
2130.44165166873
  0
LWPOLYLINE
  5
277
330
1F
100
AcDbEntity
  8
0
  6
Continuous
 62
     7
370
     0
100
AcDbPolyline
 90
        4
 70
   129
 43
0.0
 10
1552.232571870532
 20
2130.44165166873
 10
1556.177109920441
 20
2130.44165166873
 10
1556.177109920441
 20
2121.44165166873
 10
1530.491699370746
 20
2121.44165166873
  0
LWPOLYLINE
  5
278
330
1F
100
AcDbEntity
  8
0
  6
Continuous
 62
     7
370
     0
100
AcDbPolyline
 90
        2
 70
   128
 43
0.0
 10
1592.961154694788
 20
2130.44165166873
 10
1596.535662671212
 20
2130.44165166873
  0
LWPOLYLINE
  5
279
330
1F
100
AcDbEntity
  8
0
  6
Continuous
 62
     7
370
     0
100
AcDbPolyline
 90
        2
 70
   128
 43
0.0
 10
1604.535662671212
 20
2130.44165166873
 10
2295.975942537977
 20
2130.44165166873
  0
LWPOLYLINE
  5
27A
330
1F
100
AcDbEntity
  8
0
  6
Continuous
 62
     7
370
     0
100
AcDbPolyline
 90
        2
 70
   128
 43
0.0
 10
2303.975942537977
 20
2121.44165166873
 10
2218.912482423474
 20
2121.44165166873
  0
LWPOLYLINE
  5
27B
330
1F
100
AcDbEntity
  8
0
  6
Continuous
 62
     7
370
     0
100
AcDbPolyline
 90
        2
 70
   129
 43
0.0
 10
2209.912482423474
 20
2121.44165166873
 10
1592.961154694788
 20
2121.44165166873
  0
LWPOLYLINE
  5
27C
330
1F
100
AcDbEntity
  8
0
  6
Continuous
 62
     7
370
     0
100
AcDbPolyline
 90
        2
 70
   128
 43
0.0
 10
437.775989054041
 20
2121.37488411603
 10
437.775989054041
 20
2095.430920384046
  0
LWPOLYLINE
  5
27D
330
1F
100
AcDbEntity
  8
0
  6
Continuous
 62
     7
370
     0
100
AcDbPolyline
 90
        2
 70
   128
 43
0.0
 10
428.775989054041
 20
2095.430920384046
 10
428.775989054041
 20
2121.37488411603
  0
LWPOLYLINE
  5
280
102
{ACAD_XDICTIONARY
360
27E
102
}
330
1F
100
AcDbEntity
  8
0
  6
Continuous
 62
     7
370
     0
100
AcDbPolyline
 90
        4
 70
   129
 43
0.0
 10
1556.361401533285
 20
2126.175628014018
 10
1587.690424865176
 20
2144.077927089773
 10
1588.684997036052
 20
2142.337425793557
 10
1557.355973704162
 20
2124.435126717804
  0
ARC
  5
283
102
{ACAD_XDICTIONARY
360
281
102
}
330
1F
100
AcDbEntity
  8
0
  6
$MARGINS
 62
     7
370
     0
100
AcDbCircle
 10
1556.2857425135
 20
2125.837104846401
 30
0.0
 40
36.11885749867542
100
AcDbArc
 50
0.0
 51
40.32583632879849
  0
LWPOLYLINE
  5
286
102
{ACAD_XDICTIONARY
360
284
102
}
330
1F
100
AcDbEntity
  8
0
  6
Continuous
 62
     7
370
     0
100
AcDbPolyline
 90
        4
 70
   129
 43
0.0
 10
1300.962024015737
 20
2120.864501826918
 10
1300.962024015737
 20
2118.090512704652
 10
1407.120454497274
 20
2118.090512704652
 10
1407.120454497274
 20
2120.864501826918
  0
LWPOLYLINE
  5
289
102
{ACAD_XDICTIONARY
360
287
102
}
330
1F
100
AcDbEntity
  8
0
  6
Continuous
 62
     7
370
     0
100
AcDbPolyline
 90
        4
 70
   129
 43
0.0
 10
1297.176080796557
 20
2133.645812501914
 10
1297.176080796557
 20
2130.871823379652
 10
1403.334511278094
 20
2130.871823379652
 10
1403.334511278094
 20
2133.645812501914
  0
LWPOLYLINE
  5
28A
330
1F
100
AcDbEntity
  8
0
  6
Continuous
 62
     7
370
     0
100
AcDbPolyline
 90
        4
 70
   128
 43
0.0
 10
1544.232571870535
 20
2186.400402114215
 10
1556.051075141952
 20
2186.400402114215
 10
1556.051075141952
 20
2178.400402114215
 10
1552.232571870532
 20
2178.400402114215
  0
LWPOLYLINE
  5
28B
330
1F
100
AcDbEntity
  8
0
  6
Continuous
 62
     7
370
     0
100
AcDbPolyline
 90
        2
 70
   128
 43
0.0
 10
1592.986762979114
 20
2186.400402114215
 10
1604.535662671214
 20
2186.400402114215
  0
LWPOLYLINE
  5
28C
330
1F
100
AcDbEntity
  8
0
  6
Continuous
 62
     7
370
     0
100
AcDbPolyline
 90
        2
 70
   129
 43
0.0
 10
1596.535662671212
 20
2178.400402114215
 10
1592.986762979114
 20
2178.400402114215
  0
LWPOLYLINE
  5
28D
330
1F
100
AcDbEntity
  8
0
  6
Continuous
 62
     7
370
     0
100
AcDbPolyline
 90
        2
 70
   128
 43
0.0
 10
1604.535662671212
 20
2186.400402114215
 10
1604.535662671212
 20
2130.44165166873
  0
LWPOLYLINE
  5
28E
330
1F
100
AcDbEntity
  8
0
  6
Continuous
 62
     7
370
     0
100
AcDbPolyline
 90
        2
 70
   128
 43
0.0
 10
1596.535662671212
 20
2130.44165166873
 10
1596.535662671212
 20
2178.400402114215
  0
LWPOLYLINE
  5
28F
330
1F
100
AcDbEntity
  8
0
  6
Continuous
 62
     7
370
     0
100
AcDbPolyline
 90
        2
 70
   128
 43
0.0
 10
1552.232571870532
 20
2178.400402114215
 10
1552.232571870532
 20
2130.44165166873
  0
LWPOLYLINE
  5
290
330
1F
100
AcDbEntity
  8
0
  6
Continuous
 62
     7
370
     0
100
AcDbPolyline
 90
        2
 70
   128
 43
0.0
 10
1544.232571870532
 20
2130.44165166873
 10
1544.232571870532
 20
2186.400402114215
  0
LWPOLYLINE
  5
293
102
{ACAD_XDICTIONARY
360
291
102
}
330
1F
100
AcDbEntity
  8
0
  6
Continuous
 62
     7
370
     0
100
AcDbPolyline
 90
        4
 70
   129
 43
0.0
 10
1592.2709147299
 20
2183.346003905677
 10
1560.941891398011
 20
2201.248302981432
 10
1559.947319227135
 20
2199.507801685217
 10
1591.276342559026
 20
2181.60550260946
  0
ARC
  5
296
102
{ACAD_XDICTIONARY
360
294
102
}
330
1F
100
AcDbEntity
  8
0
  6
$MARGINS
 62
     7
370
     0
100
AcDbCircle
 10
1592.346573749689
 20
2183.007480738064
 30
0.0
 40
36.11885749867174
100
AcDbArc
 50
139.674163671202
 51
180.0
  0
LWPOLYLINE
  5
299
102
{ACAD_XDICTIONARY
360
297
102
}
330
1F
100
AcDbEntity
  8
0
  6
Continuous
 62
     7
370
     0
100
AcDbPolyline
 90
        4
 70
   129
 43
0.0
 10
428.6846339289759
 20
2263.610551842494
 10
430.6210019333002
 20
2264.83613261653
 10
449.9058758777201
 20
2234.366812548478
 10
447.9695078733957
 20
2233.141231774442
  0
ARC
  5
29C
102
{ACAD_XDICTIONARY
360
29A
102
}
330
1F
100
AcDbEntity
  8
0
  6
$MARGINS
 62
     7
370
     0
100
AcDbCircle
 10
430.398337401205
 20
2264.5582878318
 30
0.0
 40
35.92777251511887
100
AcDbArc
 50
269.0573757021889
 51
313.8437284169406
  0
LWPOLYLINE
  5
29D
330
1F
100
AcDbEntity
  8
0
  6
Continuous
 62
     7
370
     0
100
AcDbPolyline
 90
        2
 70
   128
 43
0.0
 10
335.5026838310482
 20
2280.466197176052
 10
433.0983980846899
 20
2280.466197176052
  0
LWPOLYLINE
  5
29E
330
1F
100
AcDbEntity
  8
0
  6
Continuous
 62
     7
370
     0
100
AcDbPolyline
 90
        2
 70
   128
 43
0.0
 10
425.0983980846891
 20
2272.466197176052
 10
335.5026838310482
 20
2272.466197176052
  0
LWPOLYLINE
  5
29F
330
1F
100
AcDbEntity
  8
0
  6
Continuous
 62
     7
370
     0
100
AcDbPolyline
 90
        4
 70
   128
 43
0.0
 10
433.0983980846895
 20
2280.466197176054
 10
433.0983980846895
 20
2264.79534977535
 10
425.0983980846895
 20
2264.79534977535
 10
425.0983980846895
 20
2272.466197176052
  0
LWPOLYLINE
  5
2A0
330
1F
100
AcDbEntity
  8
0
  6
Continuous
 62
     7
370
     0
100
AcDbPolyline
 90
        2
 70
   128
 43
0.0
 10
433.0983980846895
 20
2228.671298157862
 10
433.0983980846895
 20
2130.44165166873
  0
LWPOLYLINE
  5
2A1
330
1F
100
AcDbEntity
  8
0
  6
Continuous
 62
     7
370
     0
100
AcDbPolyline
 90
        2
 70
   129
 43
0.0
 10
425.0983980846895
 20
2130.44165166873
 10
425.0983980846895
 20
2228.671298157862
  0
LWPOLYLINE
  5
2A4
102
{ACAD_XDICTIONARY
360
2A2
102
}
330
1F
100
AcDbEntity
  8
0
  6
Continuous
 62
     7
370
     0
100
AcDbPolyline
 90
        4
 70
   129
 43
0.0
 10
334.1307719352435
 20
2138.71233509571
 10
332.1944039309192
 20
2137.486754321673
 10
312.9095299864994
 20
2167.956074389725
 10
314.8458979908237
 20
2169.181655163762
  0
ARC
  5
2A7
102
{ACAD_XDICTIONARY
360
2A5
102
}
330
1F
100
AcDbEntity
  8
0
  6
$MARGINS
 62
     7
370
     0
100
AcDbCircle
 10
332.4170684630144
 20
2137.7645991064
 30
0.0
 40
35.92777251512069
100
AcDbArc
 50
89.05737570218902
 51
133.8437284169416
  0
TEXT
  5
2AB
102
{ACAD_XDICTIONARY
360
2A9
102
}
330
1F
100
AcDbEntity
  8
0
  6
Continuous
 62
     7
100
AcDbText
 10
355.5303775209022
 20
2193.350003987554
 30
0.0
 40
16.33301077948676
  1
EXIT
  7
_TCW_TXTSTY_4
 11
355.5303775209022
 21
2209.683014767041
 31
0.0
100
AcDbText
 73
     3
  0
LWPOLYLINE
  5
2B0
102
{ACAD_XDICTIONARY
360
2AC
102
}
330
1F
100
AcDbEntity
  8
0
  6
Continuous
 62
     7
370
     0
100
AcDbPolyline
 90
        2
 70
   128
 43
0.0
 10
2342.946192683273
 20
2102.61577637451
 10
2342.946192683273
 20
2118.537546698059
  0
LWPOLYLINE
  5
2B3
102
{ACAD_XDICTIONARY
360
2AE
102
}
330
1F
100
AcDbEntity
  8
0
  6
Continuous
 62
     7
370
     0
100
AcDbPolyline
 90
        2
 70
   128
 43
0.0
 10
2351.946192683273
 20
2118.537546698059
 10
2351.946192683273
 20
2102.61577637451
  0
LINE
  5
2B6
102
{ACAD_XDICTIONARY
360
2B4
102
}
330
1F
100
AcDbEntity
  8
0
  6
Continuous
 62
     7
370
     0
100
AcDbLine
 10
2342.964277024009
 20
1824.251203320123
 30
0.0
 11
2342.964277024009
 21
1834.029928400728
 31
0.0
  0
LINE
  5
2B9
102
{ACAD_XDICTIONARY
360
2B7
102
}
330
1F
100
AcDbEntity
  8
0
  6
Continuous
 62
     7
370
     0
100
AcDbLine
 10
2351.990792483931
 20
1633.566064269417
 30
0.0
 11
2351.990792483931
 21
1646.60436437689
 31
0.0
  0
LWPOLYLINE
  5
2BE
102
{ACAD_XDICTIONARY
360
2BA
102
}
330
1F
100
AcDbEntity
  8
0
  6
Continuous
 62
     7
370
     0
100
AcDbPolyline
 90
        2
 70
   128
 43
0.0
 10
1370.156329222026
 20
505.7719979935018
 10
1370.156329222026
 20
264.5850452223267
  0
LWPOLYLINE
  5
2C1
102
{ACAD_XDICTIONARY
360
2BC
102
}
330
1F
100
AcDbEntity
  8
0
  6
Continuous
 62
     7
370
     0
100
AcDbPolyline
 90
        2
 70
   128
 43
0.0
 10
1364.156329222026
 20
258.5850452223267
 10
1364.156329222026
 20
505.7719979935018
  0
LWPOLYLINE
  5
2C6
102
{ACAD_XDICTIONARY
360
2C2
102
}
330
1F
100
AcDbEntity
  8
0
  6
Continuous
 62
     7
370
     0
100
AcDbPolyline
 90
        2
 70
   128
 43
0.0
 10
1370.156329222026
 20
264.5850452223267
 10
2223.094690894869
 20
264.5850452223267
  0
LWPOLYLINE
  5
2C9
102
{ACAD_XDICTIONARY
360
2C4
102
}
330
1F
100
AcDbEntity
  8
0
  6
Continuous
 62
     7
370
     0
100
AcDbPolyline
 90
        2
 70
   128
 43
0.0
 10
2217.572123115632
 20
258.5850452223267
 10
1364.156329222026
 20
258.5850452223267
  0
LWPOLYLINE
  5
2CE
102
{ACAD_XDICTIONARY
360
2CA
102
}
330
1F
100
AcDbEntity
  8
0
  6
Continuous
 62
     7
370
     0
100
AcDbPolyline
 90
        2
 70
   128
 43
0.0
 10
2235.95562958171
 20
109.6555977855051
 10
2993.813757111407
 20
109.6555977855051
  0
LWPOLYLINE
  5
2D1
102
{ACAD_XDICTIONARY
360
2CC
102
}
330
1F
100
AcDbEntity
  8
0
  6
Continuous
 62
     7
370
     0
100
AcDbPolyline
 90
        2
 70
   128
 43
0.0
 10
2993.813757111407
 20
103.6555977855051
 10
2230.433061802473
 20
103.6555977855051
  0
LWPOLYLINE
  5
2D6
102
{ACAD_XDICTIONARY
360
2D2
102
}
330
1F
100
AcDbEntity
  8
0
  6
Continuous
 62
     7
370
     0
100
AcDbPolyline
 90
        2
 70
   128
 43
0.0
 10
2223.094690894871
 20
264.5850452223276
 10
2235.95562958171
 20
109.655597785506
  0
LWPOLYLINE
  5
2D9
102
{ACAD_XDICTIONARY
360
2D4
102
}
330
1F
100
AcDbEntity
  8
0
  6
Continuous
 62
     7
370
     0
100
AcDbPolyline
 90
        2
 70
   128
 43
0.0
 10
2230.433061802472
 20
103.6555977855076
 10
2217.572123115633
 20
258.5850452223293
  0
LWPOLYLINE
  5
2DC
102
{ACAD_XDICTIONARY
360
2DA
102
}
330
1F
100
AcDbEntity
  8
0
  6
Continuous
 62
     7
370
     0
100
AcDbPolyline
 90
        4
 70
     0
 43
0.0
 10
2770.327233834167
 20
505.7500368919036
 10
2770.297409087915
 20
456.21615772529
 10
2525.685046780499
 20
456.2857487220444
 10
2525.893885652994
 20
109.6802232232258
  0
TEXT
  5
2E0
102
{ACAD_XDICTIONARY
360
2DE
102
}
330
1F
100
AcDbEntity
  8
0
  6
Continuous
 62
     7
100
AcDbText
 10
2481.888529974262
 20
225.8781747547646
 30
0.0
 40
14.55768399768405
  1
LOADING DOCK
 50
90.0
  7
_TCW_TXTSTY_5
 11
2467.330845976578
 21
225.8781747547646
 31
0.0
100
AcDbText
 73
     3
  0
LWPOLYLINE
  5
2E3
102
{ACAD_XDICTIONARY
360
2E1
102
}
330
1F
100
AcDbEntity
  8
0
  6
Continuous
 62
     7
370
     0
100
AcDbPolyline
 90
        4
 70
     1
 43
0.0
 10
1374.965514956119
 20
269.2903941644299
 10
1374.965514956119
 20
328.5116876568945
 10
1408.591164650993
 20
328.5116876568945
 10
1408.591164650993
 20
269.2903941644299
  0
LWPOLYLINE
  5
2E6
102
{ACAD_XDICTIONARY
360
2E4
102
}
330
1F
100
AcDbEntity
  8
0
  6
Continuous
 62
     7
370
     0
100
AcDbPolyline
 90
        4
 70
     1
 43
0.0
 10
1402.06678485945
 20
332.5266906055367
 10
1402.06678485945
 20
369.1635925118917
 10
1374.46363958754
 20
369.1635925118917
 10
1374.46363958754
 20
332.5266906055367
  0
LWPOLYLINE
  5
2E9
102
{ACAD_XDICTIONARY
360
2E7
102
}
330
1F
100
AcDbEntity
  8
0
  6
Continuous
 62
     7
370
     0
100
AcDbPolyline
 90
        4
 70
     1
 43
0.0
 10
1376.973016430441
 20
377.6954737777551
 10
1376.973016430441
 20
392.7517348351621
 10
1390.523651382106
 20
392.7517348351621
 10
1390.523651382106
 20
377.6954737777551
  0
LINE
  5
2EC
102
{ACAD_XDICTIONARY
360
2EA
102
}
330
1F
100
AcDbEntity
  8
0
  6
Continuous
 62
     7
370
     0
100
AcDbLine
 10
2770.179039464818
 20
456.2161914008575
 30
0.0
 11
2770.179039464818
 21
505.7741516512206
 31
0.0
  0
LINE
  5
2EF
102
{ACAD_XDICTIONARY
360
2ED
102
}
330
1F
100
AcDbEntity
  8
0
  6
Continuous
 62
     7
370
     0
100
AcDbLine
 10
2755.875591460282
 20
505.7741516512206
 30
0.0
 11
2755.875591460282
 21
463.1636210108745
 31
0.0
  0
LINE
  5
2F2
102
{ACAD_XDICTIONARY
360
2F0
102
}
330
1F
100
AcDbEntity
  8
0
  6
Continuous
 62
     7
370
     0
100
AcDbLine
 10
2755.875591460282
 20
461.1636210108745
 30
0.0
 11
2755.875591460282
 21
456.2202606604578
 31
0.0
  0
LINE
  5
2F5
102
{ACAD_XDICTIONARY
360
2F3
102
}
330
1F
100
AcDbEntity
  8
0
  6
Continuous
 62
     7
370
     0
100
AcDbLine
 10
2741.572143447879
 20
456.22432992006
 30
0.0
 11
2741.572143447879
 21
461.1636210108745
 31
0.0
  0
LINE
  5
2F8
102
{ACAD_XDICTIONARY
360
2F6
102
}
330
1F
100
AcDbEntity
  8
0
  6
Continuous
 62
     7
370
     0
100
AcDbLine
 10
2741.572143447879
 20
463.1636210108745
 30
0.0
 11
2741.572143447878
 21
505.7741516512206
 31
0.0
  0
LINE
  5
2FB
102
{ACAD_XDICTIONARY
360
2F9
102
}
330
1F
100
AcDbEntity
  8
0
  6
Continuous
 62
     7
370
     0
100
AcDbLine
 10
2727.268695443343
 20
505.7741516512206
 30
0.0
 11
2727.268695443343
 21
463.1636210108745
 31
0.0
  0
LINE
  5
2FE
102
{ACAD_XDICTIONARY
360
2FC
102
}
330
1F
100
AcDbEntity
  8
0
  6
Continuous
 62
     7
370
     0
100
AcDbLine
 10
2727.268695443343
 20
461.1636210108745
 30
0.0
 11
2727.268695443343
 21
456.2283991796603
 31
0.0
  0
LINE
  5
301
102
{ACAD_XDICTIONARY
360
2FF
102
}
330
1F
100
AcDbEntity
  8
0
  6
Continuous
 62
     7
370
     0
100
AcDbLine
 10
2698.661799437132
 20
505.7741516512206
 30
0.0
 11
2698.661799437132
 21
463.1636210108745
 31
0.0
  0
LINE
  5
304
102
{ACAD_XDICTIONARY
360
302
102
}
330
1F
100
AcDbEntity
  8
0
  6
Continuous
 62
     7
370
     0
100
AcDbLine
 10
2698.661799437132
 20
461.1636210108745
 30
0.0
 11
2698.661799437132
 21
456.23653769886
 31
0.0
  0
LINE
  5
307
102
{ACAD_XDICTIONARY
360
305
102
}
330
1F
100
AcDbEntity
  8
0
  6
Continuous
 62
     7
370
     0
100
AcDbLine
 10
2712.965247441668
 20
456.2324684392597
 30
0.0
 11
2712.965247441668
 21
461.1636210108745
 31
0.0
  0
LINE
  5
30A
102
{ACAD_XDICTIONARY
360
308
102
}
330
1F
100
AcDbEntity
  8
0
  6
Continuous
 62
     7
370
     0
100
AcDbLine
 10
2712.965247441668
 20
463.1636210108745
 30
0.0
 11
2712.965247441668
 21
505.7741516512206
 31
0.0
  0
LWPOLYLINE
  5
30F
102
{ACAD_XDICTIONARY
360
30B
102
}
330
1F
100
AcDbEntity
  8
0
  6
Continuous
 62
     7
370
     0
100
AcDbPolyline
 90
        4
 70
   128
 43
0.0
 10
2523.583762404377
 20
463.1240716988605
 10
2766.697279118205
 20
463.1240716988605
 10
2766.697279118205
 20
461.1240716988605
 10
2525.195426091025
 20
461.1240716988605
  0
CIRCLE
  5
312
102
{ACAD_XDICTIONARY
360
310
102
}
330
1F
100
AcDbEntity
  8
0
  6
Continuous
 62
     7
370
     0
100
AcDbCircle
 10
2522.268291004811
 20
460.4147288122704
 30
0.0
 40
3.01272219068187
  0
CIRCLE
  5
315
102
{ACAD_XDICTIONARY
360
313
102
}
330
1F
100
AcDbEntity
  8
0
  6
Continuous
 62
     7
370
     0
100
AcDbCircle
 10
2519.562869096329
 20
288.1381667617088
 30
0.0
 40
3.01272219068187
  0
CIRCLE
  5
318
102
{ACAD_XDICTIONARY
360
316
102
}
330
1F
100
AcDbEntity
  8
0
  6
Continuous
 62
     7
370
     0
100
AcDbCircle
 10
2519.602078109493
 20
115.8459211058762
 30
0.0
 40
3.012722190681416
  0
LWPOLYLINE
  5
31B
102
{ACAD_XDICTIONARY
360
319
102
}
330
1F
100
AcDbEntity
  8
0
  6
Continuous
 62
     7
370
     0
100
AcDbPolyline
 90
        4
 70
     1
 43
0.0
 10
2518.42580772115
 20
118.9199077404337
 10
2518.42580772115
 20
285.0406547404837
 10
2520.684246879759
 20
285.0406547404837
 10
2520.684246879759
 20
118.9199077404337
  0
LWPOLYLINE
  5
31E
102
{ACAD_XDICTIONARY
360
31C
102
}
330
1F
100
AcDbEntity
  8
0
  6
Continuous
 62
     7
370
     0
100
AcDbPolyline
 90
        4
 70
     1
 43
0.0
 10
2518.591070056599
 20
291.4230214576764
 10
2518.591070056599
 20
457.5437684577264
 10
2520.849509215211
 20
457.5437684577264
 10
2520.849509215211
 20
291.4230214576764
  0
LINE
  5
321
102
{ACAD_XDICTIONARY
360
31F
102
}
330
1F
100
AcDbEntity
  8
0
  6
Continuous
 62
     7
370
     0
100
AcDbLine
 10
2352.159198727662
 20
843.4640725824274
 30
0.0
 11
2352.159198727662
 21
853.3352092200475
 31
0.0
  0
LINE
  5
324
102
{ACAD_XDICTIONARY
360
322
102
}
330
1F
100
AcDbEntity
  8
0
  6
Continuous
 62
     7
370
     0
100
AcDbLine
 10
2437.462711051831
 20
840.2044860167862
 30
0.0
 11
2437.462711051831
 21
849.8644753466488
 31
0.0
  0
LINE
  5
327
102
{ACAD_XDICTIONARY
360
325
102
}
330
1F
100
AcDbEntity
  8
0
  6
Continuous
 62
     7
370
     0
100
AcDbLine
 10
2437.462711052055
 20
1624.286816585885
 30
0.0
 11
2437.462711052055
 21
1633.418937646358
 31
0.0
  0
LINE
  5
32A
102
{ACAD_XDICTIONARY
360
328
102
}
330
1F
100
AcDbEntity
  8
0
  6
Continuous
 62
     7
370
     0
100
AcDbLine
 10
335.9416001616655
 20
2121.442225383425
 30
0.0
 11
335.5028096627348
 21
2121.442225383425
 31
0.0
  0
LINE
  5
32D
102
{ACAD_XDICTIONARY
360
32B
102
}
330
1F
100
AcDbEntity
  8
0
  6
Continuous
 62
     7
370
     0
100
AcDbLine
 10
335.5028096627348
 20
2121.330053376179
 30
0.0
 11
335.5028096627348
 21
2121.442225383425
 31
0.0
  0
TEXT
  5
330
102
{ACAD_XDICTIONARY
360
32E
102
}
330
1F
100
AcDbEntity
  8
0
  6
Continuous
 62
     7
100
AcDbText
 10
158.9593784405977
 20
1820.486437786673
 30
0.0
 40
23.0
  1
WEST PARKING LOT
 50
90.0
  7
_TCW_TXTSTY_3
 11
135.9593784405977
 21
1820.486437786673
 31
0.0
100
AcDbText
 73
     3
  0
LWPOLYLINE
  5
335
102
{ACAD_XDICTIONARY
360
331
102
}
330
1F
100
AcDbEntity
  8
0
  6
Continuous
 62
     7
370
     0
100
AcDbPolyline
 90
        4
 70
   128
 43
0.0
 10
695.925706803644
 20
505.7377275430999
 10
529.6802312454773
 20
505.7377275430999
 10
529.6802312454773
 20
514.7377275430999
 10
695.925706803644
 20
514.7377275430999
  0
LWPOLYLINE
  5
33A
102
{ACAD_XDICTIONARY
360
336
102
}
330
1F
100
AcDbEntity
  8
0
  6
Continuous
 62
     7
370
     0
100
AcDbPolyline
 90
        2
 70
   128
 43
0.0
 10
493.6080997577928
 20
505.7377275430999
 10
326.5026765919347
 20
505.7377275430999
  0
LWPOLYLINE
  5
33D
102
{ACAD_XDICTIONARY
360
338
102
}
330
1F
100
AcDbEntity
  8
0
  6
Continuous
 62
     7
370
     0
100
AcDbPolyline
 90
        2
 70
   128
 43
0.0
 10
335.5026765919347
 20
514.7377275430999
 10
440.8969727901012
 20
514.7377275430999
  0
LWPOLYLINE
  5
33E
102
{ACAD_XDICTIONARY
360
33B
102
}
330
1F
100
AcDbEntity
  8
0
  6
Continuous
 62
     7
370
     0
100
AcDbPolyline
 90
        3
 70
   128
 43
0.0
 10
449.9366465669891
 20
514.7377275430999
 10
493.6080997577928
 20
514.7377275430999
 10
493.6080997577928
 20
505.7377275430999
  0
DIMENSION
  5
345
102
{ACAD_XDICTIONARY
360
33F
102
}
330
1F
100
AcDbEntity
  8
0
  6
Continuous
 62
     7
370
     0
100
AcDbDimension
  2
*D3
 10
1805.58001894498
 20
515.407160458299
 30
0.0
 11
1805.58001894498
 21
740.1341658573808
 31
0.0
 70
    32
  1
<>
 71
     5
 42
449.4540107981637
 73
     0
 74
     0
 75
     0
  3
Standard
100
AcDbAlignedDimension
 13
1804.683816920441
 23
964.8611712564627
 33
0.0
 14
1804.683816920441
 24
515.407160458299
 34
0.0
 50
90.0
100
AcDbRotatedDimension
1001
ACAD
1000
DSTYLE
1002
{
1070
   179
1070
     3
1070
    41
1040
12.0
1070
   342
1005
341
1070
   176
1070
     7
1070
   177
1070
     7
1070
   178
1070
     7
1070
   271
1070
     3
1070
    43
1040
36.0
1070
    44
1040
12.0
1070
    42
1040
6.0
1070
   147
1040
6.0
1070
   277
1070
     4
1070
     3
1000

1070
    45
1040
5.999999999999999
1070
    74
1070
     1
1070
   140
1040
28.57253086419753
1070
    78
1070
    11
1002
}
  0
DIMENSION
  5
355
102
{ACAD_XDICTIONARY
360
353
102
}
330
1F
100
AcDbEntity
  8
0
  6
Continuous
 62
     7
370
     0
100
AcDbDimension
  2
*D4
 10
1806.197198071596
 20
1545.20167040012
 30
0.0
 11
1806.197198071596
 21
1261.20167040012
 31
0.0
 70
    32
  1
<>
 71
     5
 42
568.0
 73
     0
 74
     0
 75
     0
  3
Standard
100
AcDbAlignedDimension
 13
1806.533273830586
 23
977.2016704001201
 33
0.0
 14
1806.197198071596
 24
1545.20167040012
 34
0.0
 50
90.0
100
AcDbRotatedDimension
1001
ACAD
1000
DSTYLE
1002
{
1070
   179
1070
     3
1070
    41
1040
12.0
1070
   342
1005
341
1070
   176
1070
     7
1070
   177
1070
     7
1070
   178
1070
     7
1070
   271
1070
     3
1070
    43
1040
36.0
1070
    44
1040
12.0
1070
    42
1040
6.0
1070
   147
1040
6.0
1070
   277
1070
     4
1070
     3
1000

1070
    45
1040
2.0
1070
    74
1070
     1
1070
   140
1040
28.57253086419753
1070
    78
1070
    11
1002
}
  0
DIMENSION
  5
365
102
{ACAD_XDICTIONARY
360
363
102
}
330
1F
100
AcDbEntity
  8
0
  6
Continuous
 62
     7
370
     0
100
AcDbDimension
  2
*D5
 10
1807.094372521712
 20
2122.564893059385
 30
0.0
 11
1807.094372521712
 21
1840.006272109984
 31
0.0
 70
    32
  1
<>
 71
     5
 42
565.1172418988021
 73
     0
 74
     0
 75
     0
  3
Standard
100
AcDbAlignedDimension
 13
1806.870322086668
 23
1557.447651160583
 33
0.0
 14
1807.094372521712
 24
2122.564893059385
 34
0.0
 50
90.0
100
AcDbRotatedDimension
1001
ACAD
1000
DSTYLE
1002
{
1070
   179
1070
     3
1070
    41
1040
12.0
1070
   342
1005
341
1070
   176
1070
     7
1070
   177
1070
     7
1070
   178
1070
     7
1070
   271
1070
     3
1070
    43
1040
36.0
1070
    44
1040
12.0
1070
    42
1040
6.0
1070
   147
1040
6.0
1070
   277
1070
     4
1070
     3
1000

1070
    45
1040
2.0
1070
    74
1070
     1
1070
   140
1040
28.57253086419753
1070
    78
1070
    11
1002
}
  0
DIMENSION
  5
375
102
{ACAD_XDICTIONARY
360
373
102
}
330
1F
100
AcDbEntity
  8
0
  6
Continuous
 62
     7
370
     0
100
AcDbDimension
  2
*D6
 10
334.7860527496468
 20
1552.255696167975
 30
0.0
 11
489.6839867835527
 21
1572.785071222041
 31
0.0
 70
    32
  1
<>
 71
     5
 42
309.7958680678117
 73
     0
 74
     0
 75
     0
  3
Standard
100
AcDbAlignedDimension
 13
644.5819208174585
 23
1555.882481599459
 33
0.0
 14
334.7860527496468
 24
1555.882481599459
 34
0.0
100
AcDbRotatedDimension
1001
ACAD
1000
DSTYLE
1002
{
1070
   179
1070
     3
1070
    41
1040
12.0
1070
   342
1005
341
1070
   176
1070
     7
1070
   177
1070
     7
1070
   178
1070
     7
1070
   271
1070
     3
1070
    43
1040
36.0
1070
    44
1040
12.0
1070
    42
1040
6.0
1070
   147
1040
6.0
1070
   277
1070
     4
1070
     3
1000

1070
    45
1040
2.0
1070
    74
1070
     1
1070
   140
1040
28.57253086419753
1070
    78
1070
    11
1002
}
  0
DIMENSION
  5
384
102
{ACAD_XDICTIONARY
360
382
102
}
330
1F
100
AcDbEntity
  8
0
  6
Continuous
 62
     7
370
     0
100
AcDbDimension
  2
*D7
 10
1223.148129099875
 20
1552.649519150892
 30
0.0
 11
938.8012216164459
 21
1573.221795902952
 31
0.0
 70
    33
  1
<>
 71
     5
 42
568.6938149668575
 73
     0
 74
     0
 75
     0
  3
Standard
100
AcDbAlignedDimension
 13
654.4543141330172
 23
1550.313741848828
 33
0.0
 14
1223.148129099875
 24
1550.313741848828
 34
0.0
1001
ACAD
1000
DSTYLE
1002
{
1070
   179
1070
     3
1070
    41
1040
12.0
1070
   342
1005
341
1070
   176
1070
     7
1070
   177
1070
     7
1070
   178
1070
     7
1070
   271
1070
     3
1070
    43
1040
36.0
1070
    44
1040
12.0
1070
    42
1040
6.0
1070
   147
1040
6.0
1070
   277
1070
     4
1070
     3
1000

1070
    45
1040
2.0
1070
    74
1070
     1
1070
   140
1040
28.57253086419753
1070
    78
1070
    11
1002
}
  0
DIMENSION
  5
393
102
{ACAD_XDICTIONARY
360
391
102
}
330
1F
100
AcDbEntity
  8
0
  6
Continuous
 62
     7
370
     0
100
AcDbDimension
  2
*D8
 10
1801.332756495774
 20
1552.973537776181
 30
0.0
 11
1517.205929440107
 21
1573.545814528242
 31
0.0
 70
    33
  1
<>
 71
     5
 42
568.253654111335
 73
     0
 74
     0
 75
     0
  3
Standard
100
AcDbAlignedDimension
 13
1233.079102384439
 23
1552.077335751643
 33
0.0
 14
1801.332756495774
 24
1552.077335751643
 34
0.0
1001
ACAD
1000
DSTYLE
1002
{
1070
   179
1070
     3
1070
    41
1040
12.0
1070
   342
1005
341
1070
   176
1070
     7
1070
   177
1070
     7
1070
   178
1070
     7
1070
   271
1070
     3
1070
    43
1040
36.0
1070
    44
1040
12.0
1070
    42
1040
6.0
1070
   147
1040
6.0
1070
   277
1070
     4
1070
     3
1000

1070
    45
1040
2.0
1070
    74
1070
     1
1070
   140
1040
28.57253086419753
1070
    78
1070
    11
1002
}
  0
DIMENSION
  5
3A2
102
{ACAD_XDICTIONARY
360
3A0
102
}
330
1F
100
AcDbEntity
  8
0
  6
Continuous
 62
     7
370
     0
100
AcDbDimension
  2
*D9
 10
2342.154149047023
 20
1553.907091934837
 30
0.0
 11
2076.433988095636
 21
1574.436466988903
 31
0.0
 70
    33
  1
<>
 71
     5
 42
531.4403219027736
 73
     0
 74
     0
 75
     0
  3
Standard
100
AcDbAlignedDimension
 13
1810.713827144249
 23
1552.561280635723
 33
0.0
 14
2342.154149047023
 24
1552.561280635723
 34
0.0
1001
ACAD
1000
DSTYLE
1002
{
1070
   179
1070
     3
1070
    41
1040
12.0
1070
   342
1005
341
1070
   176
1070
     7
1070
   177
1070
     7
1070
   178
1070
     7
1070
   271
1070
     3
1070
    43
1040
36.0
1070
    44
1040
12.0
1070
    42
1040
6.0
1070
   147
1040
6.0
1070
   277
1070
     4
1070
     3
1000

1070
    45
1040
5.999999999999999
1070
    74
1070
     1
1070
   140
1040
28.57253086419753
1070
    78
1070
    11
1002
}
  0
LWPOLYLINE
  5
3B3
102
{ACAD_XDICTIONARY
360
3AF
102
}
330
1F
100
AcDbEntity
  8
0
  6
Continuous
 62
     7
370
     0
100
AcDbPolyline
 90
        2
 70
   128
 43
0.0
 10
2295.939917116109
 20
2130.441569697089
 10
2465.952434455849
 20
2130.441569697089
  0
LWPOLYLINE
  5
3B6
102
{ACAD_XDICTIONARY
360
3B1
102
}
330
1F
100
AcDbEntity
  8
0
  6
Continuous
 62
     7
370
     0
100
AcDbPolyline
 90
        2
 70
   128
 43
0.0
 10
2465.952434455849
 20
2121.441569697089
 10
2446.456823969615
 20
2121.441569697089
  0
LWPOLYLINE
  5
3B9
102
{ACAD_XDICTIONARY
360
3B4
102
}
330
1F
100
AcDbEntity
  8
0
  6
Continuous
 62
     7
370
     0
100
AcDbPolyline
 90
        2
 70
   128
 43
0.0
 10
2437.456823969615
 20
2121.441569697089
 10
2351.941964863196
 20
2121.441569697089
  0
LWPOLYLINE
  5
3BC
102
{ACAD_XDICTIONARY
360
3B7
102
}
330
1F
100
AcDbEntity
  8
0
  6
Continuous
 62
     7
370
     0
100
AcDbPolyline
 90
        2
 70
   128
 43
0.0
 10
2342.941964744065
 20
2121.441569697089
 10
2295.939917116109
 20
2121.441569697089
  0
TEXT
  5
3BF
102
{ACAD_XDICTIONARY
360
3BD
102
}
330
1F
100
AcDbEntity
  8
0
  6
Continuous
 62
     7
100
AcDbText
 10
2495.836492908376
 20
1114.6309291656
 30
0.0
 40
23.0
  1
TO STAGE 3
  7
_TCW_TXTSTY_3
 11
2495.836492908376
 21
1137.6309291656
 31
0.0
100
AcDbText
 73
     3
  0
LWPOLYLINE
  5
3C2
102
{ACAD_REACTORS
330
3C6
102
}
102
{ACAD_XDICTIONARY
360
3C0
102
}
330
1F
100
AcDbEntity
  8
0
  6
Continuous
 62
     7
370
     0
100
AcDbPolyline
 90
        5
 70
     0
 43
0.0
 10
2754.523262580791
 20
1125.48751446024
 10
2703.17967387297
 20
1074.143925752421
 10
2703.17967387297
 20
1105.739980341848
 10
2453.570842616491
 20
1105.739980341848
 10
2453.570842646724
 20
1125.092563758993
  0
LWPOLYLINE
  5
3C5
102
{ACAD_REACTORS
330
3C6
102
}
102
{ACAD_XDICTIONARY
360
3C3
102
}
330
1F
100
AcDbEntity
  8
0
  6
Continuous
 62
     7
370
     0
100
AcDbPolyline
 90
        5
 70
     0
 43
0.0
 10
2754.523262611538
 20
1125.092563747915
 10
2703.179673903717
 20
1176.436152455734
 10
2703.179673903717
 20
1144.840097866307
 10
2453.570842647237
 20
1144.840097866307
 10
2453.570842677471
 20
1125.487514449162
  0
LWPOLYLINE
  5
3C9
102
{ACAD_REACTORS
330
3DF
102
}
102
{ACAD_XDICTIONARY
360
3C7
102
}
330
1F
100
AcDbEntity
  8
0
  6
Continuous
 62
     7
370
     0
100
AcDbPolyline
 90
        4
 70
     1
 43
0.0
 10
1516.27250211952
 20
214.934345143758
 10
2116.27250211952
 20
214.934345143758
 10
2116.27250211952
 20
178.934345143758
 10
1516.27250211952
 20
178.934345143758
  0
SOLID
  5
3CC
102
{ACAD_REACTORS
330
3DF
102
}
102
{ACAD_XDICTIONARY
360
3CA
102
}
330
1F
100
AcDbEntity
  8
0
  6
Continuous
 62
     7
100
AcDbTrace
 10
1816.272260630398
 20
196.9342428181744
 30
0.0
 11
2116.272260630398
 21
196.9342428181744
 31
0.0
 12
1816.272260630398
 22
178.9342428181744
 32
0.0
 13
2116.272260630398
 23
178.9342428181744
 33
0.0
  0
SOLID
  5
3CF
102
{ACAD_REACTORS
330
3DF
102
}
102
{ACAD_XDICTIONARY
360
3CD
102
}
330
1F
100
AcDbEntity
  8
0
  6
Continuous
 62
     7
100
AcDbTrace
 10
1516.273966779395
 20
196.9351414804605
 30
0.0
 11
1636.273966779395
 21
196.9351414804605
 31
0.0
 12
1516.273966779395
 22
178.9351414804605
 32
0.0
 13
1636.273966779395
 23
178.9351414804605
 33
0.0
  0
SOLID
  5
3D2
102
{ACAD_REACTORS
330
3DF
102
}
102
{ACAD_XDICTIONARY
360
3D0
102
}
330
1F
100
AcDbEntity
  8
0
  6
Continuous
 62
     7
100
AcDbTrace
 10
1636.273683758089
 20
214.9348968283011
 30
0.0
 11
1816.272502074416
 21
214.9348968283011
 31
0.0
 12
1636.273683758089
 22
196.9348968283011
 32
0.0
 13
1816.272502074416
 23
196.9348968283011
 33
0.0
  0
TEXT
  5
3D5
102
{ACAD_REACTORS
330
3DF
102
}
102
{ACAD_XDICTIONARY
360
3D3
102
}
330
1F
100
AcDbEntity
  8
0
  6
Continuous
 62
     7
100
AcDbText
 10
1510.153095119301
 20
156.9587401390942
 30
0.0
 40
15.33333333333333
  1
0'
  7
_TCW_TXTSTY_2
 11
1510.153095119301
 21
172.2920734724275
 31
0.0
100
AcDbText
 73
     3
  0
TEXT
  5
3D8
102
{ACAD_REACTORS
330
3DF
102
}
102
{ACAD_XDICTIONARY
360
3D6
102
}
330
1F
100
AcDbEntity
  8
0
  6
Continuous
 62
     7
100
AcDbText
 10
1621.040826320592
 20
157.3613408229172
 30
0.0
 40
15.33333333333333
  1
10'+/-
  7
_TCW_TXTSTY_2
 11
1621.040826320592
 21
172.6946741562506
 31
0.0
100
AcDbText
 73
     3
  0
TEXT
  5
3DB
102
{ACAD_REACTORS
330
3DF
102
}
102
{ACAD_XDICTIONARY
360
3D9
102
}
330
1F
100
AcDbEntity
  8
0
  6
Continuous
 62
     7
100
AcDbText
 10
1803.01633540819
 20
157.3038264395133
 30
0.0
 40
15.33333333333333
  1
25'+/-
  7
_TCW_TXTSTY_2
 11
1803.01633540819
 21
172.6371597728466
 31
0.0
100
AcDbText
 73
     3
  0
TEXT
  5
3DE
102
{ACAD_REACTORS
330
3DF
102
}
102
{ACAD_XDICTIONARY
360
3DC
102
}
330
1F
100
AcDbEntity
  8
0
  6
Continuous
 62
     7
100
AcDbText
 10
2083.931868715996
 20
156.0342655791105
 30
0.0
 40
15.33333333333333
  1
50'+/-
  7
_TCW_TXTSTY_2
 11
2083.931868715996
 21
171.3675989124438
 31
0.0
100
AcDbText
 73
     3
  0
MTEXT
  5
3E5
102
{ACAD_XDICTIONARY
360
3E3
102
}
330
1F
100
AcDbEntity
  8
0
  6
Continuous
 62
     7
100
AcDbMText
 10
1142.09640342225
 20
214.1676476580155
 30
0.0
 40
23.0
 41
268.5585937500002
 46
0.0
 71
     1
 72
     1
  1
{ALLIED STUDIOS\P       STAGE 2\P  (310) 889-2050}
  7
_TCW_TXTSTY_6
 73
     1
 44
1.0
  0
MTEXT
  5
3E9
102
{ACAD_XDICTIONARY
360
3E7
102
}
330
1F
100
AcDbEntity
  8
0
  6
Continuous
 62
     7
100
AcDbMText
 10
2548.636317623479
 20
1163.046006433129
 30
0.0
 40
19.16666666666666
 41
189.4775390624995
 46
0.0
 71
     1
 72
     1
  1
{DOOR HEIGHT\P          20'}
  7
_TCW_TXTSTY_7
 11
6.123233995736766E-17
 21
1.0
 31
0.0
 73
     1
 44
1.0
  0
MTEXT
  5
3EC
102
{ACAD_XDICTIONARY
360
3EA
102
}
330
1F
100
AcDbEntity
  8
0
  6
Continuous
 62
     7
100
AcDbMText
 10
1385.933024185642
 20
2306.018865093098
 30
0.0
 40
15.33333333333333
 41
183.83203125
 46
0.0
 71
     1
 72
     1
  1
{ BREEZWAY AND \PSUPPORT SPACE}
  7
_TCW_TXTSTY_2
 73
     1
 44
1.0
  0
LWPOLYLINE
  5
3ED
330
1F
100
AcDbEntity
  8
0
  6
Continuous
 62
     7
370
     0
100
AcDbPolyline
 90
        2
 70
   128
 43
0.0
 10
335.5026838310482
 20
2294.782119127557
 10
335.5026838310482
 20
2280.466197176052
  0
LWPOLYLINE
  5
3EE
330
1F
100
AcDbEntity
  8
0
  6
Continuous
 62
     7
370
     0
100
AcDbPolyline
 90
        4
 70
   128
 43
0.0
 10
335.5026838310482
 20
2272.466197176052
 10
335.5026838310482
 20
2173.777248438339
 10
326.5026838310482
 20
2173.777248438339
 10
326.5026838310482
 20
2294.782119127557
  0
LWPOLYLINE
  5
3EF
330
1F
100
AcDbEntity
  8
0
  6
Continuous
 62
     7
370
     0
100
AcDbPolyline
 90
        2
 70
   128
 43
0.0
 10
335.5026838310482
 20
2137.945787578171
 10
335.5026838310482
 20
2130.238860205374
  0
LWPOLYLINE
  5
3F0
330
1F
100
AcDbEntity
  8
0
  6
Continuous
 62
     7
370
     0
100
AcDbPolyline
 90
        2
 70
   129
 43
0.0
 10
326.5026838310482
 20
2130.238860205374
 10
326.5026838310482
 20
2137.945787578171
  0
DIMENSION
  5
3F3
102
{ACAD_XDICTIONARY
360
3F1
102
}
330
1F
100
AcDbEntity
  8
0
  6
Continuous
 62
     7
370
     0
100
AcDbDimension
  2
*D10
 10
594.414249679709
 20
2143.986360895035
 30
0.0
 11
519.5532551417534
 21
2164.515735949101
 31
0.0
 70
    33
  1
<>
 71
     5
 42
149.7219890759111
 73
     0
 74
     0
 75
     0
  3
Standard
100
AcDbAlignedDimension
 13
444.6922606037979
 23
2138.094432923291
 33
0.0
 14
594.414249679709
 24
2138.094432923291
 34
0.0
1001
ACAD
1000
DSTYLE
1002
{
1070
   179
1070
     3
1070
    41
1040
12.0
1070
   342
1005
341
1070
   176
1070
     7
1070
   177
1070
     7
1070
   178
1070
     7
1070
   271
1070
     3
1070
    43
1040
36.0
1070
    44
1040
12.0
1070
    42
1040
6.0
1070
   147
1040
6.0
1070
   277
1070
     4
1070
     3
1000

1070
    45
1040
5.999999999999999
1070
    74
1070
     1
1070
   140
1040
28.57253086419753
1070
    78
1070
    11
1002
}
  0
DIMENSION
  5
402
102
{ACAD_XDICTIONARY
360
400
102
}
330
1F
100
AcDbEntity
  8
0
  6
Continuous
 62
     7
370
     0
100
AcDbDimension
  2
*D11
 10
1530.70226333802
 20
2142.268575372696
 30
0.0
 11
1468.08046613181
 21
2162.797950426762
 31
0.0
 70
    33
  1
<>
 71
     5
 42
125.2435944124209
 73
     0
 74
     0
 75
     0
  3
Standard
100
AcDbAlignedDimension
 13
1405.458668925599
 23
2135.211067773834
 33
0.0
 14
1530.70226333802
 24
2135.211067773834
 34
0.0
1001
ACAD
1000
DSTYLE
1002
{
1070
   179
1070
     3
1070
    41
1040
12.0
1070
   342
1005
341
1070
   176
1070
     7
1070
   177
1070
     7
1070
   178
1070
     7
1070
   271
1070
     3
1070
    43
1040
36.0
1070
    44
1040
12.0
1070
    42
1040
6.0
1070
   147
1040
6.0
1070
   277
1070
     4
1070
     3
1000

1070
    45
1040
5.999999999999999
1070
    74
1070
     1
1070
   140
1040
28.57253086419753
1070
    78
1070
    11
1002
}
  0
DIMENSION
  5
411
102
{ACAD_XDICTIONARY
360
40F
102
}
330
1F
100
AcDbEntity
  8
0
  6
Continuous
 62
     7
370
     0
100
AcDbDimension
  2
*D12
 10
1692.368720783026
 20
444.3990255319613
 30
0.0
 11
1620.722112384492
 21
464.9284005860277
 31
0.0
 70
    33
  1
<>
 71
     5
 42
143.2932167970694
 73
     0
 74
     0
 75
     0
  3
Standard
100
AcDbAlignedDimension
 13
1549.075503985957
 23
438.4068838745288
 33
0.0
 14
1692.368720783026
 24
438.4068838745288
 34
0.0
1001
ACAD
1000
DSTYLE
1002
{
1070
   179
1070
     3
1070
    41
1040
12.0
1070
   342
1005
341
1070
   176
1070
     7
1070
   177
1070
     7
1070
   178
1070
     7
1070
   271
1070
     3
1070
    43
1040
36.0
1070
    44
1040
12.0
1070
    42
1040
6.0
1070
   147
1040
6.0
1070
   277
1070
     4
1070
     3
1000

1070
    45
1040
5.999999999999999
1070
    74
1070
     1
1070
   140
1040
28.57253086419753
1070
    78
1070
    11
1002
}
  0
DIMENSION
  5
420
102
{ACAD_XDICTIONARY
360
41E
102
}
330
1F
100
AcDbEntity
  8
0
  6
Continuous
 62
     7
370
     0
100
AcDbDimension
  2
*D13
 10
281.0207426951674
 20
1581.379099441065
 30
0.0
 11
281.0207426951674
 21
1701.929247050154
 31
0.0
 70
    32
  1
<>
 71
     5
 42
241.1002952181779
 73
     0
 74
     0
 75
     0
  3
Standard
100
AcDbAlignedDimension
 13
279.1987612370849
 23
1822.479394659243
 33
0.0
 14
279.1987612370849
 24
1581.379099441065
 34
0.0
 50
90.0
100
AcDbRotatedDimension
1001
ACAD
1000
DSTYLE
1002
{
1070
   179
1070
     3
1070
    41
1040
12.0
1070
   342
1005
341
1070
   176
1070
     7
1070
   177
1070
     7
1070
   178
1070
     7
1070
   271
1070
     3
1070
    43
1040
36.0
1070
    44
1040
12.0
1070
    42
1040
6.0
1070
   147
1040
6.0
1070
   277
1070
     4
1070
     3
1000

1070
    45
1040
5.999999999999999
1070
    74
1070
     1
1070
   140
1040
28.57253086419753
1070
    78
1070
    11
1002
}
  0
DIMENSION
  5
430
102
{ACAD_XDICTIONARY
360
42E
102
}
330
1F
100
AcDbEntity
  8
0
  6
Continuous
 62
     7
370
     0
100
AcDbDimension
  2
*D14
 10
2491.146318004906
 20
1491.796041974063
 30
0.0
 11
2491.146318004906
 21
1253.202027779913
 31
0.0
 70
    32
  1
<>
 71
     5
 42
477.1880283882992
 73
     0
 74
     0
 75
     0
  3
Standard
100
AcDbAlignedDimension
 13
2491.482393763895
 23
1014.608013585764
 33
0.0
 14
2491.146318004906
 24
1491.796041974063
 34
0.0
 50
90.0
100
AcDbRotatedDimension
1001
ACAD
1000
DSTYLE
1002
{
1070
   179
1070
     3
1070
    41
1040
12.0
1070
   342
1005
341
1070
   176
1070
     7
1070
   177
1070
     7
1070
   178
1070
     7
1070
   271
1070
     3
1070
    43
1040
36.0
1070
    44
1040
12.0
1070
    42
1040
6.0
1070
   147
1040
6.0
1070
   277
1070
     4
1070
     3
1000

1070
    45
1040
5.999999999999999
1070
    74
1070
     1
1070
   140
1040
28.57253086419753
1070
    78
1070
    11
1002
}
  0
MTEXT
  5
440
102
{ACAD_XDICTIONARY
360
43E
102
}
330
1F
100
AcDbEntity
  8
0
  6
Continuous
 62
     7
100
AcDbMText
 10
160.4175162889971
 20
1598.331453302661
 30
0.0
 40
19.16666666666666
 41
189.4775390625
 46
0.0
 71
     1
 72
     1
  1
{DOOR HEIGHT\P          14'}
  7
_TCW_TXTSTY_7
 11
6.123233995736766E-17
 21
1.0
 31
0.0
 73
     1
 44
1.0
  0
MTEXT
  5
443
102
{ACAD_XDICTIONARY
360
441
102
}
330
1F
100
AcDbEntity
  8
0
  6
Continuous
 62
     7
100
AcDbMText
 10
1529.892924511546
 20
430.7585831558966
 30
0.0
 40
19.16666666666666
 41
189.4775390625
 46
0.0
 71
     1
 72
     1
  1
{DOOR HEIGHT\P          14'}
  7
_TCW_TXTSTY_7
 73
     1
 44
1.0
  0
MTEXT
  5
446
102
{ACAD_XDICTIONARY
360
444
102
}
330
1F
100
AcDbEntity
  8
0
  6
Continuous
 62
     7
100
AcDbMText
 10
1381.751591284958
 20
2238.618266603773
 30
0.0
 40
19.16666666666666
 41
189.4775390625
 46
0.0
 71
     1
 72
     1
  1
{DOOR HEIGHT\P          14'}
  7
_TCW_TXTSTY_7
 73
     1
 44
1.0
  0
MTEXT
  5
449
102
{ACAD_XDICTIONARY
360
447
102
}
330
1F
100
AcDbEntity
  8
0
  6
Continuous
 62
     7
100
AcDbMText
 10
432.9026383315496
 20
2232.829635879111
 30
0.0
 40
19.16666666666666
 41
189.4775390625
 46
0.0
 71
     1
 72
     1
  1
{DOOR HEIGHT\P          14'}
  7
_TCW_TXTSTY_7
 73
     1
 44
1.0
  0
MTEXT
  5
44D
102
{ACAD_XDICTIONARY
360
44B
102
}
330
1F
100
AcDbEntity
  8
0
  6
Continuous
 62
     7
100
AcDbMText
 10
1101.70560231353
 20
73.90999213072443
 30
0.0
 40
24.91666666666666
 41
1078.5556640625
 46
0.0
 71
     1
 72
     1
  1
{MEASUREMENTS ARE ONLY AN APPROXIMATION AND SHOULD\P       NOT BE RELIED UPON FOR PRODUCTION PURPOSES.}
  7
_TCW_TXTSTY_8
 73
     1
 44
1.0
  0
MTEXT
  5
450
102
{ACAD_XDICTIONARY
360
44E
102
}
330
1F
100
AcDbEntity
  8
0
  6
Continuous
 62
     7
100
AcDbMText
 10
466.9251722091576
 20
2306.016834475937
 30
0.0
 40
15.33333333333333
 41
183.83203125
 46
0.0
 71
     1
 72
     1
  1
{ BREEZWAY AND \PSUPPORT SPACE}
  7
_TCW_TXTSTY_2
 73
     1
 44
1.0
  0
VIEWPORT
  5
451
330
1B
100
AcDbEntity
 67
     1
  8
0
100
AcDbViewport
 10
5.5
 20
4.25
 30
0.0
 40
11.0
 41
8.5
 68
     1
 69
     1
 12
5.5
 22
4.25
 13
0.0
 23
0.0
 14
0.5
 24
0.5
 15
0.5
 25
0.5
 16
0.0
 26
0.0
 36
1.0
 17
0.0
 27
0.0
 37
0.0
 42
50.0
 43
0.0
 44
0.0
 45
8.5
 50
0.0
 51
0.0
 72
  1000
 90
    32800
  1

281
     0
 71
     1
 74
     0
110
0.0
120
0.0
130
0.0
111
1.0
121
0.0
131
0.0
112
0.0
122
1.0
132
0.0
 79
     0
146
0.0
170
     0
 61
     5
292
     1
282
     1
141
0.0
142
0.0
 63
   256
  0
VIEWPORT
  5
452
330
1B
100
AcDbEntity
 67
     1
  8
0
  6
Continuous
100
AcDbViewport
 10
5.5
 20
4.25
 30
0.0
 40
11.0
 41
8.5
 68
     2
 69
     2
 12
504.0
 22
384.0
 13
0.0
 23
0.0
 14
0.5
 24
0.5
 15
0.0
 25
0.0
 16
0.0
 26
0.0
 36
1.0
 17
0.0
 27
0.0
 37
0.0
 42
50.0
 43
0.0
 44
0.0
 45
816.0
 50
0.0
 51
0.0
 72
   100
 90
   557152
  1

281
     0
 71
     1
 74
     0
110
0.0
120
0.0
130
0.0
111
1.0
121
0.0
131
0.0
112
0.0
122
1.0
132
0.0
 79
     0
146
0.0
170
     0
 61
     5
292
     1
282
     1
141
0.0
142
0.0
 63
   256
  0
ENDSEC
  0
SECTION
  2
OBJECTS
  0
DICTIONARY
  5
C
330
0
100
AcDbDictionary
281
     1
  3
ACAD_GROUP
350
D
  3
ACAD_LAYOUT
350
1A
  3
ACAD_MATERIAL
350
3B
  3
ACAD_MLEADERSTYLE
350
167
  3
ACAD_MLINESTYLE
350
17
  3
ACAD_PLOTSETTINGS
350
19
  3
ACAD_PLOTSTYLENAME
350
E
  3
ACAD_SCALELIST
350
453
  3
ACAD_TABLESTYLE
350
179
  3
ACAD_VISUALSTYLE
350
2A
  3
ACDB_RECOMPOSE_DATA
350
499
  3
AcDbVariableDictionary
350
475
  3
TC_CUSTOM_TABLES
350
166
  0
DICTIONARY
  5
1AC
330
1AE
100
AcDbDictionary
280
     1
281
     1
  3
TC_EXTENDED_DATA
360
1AD
  0
DICTIONARY
  5
1AF
330
1B1
100
AcDbDictionary
280
     1
281
     1
  3
TC_EXTENDED_DATA
360
1B0
  0
DICTIONARY
  5
1B2
330
1B4
100
AcDbDictionary
280
     1
281
     1
  3
TC_EXTENDED_DATA
360
1B3
  0
DICTIONARY
  5
1B5
330
1B7
100
AcDbDictionary
280
     1
281
     1
  3
TC_EXTENDED_DATA
360
1B6
  0
DICTIONARY
  5
1B8
330
1BA
100
AcDbDictionary
280
     1
281
     1
  3
TC_EXTENDED_DATA
360
1B9
  0
DICTIONARY
  5
1BB
330
1BD
100
AcDbDictionary
280
     1
281
     1
  3
TC_EXTENDED_DATA
360
1BC
  0
DICTIONARY
  5
1BE
330
1C0
100
AcDbDictionary
280
     1
281
     1
  3
TC_EXTENDED_DATA
360
1BF
  0
DICTIONARY
  5
1C1
330
1C3
100
AcDbDictionary
280
     1
281
     1
  3
TC_EXTENDED_DATA
360
1C2
  0
DICTIONARY
  5
1C4
330
1C6
100
AcDbDictionary
280
     1
281
     1
  3
TC_EXTENDED_DATA
360
1C5
  0
DICTIONARY
  5
1C7
330
1C9
100
AcDbDictionary
280
     1
281
     1
  3
TC_EXTENDED_DATA
360
1C8
  0
DICTIONARY
  5
1CA
330
1CC
100
AcDbDictionary
280
     1
281
     1
  3
TC_EXTENDED_DATA
360
1CB
  0
DICTIONARY
  5
1CD
330
1CF
100
AcDbDictionary
280
     1
281
     1
  3
TC_EXTENDED_DATA
360
1CE
  0
DICTIONARY
  5
1D0
330
1D2
100
AcDbDictionary
280
     1
281
     1
  3
TC_EXTENDED_DATA
360
1D1
  0
DICTIONARY
  5
1D3
330
1D5
100
AcDbDictionary
280
     1
281
     1
  3
TC_EXTENDED_DATA
360
1D4
  0
DICTIONARY
  5
1D6
330
1D8
100
AcDbDictionary
280
     1
281
     1
  3
TC_EXTENDED_DATA
360
1D7
  0
DICTIONARY
  5
1D9
330
1DB
100
AcDbDictionary
280
     1
281
     1
  3
TC_EXTENDED_DATA
360
1DA
  0
DICTIONARY
  5
1DC
330
1DE
100
AcDbDictionary
280
     1
281
     1
  3
TC_EXTENDED_DATA
360
1DD
  0
DICTIONARY
  5
1DF
330
1E1
100
AcDbDictionary
280
     1
281
     1
  3
TC_EXTENDED_DATA
360
1E0
  0
DICTIONARY
  5
1E2
330
1E4
100
AcDbDictionary
280
     1
281
     1
  3
TC_EXTENDED_DATA
360
1E3
  0
DICTIONARY
  5
1E5
330
1E7
100
AcDbDictionary
280
     1
281
     1
  3
TC_EXTENDED_DATA
360
1E6
  0
DICTIONARY
  5
1E8
330
1EA
100
AcDbDictionary
280
     1
281
     1
  3
TC_EXTENDED_DATA
360
1E9
  0
DICTIONARY
  5
1EB
330
1ED
100
AcDbDictionary
280
     1
281
     1
  3
TC_EXTENDED_DATA
360
1EC
  0
DICTIONARY
  5
1EE
330
1F0
100
AcDbDictionary
280
     1
281
     1
  3
TC_EXTENDED_DATA
360
1EF
  0
DICTIONARY
  5
1F1
330
1F3
100
AcDbDictionary
280
     1
281
     1
  3
TC_EXTENDED_DATA
360
1F2
  0
DICTIONARY
  5
1F4
330
1F6
100
AcDbDictionary
280
     1
281
     1
  3
TC_EXTENDED_DATA
360
1F5
  0
DICTIONARY
  5
1F8
330
1FA
100
AcDbDictionary
280
     1
281
     1
  3
TC_EXTENDED_DATA
360
1F9
  0
DICTIONARY
  5
1FC
330
1FE
100
AcDbDictionary
280
     1
281
     1
  3
TC_EXTENDED_DATA
360
1FD
  0
DICTIONARY
  5
1FF
330
201
100
AcDbDictionary
280
     1
281
     1
  3
TC_EXTENDED_DATA
360
200
  0
DICTIONARY
  5
202
330
204
100
AcDbDictionary
280
     1
281
     1
  3
TC_EXTENDED_DATA
360
203
  0
DICTIONARY
  5
206
330
208
100
AcDbDictionary
280
     1
281
     1
  3
TC_EXTENDED_DATA
360
207
  0
DICTIONARY
  5
209
330
20B
100
AcDbDictionary
280
     1
281
     1
  3
TC_EXTENDED_DATA
360
20A
  0
DICTIONARY
  5
20C
330
20E
100
AcDbDictionary
280
     1
281
     1
  3
TC_EXTENDED_DATA
360
20D
  0
DICTIONARY
  5
20F
330
211
100
AcDbDictionary
280
     1
281
     1
  3
TC_EXTENDED_DATA
360
210
  0
DICTIONARY
  5
21B
330
21D
100
AcDbDictionary
280
     1
281
     1
  3
TC_EXTENDED_DATA
360
21C
  0
DICTIONARY
  5
21E
330
220
100
AcDbDictionary
280
     1
281
     1
  3
TC_EXTENDED_DATA
360
21F
  0
DICTIONARY
  5
221
330
223
100
AcDbDictionary
280
     1
281
     1
  3
TC_EXTENDED_DATA
360
222
  0
DICTIONARY
  5
224
330
226
100
AcDbDictionary
280
     1
281
     1
  3
TC_EXTENDED_DATA
360
225
  0
DICTIONARY
  5
227
330
229
100
AcDbDictionary
280
     1
281
     1
  3
TC_EXTENDED_DATA
360
228
  0
DICTIONARY
  5
22A
330
22C
100
AcDbDictionary
280
     1
281
     1
  3
TC_EXTENDED_DATA
360
22B
  0
DICTIONARY
  5
22D
330
22F
100
AcDbDictionary
280
     1
281
     1
  3
TC_EXTENDED_DATA
360
22E
  0
DICTIONARY
  5
238
330
23A
100
AcDbDictionary
280
     1
281
     1
  3
TC_EXTENDED_DATA
360
239
  0
DICTIONARY
  5
23B
330
23D
100
AcDbDictionary
280
     1
281
     1
  3
TC_EXTENDED_DATA
360
23C
  0
DICTIONARY
  5
23E
330
242
100
AcDbDictionary
280
     1
281
     1
  3
TC_EXTENDED_DATA
360
23F
  0
DICTIONARY
  5
240
330
245
100
AcDbDictionary
280
     1
281
     1
  3
TC_EXTENDED_DATA
360
241
  0
DICTIONARY
  5
243
330
248
100
AcDbDictionary
280
     1
281
     1
  3
TC_EXTENDED_DATA
360
244
  0
DICTIONARY
  5
249
330
24D
100
AcDbDictionary
280
     1
281
     1
  3
TC_EXTENDED_DATA
360
24A
  0
DICTIONARY
  5
24E
330
252
100
AcDbDictionary
280
     1
281
     1
  3
TC_EXTENDED_DATA
360
24F
  0
DICTIONARY
  5
250
330
253
100
AcDbDictionary
280
     1
281
     1
  3
TC_EXTENDED_DATA
360
251
  0
DICTIONARY
  5
254
330
258
100
AcDbDictionary
280
     1
281
     1
  3
TC_EXTENDED_DATA
360
255
  0
DICTIONARY
  5
259
330
25D
100
AcDbDictionary
280
     1
281
     1
  3
TC_EXTENDED_DATA
360
25A
  0
DICTIONARY
  5
25B
330
25E
100
AcDbDictionary
280
     1
281
     1
  3
TC_EXTENDED_DATA
360
25C
  0
DICTIONARY
  5
25F
330
261
100
AcDbDictionary
280
     1
281
     1
  3
TC_EXTENDED_DATA
360
260
  0
DICTIONARY
  5
262
330
264
100
AcDbDictionary
280
     1
281
     1
  3
TC_EXTENDED_DATA
360
263
  0
DICTIONARY
  5
265
330
267
100
AcDbDictionary
280
     1
281
     1
  3
TC_EXTENDED_DATA
360
266
  0
DICTIONARY
  5
268
330
26A
100
AcDbDictionary
280
     1
281
     1
  3
TC_EXTENDED_DATA
360
269
  0
DICTIONARY
  5
26B
330
26D
100
AcDbDictionary
280
     1
281
     1
  3
TC_EXTENDED_DATA
360
26C
  0
DICTIONARY
  5
27E
330
280
100
AcDbDictionary
280
     1
281
     1
  3
TC_EXTENDED_DATA
360
27F
  0
DICTIONARY
  5
281
330
283
100
AcDbDictionary
280
     1
281
     1
  3
TC_EXTENDED_DATA
360
282
  0
DICTIONARY
  5
284
330
286
100
AcDbDictionary
280
     1
281
     1
  3
TC_EXTENDED_DATA
360
285
  0
DICTIONARY
  5
287
330
289
100
AcDbDictionary
280
     1
281
     1
  3
TC_EXTENDED_DATA
360
288
  0
DICTIONARY
  5
291
330
293
100
AcDbDictionary
280
     1
281
     1
  3
TC_EXTENDED_DATA
360
292
  0
DICTIONARY
  5
294
330
296
100
AcDbDictionary
280
     1
281
     1
  3
TC_EXTENDED_DATA
360
295
  0
DICTIONARY
  5
297
330
299
100
AcDbDictionary
280
     1
281
     1
  3
TC_EXTENDED_DATA
360
298
  0
DICTIONARY
  5
29A
330
29C
100
AcDbDictionary
280
     1
281
     1
  3
TC_EXTENDED_DATA
360
29B
  0
DICTIONARY
  5
2A2
330
2A4
100
AcDbDictionary
280
     1
281
     1
  3
TC_EXTENDED_DATA
360
2A3
  0
DICTIONARY
  5
2A5
330
2A7
100
AcDbDictionary
280
     1
281
     1
  3
TC_EXTENDED_DATA
360
2A6
  0
DICTIONARY
  5
2A9
330
2AB
100
AcDbDictionary
280
     1
281
     1
  3
TC_EXTENDED_DATA
360
2AA
  0
DICTIONARY
  5
2AC
330
2B0
100
AcDbDictionary
280
     1
281
     1
  3
TC_EXTENDED_DATA
360
2AD
  0
DICTIONARY
  5
2AE
330
2B3
100
AcDbDictionary
280
     1
281
     1
  3
TC_EXTENDED_DATA
360
2AF
  0
DICTIONARY
  5
2B4
330
2B6
100
AcDbDictionary
280
     1
281
     1
  3
TC_EXTENDED_DATA
360
2B5
  0
DICTIONARY
  5
2B7
330
2B9
100
AcDbDictionary
280
     1
281
     1
  3
TC_EXTENDED_DATA
360
2B8
  0
DICTIONARY
  5
2BA
330
2BE
100
AcDbDictionary
280
     1
281
     1
  3
TC_EXTENDED_DATA
360
2BB
  0
DICTIONARY
  5
2BC
330
2C1
100
AcDbDictionary
280
     1
281
     1
  3
TC_EXTENDED_DATA
360
2BD
  0
DICTIONARY
  5
2C2
330
2C6
100
AcDbDictionary
280
     1
281
     1
  3
TC_EXTENDED_DATA
360
2C3
  0
DICTIONARY
  5
2C4
330
2C9
100
AcDbDictionary
280
     1
281
     1
  3
TC_EXTENDED_DATA
360
2C5
  0
DICTIONARY
  5
2CA
330
2CE
100
AcDbDictionary
280
     1
281
     1
  3
TC_EXTENDED_DATA
360
2CB
  0
DICTIONARY
  5
2CC
330
2D1
100
AcDbDictionary
280
     1
281
     1
  3
TC_EXTENDED_DATA
360
2CD
  0
DICTIONARY
  5
2D2
330
2D6
100
AcDbDictionary
280
     1
281
     1
  3
TC_EXTENDED_DATA
360
2D3
  0
DICTIONARY
  5
2D4
330
2D9
100
AcDbDictionary
280
     1
281
     1
  3
TC_EXTENDED_DATA
360
2D5
  0
DICTIONARY
  5
2DA
330
2DC
100
AcDbDictionary
280
     1
281
     1
  3
TC_EXTENDED_DATA
360
2DB
  0
DICTIONARY
  5
2DE
330
2E0
100
AcDbDictionary
280
     1
281
     1
  3
TC_EXTENDED_DATA
360
2DF
  0
DICTIONARY
  5
2E1
330
2E3
100
AcDbDictionary
280
     1
281
     1
  3
TC_EXTENDED_DATA
360
2E2
  0
DICTIONARY
  5
2E4
330
2E6
100
AcDbDictionary
280
     1
281
     1
  3
TC_EXTENDED_DATA
360
2E5
  0
DICTIONARY
  5
2E7
330
2E9
100
AcDbDictionary
280
     1
281
     1
  3
TC_EXTENDED_DATA
360
2E8
  0
DICTIONARY
  5
2EA
330
2EC
100
AcDbDictionary
280
     1
281
     1
  3
TC_EXTENDED_DATA
360
2EB
  0
DICTIONARY
  5
2ED
330
2EF
100
AcDbDictionary
280
     1
281
     1
  3
TC_EXTENDED_DATA
360
2EE
  0
DICTIONARY
  5
2F0
330
2F2
100
AcDbDictionary
280
     1
281
     1
  3
TC_EXTENDED_DATA
360
2F1
  0
DICTIONARY
  5
2F3
330
2F5
100
AcDbDictionary
280
     1
281
     1
  3
TC_EXTENDED_DATA
360
2F4
  0
DICTIONARY
  5
2F6
330
2F8
100
AcDbDictionary
280
     1
281
     1
  3
TC_EXTENDED_DATA
360
2F7
  0
DICTIONARY
  5
2F9
330
2FB
100
AcDbDictionary
280
     1
281
     1
  3
TC_EXTENDED_DATA
360
2FA
  0
DICTIONARY
  5
2FC
330
2FE
100
AcDbDictionary
280
     1
281
     1
  3
TC_EXTENDED_DATA
360
2FD
  0
DICTIONARY
  5
2FF
330
301
100
AcDbDictionary
280
     1
281
     1
  3
TC_EXTENDED_DATA
360
300
  0
DICTIONARY
  5
302
330
304
100
AcDbDictionary
280
     1
281
     1
  3
TC_EXTENDED_DATA
360
303
  0
DICTIONARY
  5
305
330
307
100
AcDbDictionary
280
     1
281
     1
  3
TC_EXTENDED_DATA
360
306
  0
DICTIONARY
  5
308
330
30A
100
AcDbDictionary
280
     1
281
     1
  3
TC_EXTENDED_DATA
360
309
  0
DICTIONARY
  5
30B
330
30F
100
AcDbDictionary
280
     1
281
     1
  3
TC_EXTENDED_DATA
360
30C
  0
DICTIONARY
  5
310
330
312
100
AcDbDictionary
280
     1
281
     1
  3
TC_EXTENDED_DATA
360
311
  0
DICTIONARY
  5
313
330
315
100
AcDbDictionary
280
     1
281
     1
  3
TC_EXTENDED_DATA
360
314
  0
DICTIONARY
  5
316
330
318
100
AcDbDictionary
280
     1
281
     1
  3
TC_EXTENDED_DATA
360
317
  0
DICTIONARY
  5
319
330
31B
100
AcDbDictionary
280
     1
281
     1
  3
TC_EXTENDED_DATA
360
31A
  0
DICTIONARY
  5
31C
330
31E
100
AcDbDictionary
280
     1
281
     1
  3
TC_EXTENDED_DATA
360
31D
  0
DICTIONARY
  5
31F
330
321
100
AcDbDictionary
280
     1
281
     1
  3
TC_EXTENDED_DATA
360
320
  0
DICTIONARY
  5
322
330
324
100
AcDbDictionary
280
     1
281
     1
  3
TC_EXTENDED_DATA
360
323
  0
DICTIONARY
  5
325
330
327
100
AcDbDictionary
280
     1
281
     1
  3
TC_EXTENDED_DATA
360
326
  0
DICTIONARY
  5
328
330
32A
100
AcDbDictionary
280
     1
281
     1
  3
TC_EXTENDED_DATA
360
329
  0
DICTIONARY
  5
32B
330
32D
100
AcDbDictionary
280
     1
281
     1
  3
TC_EXTENDED_DATA
360
32C
  0
DICTIONARY
  5
32E
330
330
100
AcDbDictionary
280
     1
281
     1
  3
TC_EXTENDED_DATA
360
32F
  0
DICTIONARY
  5
331
330
335
100
AcDbDictionary
280
     1
281
     1
  3
TC_EXTENDED_DATA
360
332
  0
DICTIONARY
  5
336
330
33A
100
AcDbDictionary
280
     1
281
     1
  3
TC_EXTENDED_DATA
360
337
  0
DICTIONARY
  5
338
330
33D
100
AcDbDictionary
280
     1
281
     1
  3
TC_EXTENDED_DATA
360
339
  0
DICTIONARY
  5
33B
330
33E
100
AcDbDictionary
280
     1
281
     1
  3
TC_EXTENDED_DATA
360
33C
  0
DICTIONARY
  5
33F
330
345
100
AcDbDictionary
280
     1
281
     1
  3
TC_EXTENDED_DATA
360
340
  0
DICTIONARY
  5
353
330
355
100
AcDbDictionary
280
     1
281
     1
  3
TC_EXTENDED_DATA
360
354
  0
DICTIONARY
  5
363
330
365
100
AcDbDictionary
280
     1
281
     1
  3
TC_EXTENDED_DATA
360
364
  0
DICTIONARY
  5
373
330
375
100
AcDbDictionary
280
     1
281
     1
  3
TC_EXTENDED_DATA
360
374
  0
DICTIONARY
  5
382
330
384
100
AcDbDictionary
280
     1
281
     1
  3
TC_EXTENDED_DATA
360
383
  0
DICTIONARY
  5
391
330
393
100
AcDbDictionary
280
     1
281
     1
  3
TC_EXTENDED_DATA
360
392
  0
DICTIONARY
  5
3A0
330
3A2
100
AcDbDictionary
280
     1
281
     1
  3
TC_EXTENDED_DATA
360
3A1
  0
DICTIONARY
  5
3AF
330
3B3
100
AcDbDictionary
280
     1
281
     1
  3
TC_EXTENDED_DATA
360
3B0
  0
DICTIONARY
  5
3B1
330
3B6
100
AcDbDictionary
280
     1
281
     1
  3
TC_EXTENDED_DATA
360
3B2
  0
DICTIONARY
  5
3B4
330
3B9
100
AcDbDictionary
280
     1
281
     1
  3
TC_EXTENDED_DATA
360
3B5
  0
DICTIONARY
  5
3B7
330
3BC
100
AcDbDictionary
280
     1
281
     1
  3
TC_EXTENDED_DATA
360
3B8
  0
DICTIONARY
  5
3BD
330
3BF
100
AcDbDictionary
280
     1
281
     1
  3
TC_EXTENDED_DATA
360
3BE
  0
DICTIONARY
  5
3C0
330
3C2
100
AcDbDictionary
280
     1
281
     1
  3
TC_EXTENDED_DATA
360
3C1
  0
DICTIONARY
  5
3C3
330
3C5
100
AcDbDictionary
280
     1
281
     1
  3
TC_EXTENDED_DATA
360
3C4
  0
DICTIONARY
  5
3C7
330
3C9
100
AcDbDictionary
280
     1
281
     1
  3
TC_EXTENDED_DATA
360
3C8
  0
DICTIONARY
  5
3CA
330
3CC
100
AcDbDictionary
280
     1
281
     1
  3
TC_EXTENDED_DATA
360
3CB
  0
DICTIONARY
  5
3CD
330
3CF
100
AcDbDictionary
280
     1
281
     1
  3
TC_EXTENDED_DATA
360
3CE
  0
DICTIONARY
  5
3D0
330
3D2
100
AcDbDictionary
280
     1
281
     1
  3
TC_EXTENDED_DATA
360
3D1
  0
DICTIONARY
  5
3D3
330
3D5
100
AcDbDictionary
280
     1
281
     1
  3
TC_EXTENDED_DATA
360
3D4
  0
DICTIONARY
  5
3D6
330
3D8
100
AcDbDictionary
280
     1
281
     1
  3
TC_EXTENDED_DATA
360
3D7
  0
DICTIONARY
  5
3D9
330
3DB
100
AcDbDictionary
280
     1
281
     1
  3
TC_EXTENDED_DATA
360
3DA
  0
DICTIONARY
  5
3DC
330
3DE
100
AcDbDictionary
280
     1
281
     1
  3
TC_EXTENDED_DATA
360
3DD
  0
DICTIONARY
  5
3E3
330
3E5
100
AcDbDictionary
280
     1
281
     1
  3
TC_EXTENDED_DATA
360
3E4
  0
DICTIONARY
  5
3E7
330
3E9
100
AcDbDictionary
280
     1
281
     1
  3
TC_EXTENDED_DATA
360
3E8
  0
DICTIONARY
  5
3EA
330
3EC
100
AcDbDictionary
280
     1
281
     1
  3
TC_EXTENDED_DATA
360
3EB
  0
DICTIONARY
  5
3F1
330
3F3
100
AcDbDictionary
280
     1
281
     1
  3
TC_EXTENDED_DATA
360
3F2
  0
DICTIONARY
  5
400
330
402
100
AcDbDictionary
280
     1
281
     1
  3
TC_EXTENDED_DATA
360
401
  0
DICTIONARY
  5
40F
330
411
100
AcDbDictionary
280
     1
281
     1
  3
TC_EXTENDED_DATA
360
410
  0
DICTIONARY
  5
41E
330
420
100
AcDbDictionary
280
     1
281
     1
  3
TC_EXTENDED_DATA
360
41F
  0
DICTIONARY
  5
42E
330
430
100
AcDbDictionary
280
     1
281
     1
  3
TC_EXTENDED_DATA
360
42F
  0
DICTIONARY
  5
43E
330
440
100
AcDbDictionary
280
     1
281
     1
  3
TC_EXTENDED_DATA
360
43F
  0
DICTIONARY
  5
441
330
443
100
AcDbDictionary
280
     1
281
     1
  3
TC_EXTENDED_DATA
360
442
  0
DICTIONARY
  5
444
330
446
100
AcDbDictionary
280
     1
281
     1
  3
TC_EXTENDED_DATA
360
445
  0
DICTIONARY
  5
447
330
449
100
AcDbDictionary
280
     1
281
     1
  3
TC_EXTENDED_DATA
360
448
  0
DICTIONARY
  5
44B
330
44D
100
AcDbDictionary
280
     1
281
     1
  3
TC_EXTENDED_DATA
360
44C
  0
DICTIONARY
  5
44E
330
450
100
AcDbDictionary
280
     1
281
     1
  3
TC_EXTENDED_DATA
360
44F
  0
DICTIONARY
  5
D
102
{ACAD_REACTORS
330
C
102
}
330
C
100
AcDbDictionary
281
     1
  3
Group_1
350
3C6
  3
scale
350
3DF
  0
DICTIONARY
  5
1A
102
{ACAD_REACTORS
330
C
102
}
330
C
100
AcDbDictionary
281
     1
  3
Model
350
22
  3
Paper 1
350
1E
  0
DICTIONARY
  5
3B
102
{ACAD_REACTORS
330
C
102
}
330
C
100
AcDbDictionary
281
     1
  3
ByBlock
350
3D
  3
ByLayer
350
3C
  3
Global
350
3E
  0
DICTIONARY
  5
167
102
{ACAD_REACTORS
330
C
102
}
330
C
100
AcDbDictionary
281
     1
  3
Standard
350
168
  0
DICTIONARY
  5
17
102
{ACAD_REACTORS
330
C
102
}
330
C
100
AcDbDictionary
281
     1
  3
Standard
350
18
  0
DICTIONARY
  5
19
102
{ACAD_REACTORS
330
C
102
}
330
C
100
AcDbDictionary
281
     1
  0
ACDBDICTIONARYWDFLT
  5
E
102
{ACAD_REACTORS
330
C
102
}
330
C
100
AcDbDictionary
281
     1
  3
Normal
350
F
100
AcDbDictionaryWithDefault
340
F
  0
DICTIONARY
  5
453
102
{ACAD_REACTORS
330
C
102
}
330
C
100
AcDbDictionary
281
     1
  3
A0
350
454
  3
A1
350
455
  3
A2
350
456
  3
A3
350
457
  3
A4
350
458
  3
A5
350
459
  3
A6
350
45A
  3
A7
350
45B
  3
A8
350
45C
  3
A9
350
45D
  3
B0
350
45E
  3
B1
350
45F
  3
B2
350
460
  3
B3
350
461
  3
B4
350
462
  3
B5
350
463
  3
B6
350
464
  3
B7
350
465
  3
B8
350
466
  3
B9
350
467
  3
C0
350
468
  3
C1
350
469
  3
C2
350
46A
  3
C3
350
46B
  3
C4
350
46C
  3
C5
350
46D
  3
C6
350
46E
  3
C7
350
46F
  3
C8
350
470
  3
C9
350
471
  3
D0
350
472
  3
D1
350
473
  3
D2
350
474
  0
DICTIONARY
  5
179
102
{ACAD_REACTORS
330
C
102
}
330
C
100
AcDbDictionary
281
     1
  3
Standard
350
17A
  0
DICTIONARY
  5
2A
102
{ACAD_REACTORS
330
C
102
}
330
C
100
AcDbDictionary
281
     1
  3
2dWireframe
350
2F
  3
3D Hidden
350
31
  3
3dWireframe
350
30
  3
Basic
350
32
  3
Brighten
350
36
  3
ColorChange
350
3A
  3
Conceptual
350
34
  3
Dim
350
35
  3
Facepattern
350
39
  3
Flat
350
2B
  3
FlatWithEdges
350
2C
  3
Gouraud
350
2D
  3
GouraudWithEdges
350
2E
  3
Linepattern
350
38
  3
Realistic
350
33
  3
Thicken
350
37
  0
XRECORD
  5
499
102
{ACAD_REACTORS
330
C
102
}
330
C
100
AcDbXrecord
280
     1
 90
        1
330
17A
  0
DICTIONARY
  5
475
102
{ACAD_REACTORS
330
C
102
}
330
C
100
AcDbDictionary
281
     1
  3
CANNOSCALE
350
476
  0
DICTIONARY
  5
166
102
{ACAD_REACTORS
330
C
102
}
330
C
100
AcDbDictionary
281
     1
  0
TCOPTIONALDATA
  5
1AD
102
{ACAD_REACTORS
330
1AC
102
}
330
1AC
100
TcOptionalData
 70
     2
 70
     1
  1
Line/Polyline
  0
TCOPTIONALDATA
  5
1B0
102
{ACAD_REACTORS
330
1AF
102
}
330
1AF
100
TcOptionalData
 70
     2
 70
   128
 90
        1
  1
#$AUX@_ToolInfo Properties
 70
     8
 90
       14
310
434D445F52454354414E474C4540
  0
TCOPTIONALDATA
  5
1B3
102
{ACAD_REACTORS
330
1B2
102
}
330
1B2
100
TcOptionalData
 70
     2
 70
   128
 90
        1
  1
#$AUX@_ToolInfo Properties
 70
     8
 90
       14
310
434D445F52454354414E474C4540
  0
TCOPTIONALDATA
  5
1B6
102
{ACAD_REACTORS
330
1B5
102
}
330
1B5
100
TcOptionalData
 70
     2
 70
   128
 90
        1
  1
#$AUX@_ToolInfo Properties
 70
     8
 90
       16
310
434D445F43454E544552505441524340
  0
TCOPTIONALDATA
  5
1B9
102
{ACAD_REACTORS
330
1B8
102
}
330
1B8
100
TcOptionalData
 70
     2
 70
   128
 90
        1
  1
#$AUX@_ToolInfo Properties
 70
     8
 90
       14
310
434D445F52454354414E474C4540
  0
TCOPTIONALDATA
  5
1BC
102
{ACAD_REACTORS
330
1BB
102
}
330
1BB
100
TcOptionalData
 70
     2
 70
   128
 90
        1
  1
#$AUX@_ToolInfo Properties
 70
     8
 90
       16
310
434D445F43454E544552505441524340
  0
TCOPTIONALDATA
  5
1BF
102
{ACAD_REACTORS
330
1BE
102
}
330
1BE
100
TcOptionalData
 70
     2
 70
   128
 90
        1
  1
#$AUX@_ToolInfo Properties
 70
     8
 90
       14
310
434D445F52454354414E474C4540
  0
TCOPTIONALDATA
  5
1C2
102
{ACAD_REACTORS
330
1C1
102
}
330
1C1
100
TcOptionalData
 70
     2
 70
   128
 90
        1
  1
#$AUX@_ToolInfo Properties
 70
     8
 90
       16
310
434D445F43454E544552505441524340
  0
TCOPTIONALDATA
  5
1C5
102
{ACAD_REACTORS
330
1C4
102
}
330
1C4
100
TcOptionalData
 70
     2
 70
   128
 90
        1
  1
#$AUX@_ToolInfo Properties
 70
     8
 90
       14
310
434D445F52454354414E474C4540
  0
TCOPTIONALDATA
  5
1C8
102
{ACAD_REACTORS
330
1C7
102
}
330
1C7
100
TcOptionalData
 70
     2
 70
   128
 90
        1
  1
#$AUX@_ToolInfo Properties
 70
     8
 90
       14
310
434D445F52454354414E474C4540
  0
TCOPTIONALDATA
  5
1CB
102
{ACAD_REACTORS
330
1CA
102
}
330
1CA
100
TcOptionalData
 70
     2
 70
   128
 90
        1
  1
#$AUX@_ToolInfo Properties
 70
     8
 90
       14
310
434D445F52454354414E474C4540
  0
TCOPTIONALDATA
  5
1CE
102
{ACAD_REACTORS
330
1CD
102
}
330
1CD
100
TcOptionalData
 70
     2
 70
   128
 90
        1
  1
#$AUX@_ToolInfo Properties
 70
     8
 90
       16
310
434D445F43454E544552505441524340
  0
TCOPTIONALDATA
  5
1D1
102
{ACAD_REACTORS
330
1D0
102
}
330
1D0
100
TcOptionalData
 70
     2
 70
   128
 90
        1
  1
#$AUX@_ToolInfo Properties
 70
     8
 90
       14
310
434D445F52454354414E474C4540
  0
TCOPTIONALDATA
  5
1D4
102
{ACAD_REACTORS
330
1D3
102
}
330
1D3
100
TcOptionalData
 70
     2
 70
   128
 90
        1
  1
#$AUX@_ToolInfo Properties
 70
     8
 90
       16
310
434D445F43454E544552505441524340
  0
TCOPTIONALDATA
  5
1D7
102
{ACAD_REACTORS
330
1D6
102
}
330
1D6
100
TcOptionalData
 70
     2
 70
   128
 90
        1
  1
#$AUX@_ToolInfo Properties
 70
     8
 90
       14
310
434D445F52454354414E474C4540
  0
TCOPTIONALDATA
  5
1DA
102
{ACAD_REACTORS
330
1D9
102
}
330
1D9
100
TcOptionalData
 70
     2
 70
   128
 90
        1
  1
#$AUX@_ToolInfo Properties
 70
     8
 90
       16
310
434D445F43454E544552505441524340
  0
TCOPTIONALDATA
  5
1DD
102
{ACAD_REACTORS
330
1DC
102
}
330
1DC
100
TcOptionalData
 70
     2
 70
   128
 90
        1
  1
#$AUX@_ToolInfo Properties
 70
     8
 90
       14
310
434D445F52454354414E474C4540
  0
TCOPTIONALDATA
  5
1E0
102
{ACAD_REACTORS
330
1DF
102
}
330
1DF
100
TcOptionalData
 70
     2
 70
   128
 90
        1
  1
#$AUX@_ToolInfo Properties
 70
     8
 90
       16
310
434D445F43454E544552505441524340
  0
TCOPTIONALDATA
  5
1E3
102
{ACAD_REACTORS
330
1E2
102
}
330
1E2
100
TcOptionalData
 70
     2
 70
   128
 90
        1
  1
#$AUX@_ToolInfo Properties
 70
     8
 90
       14
310
434D445F52454354414E474C4540
  0
TCOPTIONALDATA
  5
1E6
102
{ACAD_REACTORS
330
1E5
102
}
330
1E5
100
TcOptionalData
 70
     2
 70
   128
 90
        1
  1
#$AUX@_ToolInfo Properties
 70
     8
 90
       16
310
434D445F43454E544552505441524340
  0
TCOPTIONALDATA
  5
1E9
102
{ACAD_REACTORS
330
1E8
102
}
330
1E8
100
TcOptionalData
 70
     2
 70
   128
 90
        1
  1
#$AUX@_ToolInfo Properties
 70
     8
 90
       14
310
434D445F52454354414E474C4540
  0
TCOPTIONALDATA
  5
1EC
102
{ACAD_REACTORS
330
1EB
102
}
330
1EB
100
TcOptionalData
 70
     2
 70
   128
 90
        1
  1
#$AUX@_ToolInfo Properties
 70
     8
 90
       16
310
434D445F43454E544552505441524340
  0
TCOPTIONALDATA
  5
1EF
102
{ACAD_REACTORS
330
1EE
102
}
330
1EE
100
TcOptionalData
 70
     2
 70
   128
 90
        1
  1
#$AUX@_ToolInfo Properties
 70
     8
 90
       14
310
434D445F52454354414E474C4540
  0
TCOPTIONALDATA
  5
1F2
102
{ACAD_REACTORS
330
1F1
102
}
330
1F1
100
TcOptionalData
 70
     2
 70
   128
 90
        1
  1
#$AUX@_ToolInfo Properties
 70
     8
 90
       14
310
434D445F52454354414E474C4540
  0
TCOPTIONALDATA
  5
1F5
102
{ACAD_REACTORS
330
1F4
102
}
330
1F4
100
TcOptionalData
 70
     2
 70
   128
 90
        1
  1
#$AUX@_ToolInfo Properties
 70
     8
 90
       14
310
434D445F52454354414E474C4540
  0
TCOPTIONALDATA
  5
1F9
102
{ACAD_REACTORS
330
1F8
102
}
330
1F8
100
TcOptionalData
 70
     2
 70
   144
 90
        1
  1
#$AUX@_ToolInfo Properties
 70
     8
 90
        9
310
434D445F5445585440
  1
Arial
 70
     0
  0
TCOPTIONALDATA
  5
1FD
102
{ACAD_REACTORS
330
1FC
102
}
330
1FC
100
TcOptionalData
 70
     2
 70
   144
 90
        1
  1
#$AUX@_ToolInfo Properties
 70
     8
 90
        9
310
434D445F5445585440
  1
Arial
 70
     0
  0
TCOPTIONALDATA
  5
200
102
{ACAD_REACTORS
330
1FF
102
}
330
1FF
100
TcOptionalData
 70
     2
 70
   144
 90
        1
  1
#$AUX@_ToolInfo Properties
 70
     8
 90
        9
310
434D445F5445585440
  1
Arial
 70
     0
  0
TCOPTIONALDATA
  5
203
102
{ACAD_REACTORS
330
202
102
}
330
202
100
TcOptionalData
 70
     2
 70
   144
 90
        1
  1
#$AUX@_ToolInfo Properties
 70
     8
 90
        9
310
434D445F5445585440
  1
Arial
 70
     0
  0
TCOPTIONALDATA
  5
207
102
{ACAD_REACTORS
330
206
102
}
330
206
100
TcOptionalData
 70
     2
 70
   144
 90
        1
  1
#$AUX@_ToolInfo Properties
 70
     8
 90
        9
310
434D445F5445585440
  1
Arial
 70
     0
  0
TCOPTIONALDATA
  5
20A
102
{ACAD_REACTORS
330
209
102
}
330
209
100
TcOptionalData
 70
     2
 70
   130
 10
1072.288936743027
 20
2122.872317448236
 30
0.0
 90
        1
  1
#$AUX@_ToolInfo Properties
 70
     8
 90
        9
310
434D445F5445585440
  0
TCOPTIONALDATA
  5
20D
102
{ACAD_REACTORS
330
20C
102
}
330
20C
100
TcOptionalData
 70
     2
 70
   144
 90
        1
  1
#$AUX@_ToolInfo Properties
 70
     8
 90
        9
310
434D445F5445585440
  1
Arial
 70
     0
  0
TCOPTIONALDATA
  5
210
102
{ACAD_REACTORS
330
20F
102
}
330
20F
100
TcOptionalData
 70
     2
 70
   144
 90
        1
  1
#$AUX@_ToolInfo Properties
 70
     8
 90
        9
310
434D445F5445585440
  1
Arial
 70
     0
  0
TCOPTIONALDATA
  5
21C
102
{ACAD_REACTORS
330
21B
102
}
330
21B
100
TcOptionalData
 70
     2
 70
     1
  1
Line/Polyline
  0
TCOPTIONALDATA
  5
21F
102
{ACAD_REACTORS
330
21E
102
}
330
21E
100
TcOptionalData
 70
     2
 70
     1
  1
Line/Polyline
  0
TCOPTIONALDATA
  5
222
102
{ACAD_REACTORS
330
221
102
}
330
221
100
TcOptionalData
 70
     2
 70
     1
  1
Line/Polyline
  0
TCOPTIONALDATA
  5
225
102
{ACAD_REACTORS
330
224
102
}
330
224
100
TcOptionalData
 70
     2
 70
     1
  1
Line/Polyline
  0
TCOPTIONALDATA
  5
228
102
{ACAD_REACTORS
330
227
102
}
330
227
100
TcOptionalData
 70
     2
 70
     1
  1
Line/Polyline
  0
TCOPTIONALDATA
  5
22B
102
{ACAD_REACTORS
330
22A
102
}
330
22A
100
TcOptionalData
 70
     2
 70
   128
 90
        1
  1
#$AUX@_ToolInfo Properties
 70
     8
 90
       14
310
434D445F52454354414E474C4540
  0
TCOPTIONALDATA
  5
22E
102
{ACAD_REACTORS
330
22D
102
}
330
22D
100
TcOptionalData
 70
     2
 70
   128
 90
        1
  1
#$AUX@_ToolInfo Properties
 70
     8
 90
       16
310
434D445F43454E544552505441524340
  0
TCOPTIONALDATA
  5
239
102
{ACAD_REACTORS
330
238
102
}
330
238
100
TcOptionalData
 70
     2
 70
   128
 90
        1
  1
#$AUX@_ToolInfo Properties
 70
     8
 90
       14
310
434D445F52454354414E474C4540
  0
TCOPTIONALDATA
  5
23C
102
{ACAD_REACTORS
330
23B
102
}
330
23B
100
TcOptionalData
 70
     2
 70
   128
 90
        1
  1
#$AUX@_ToolInfo Properties
 70
     8
 90
       14
310
434D445F52454354414E474C4540
  0
TCOPTIONALDATA
  5
23F
102
{ACAD_REACTORS
330
23E
102
}
330
23E
100
TcOptionalData
 70
     2
 70
     1
  1
DoubleLine
  0
TCOPTIONALDATA
  5
241
102
{ACAD_REACTORS
330
240
102
}
330
240
100
TcOptionalData
 70
     2
 70
     1
  1
DoubleLine
  0
TCOPTIONALDATA
  5
244
102
{ACAD_REACTORS
330
243
102
}
330
243
100
TcOptionalData
 70
     2
 70
     1
  1
DoubleLine
  0
TCOPTIONALDATA
  5
24A
102
{ACAD_REACTORS
330
249
102
}
330
249
100
TcOptionalData
 70
     2
 70
     1
  1
DoubleLine
  0
TCOPTIONALDATA
  5
24F
102
{ACAD_REACTORS
330
24E
102
}
330
24E
100
TcOptionalData
 70
     2
 70
     1
  1
DoubleLine
  0
TCOPTIONALDATA
  5
251
102
{ACAD_REACTORS
330
250
102
}
330
250
100
TcOptionalData
 70
     2
 70
     1
  1
DoubleLine
  0
TCOPTIONALDATA
  5
255
102
{ACAD_REACTORS
330
254
102
}
330
254
100
TcOptionalData
 70
     2
 70
     1
  1
DoubleLine
  0
TCOPTIONALDATA
  5
25A
102
{ACAD_REACTORS
330
259
102
}
330
259
100
TcOptionalData
 70
     2
 70
     1
  1
DoubleLine
  0
TCOPTIONALDATA
  5
25C
102
{ACAD_REACTORS
330
25B
102
}
330
25B
100
TcOptionalData
 70
     2
 70
     1
  1
DoubleLine
  0
TCOPTIONALDATA
  5
260
102
{ACAD_REACTORS
330
25F
102
}
330
25F
100
TcOptionalData
 70
     2
 70
   129
  1
Line/Polyline
 90
        1
  1
#$AUX@_ToolInfo Properties
 70
     8
 90
       14
310
434D445F52454354414E474C4540
  0
TCOPTIONALDATA
  5
263
102
{ACAD_REACTORS
330
262
102
}
330
262
100
TcOptionalData
 70
     2
 70
   129
  1
Line/Polyline
 90
        1
  1
#$AUX@_ToolInfo Properties
 70
     8
 90
       14
310
434D445F52454354414E474C4540
  0
TCOPTIONALDATA
  5
266
102
{ACAD_REACTORS
330
265
102
}
330
265
100
TcOptionalData
 70
     2
 70
   129
  1
Line/Polyline
 90
        1
  1
#$AUX@_ToolInfo Properties
 70
     8
 90
        9
310
434D445F4C494E4540
  0
TCOPTIONALDATA
  5
269
102
{ACAD_REACTORS
330
268
102
}
330
268
100
TcOptionalData
 70
     2
 70
   129
  1
Line/Polyline
 90
        1
  1
#$AUX@_ToolInfo Properties
 70
     8
 90
        9
310
434D445F4C494E4540
  0
TCOPTIONALDATA
  5
26C
102
{ACAD_REACTORS
330
26B
102
}
330
26B
100
TcOptionalData
 70
     2
 70
   129
  1
Line/Polyline
 90
        1
  1
#$AUX@_ToolInfo Properties
 70
     8
 90
        9
310
434D445F4C494E4540
  0
TCOPTIONALDATA
  5
27F
102
{ACAD_REACTORS
330
27E
102
}
330
27E
100
TcOptionalData
 70
     2
 70
   128
 90
        1
  1
#$AUX@_ToolInfo Properties
 70
     8
 90
       14
310
434D445F52454354414E474C4540
  0
TCOPTIONALDATA
  5
282
102
{ACAD_REACTORS
330
281
102
}
330
281
100
TcOptionalData
 70
     2
 70
   128
 90
        1
  1
#$AUX@_ToolInfo Properties
 70
     8
 90
       16
310
434D445F43454E544552505441524340
  0
TCOPTIONALDATA
  5
285
102
{ACAD_REACTORS
330
284
102
}
330
284
100
TcOptionalData
 70
     2
 70
   128
 90
        1
  1
#$AUX@_ToolInfo Properties
 70
     8
 90
       14
310
434D445F52454354414E474C4540
  0
TCOPTIONALDATA
  5
288
102
{ACAD_REACTORS
330
287
102
}
330
287
100
TcOptionalData
 70
     2
 70
   128
 90
        1
  1
#$AUX@_ToolInfo Properties
 70
     8
 90
       14
310
434D445F52454354414E474C4540
  0
TCOPTIONALDATA
  5
292
102
{ACAD_REACTORS
330
291
102
}
330
291
100
TcOptionalData
 70
     2
 70
   128
 90
        1
  1
#$AUX@_ToolInfo Properties
 70
     8
 90
       14
310
434D445F52454354414E474C4540
  0
TCOPTIONALDATA
  5
295
102
{ACAD_REACTORS
330
294
102
}
330
294
100
TcOptionalData
 70
     2
 70
   128
 90
        1
  1
#$AUX@_ToolInfo Properties
 70
     8
 90
       16
310
434D445F43454E544552505441524340
  0
TCOPTIONALDATA
  5
298
102
{ACAD_REACTORS
330
297
102
}
330
297
100
TcOptionalData
 70
     2
 70
   128
 90
        1
  1
#$AUX@_ToolInfo Properties
 70
     8
 90
       14
310
434D445F52454354414E474C4540
  0
TCOPTIONALDATA
  5
29B
102
{ACAD_REACTORS
330
29A
102
}
330
29A
100
TcOptionalData
 70
     2
 70
   128
 90
        1
  1
#$AUX@_ToolInfo Properties
 70
     8
 90
       16
310
434D445F43454E544552505441524340
  0
TCOPTIONALDATA
  5
2A3
102
{ACAD_REACTORS
330
2A2
102
}
330
2A2
100
TcOptionalData
 70
     2
 70
   128
 90
        1
  1
#$AUX@_ToolInfo Properties
 70
     8
 90
       14
310
434D445F52454354414E474C4540
  0
TCOPTIONALDATA
  5
2A6
102
{ACAD_REACTORS
330
2A5
102
}
330
2A5
100
TcOptionalData
 70
     2
 70
   128
 90
        1
  1
#$AUX@_ToolInfo Properties
 70
     8
 90
       16
310
434D445F43454E544552505441524340
  0
TCOPTIONALDATA
  5
2AA
102
{ACAD_REACTORS
330
2A9
102
}
330
2A9
100
TcOptionalData
 70
     2
 70
   144
 90
        1
  1
#$AUX@_ToolInfo Properties
 70
     8
 90
        9
310
434D445F5445585440
  1
Arial
 70
     0
  0
TCOPTIONALDATA
  5
2AD
102
{ACAD_REACTORS
330
2AC
102
}
330
2AC
100
TcOptionalData
 70
     2
 70
     1
  1
DoubleLine
  0
TCOPTIONALDATA
  5
2AF
102
{ACAD_REACTORS
330
2AE
102
}
330
2AE
100
TcOptionalData
 70
     2
 70
     1
  1
DoubleLine
  0
TCOPTIONALDATA
  5
2B5
102
{ACAD_REACTORS
330
2B4
102
}
330
2B4
100
TcOptionalData
 70
     2
 70
   129
  1
Line/Polyline
 90
        1
  1
#$AUX@_ToolInfo Properties
 70
     8
 90
        9
310
434D445F4C494E4540
  0
TCOPTIONALDATA
  5
2B8
102
{ACAD_REACTORS
330
2B7
102
}
330
2B7
100
TcOptionalData
 70
     2
 70
   129
  1
Line/Polyline
 90
        1
  1
#$AUX@_ToolInfo Properties
 70
     8
 90
        9
310
434D445F4C494E4540
  0
TCOPTIONALDATA
  5
2BB
102
{ACAD_REACTORS
330
2BA
102
}
330
2BA
100
TcOptionalData
 70
     2
 70
     1
  1
DoubleLine
  0
TCOPTIONALDATA
  5
2BD
102
{ACAD_REACTORS
330
2BC
102
}
330
2BC
100
TcOptionalData
 70
     2
 70
     1
  1
DoubleLine
  0
TCOPTIONALDATA
  5
2C3
102
{ACAD_REACTORS
330
2C2
102
}
330
2C2
100
TcOptionalData
 70
     2
 70
     1
  1
DoubleLine
  0
TCOPTIONALDATA
  5
2C5
102
{ACAD_REACTORS
330
2C4
102
}
330
2C4
100
TcOptionalData
 70
     2
 70
     1
  1
DoubleLine
  0
TCOPTIONALDATA
  5
2CB
102
{ACAD_REACTORS
330
2CA
102
}
330
2CA
100
TcOptionalData
 70
     2
 70
     1
  1
DoubleLine
  0
TCOPTIONALDATA
  5
2CD
102
{ACAD_REACTORS
330
2CC
102
}
330
2CC
100
TcOptionalData
 70
     2
 70
     1
  1
DoubleLine
  0
TCOPTIONALDATA
  5
2D3
102
{ACAD_REACTORS
330
2D2
102
}
330
2D2
100
TcOptionalData
 70
     2
 70
     1
  1
DoubleLine
  0
TCOPTIONALDATA
  5
2D5
102
{ACAD_REACTORS
330
2D4
102
}
330
2D4
100
TcOptionalData
 70
     2
 70
     1
  1
DoubleLine
  0
TCOPTIONALDATA
  5
2DB
102
{ACAD_REACTORS
330
2DA
102
}
330
2DA
100
TcOptionalData
 70
     2
 70
   129
  1
Line/Polyline
 90
        1
  1
#$AUX@_ToolInfo Properties
 70
     8
 90
       13
310
434D445F504F4C594C494E4540
  0
TCOPTIONALDATA
  5
2DF
102
{ACAD_REACTORS
330
2DE
102
}
330
2DE
100
TcOptionalData
 70
     2
 70
   144
 90
        1
  1
#$AUX@_ToolInfo Properties
 70
     8
 90
        9
310
434D445F5445585440
  1
Arial
 70
     0
  0
TCOPTIONALDATA
  5
2E2
102
{ACAD_REACTORS
330
2E1
102
}
330
2E1
100
TcOptionalData
 70
     2
 70
   129
  1
Line/Polyline
 90
        1
  1
#$AUX@_ToolInfo Properties
 70
     8
 90
       14
310
434D445F52454354414E474C4540
  0
TCOPTIONALDATA
  5
2E5
102
{ACAD_REACTORS
330
2E4
102
}
330
2E4
100
TcOptionalData
 70
     2
 70
   129
  1
Line/Polyline
 90
        1
  1
#$AUX@_ToolInfo Properties
 70
     8
 90
       14
310
434D445F52454354414E474C4540
  0
TCOPTIONALDATA
  5
2E8
102
{ACAD_REACTORS
330
2E7
102
}
330
2E7
100
TcOptionalData
 70
     2
 70
   129
  1
Line/Polyline
 90
        1
  1
#$AUX@_ToolInfo Properties
 70
     8
 90
       14
310
434D445F52454354414E474C4540
  0
TCOPTIONALDATA
  5
2EB
102
{ACAD_REACTORS
330
2EA
102
}
330
2EA
100
TcOptionalData
 70
     2
 70
     1
  1
Line/Polyline
  0
TCOPTIONALDATA
  5
2EE
102
{ACAD_REACTORS
330
2ED
102
}
330
2ED
100
TcOptionalData
 70
     2
 70
     1
  1
Line/Polyline
  0
TCOPTIONALDATA
  5
2F1
102
{ACAD_REACTORS
330
2F0
102
}
330
2F0
100
TcOptionalData
 70
     2
 70
     1
  1
Line/Polyline
  0
TCOPTIONALDATA
  5
2F4
102
{ACAD_REACTORS
330
2F3
102
}
330
2F3
100
TcOptionalData
 70
     2
 70
     1
  1
Line/Polyline
  0
TCOPTIONALDATA
  5
2F7
102
{ACAD_REACTORS
330
2F6
102
}
330
2F6
100
TcOptionalData
 70
     2
 70
     1
  1
Line/Polyline
  0
TCOPTIONALDATA
  5
2FA
102
{ACAD_REACTORS
330
2F9
102
}
330
2F9
100
TcOptionalData
 70
     2
 70
     1
  1
Line/Polyline
  0
TCOPTIONALDATA
  5
2FD
102
{ACAD_REACTORS
330
2FC
102
}
330
2FC
100
TcOptionalData
 70
     2
 70
     1
  1
Line/Polyline
  0
TCOPTIONALDATA
  5
300
102
{ACAD_REACTORS
330
2FF
102
}
330
2FF
100
TcOptionalData
 70
     2
 70
     1
  1
Line/Polyline
  0
TCOPTIONALDATA
  5
303
102
{ACAD_REACTORS
330
302
102
}
330
302
100
TcOptionalData
 70
     2
 70
     1
  1
Line/Polyline
  0
TCOPTIONALDATA
  5
306
102
{ACAD_REACTORS
330
305
102
}
330
305
100
TcOptionalData
 70
     2
 70
     1
  1
Line/Polyline
  0
TCOPTIONALDATA
  5
309
102
{ACAD_REACTORS
330
308
102
}
330
308
100
TcOptionalData
 70
     2
 70
     1
  1
Line/Polyline
  0
TCOPTIONALDATA
  5
30C
102
{ACAD_REACTORS
330
30B
102
}
330
30B
100
TcOptionalData
 70
     2
 70
     1
  1
DoubleLine
  0
TCOPTIONALDATA
  5
311
102
{ACAD_REACTORS
330
310
102
}
330
310
100
TcOptionalData
 70
     2
 70
   129
  1
Circle/Arc
 90
        1
  1
#$AUX@_ToolInfo Properties
 70
     8
 90
       19
310
434D445F43454E5445525054434952434C4540
  0
TCOPTIONALDATA
  5
314
102
{ACAD_REACTORS
330
313
102
}
330
313
100
TcOptionalData
 70
     2
 70
   129
  1
Circle/Arc
 90
        1
  1
#$AUX@_ToolInfo Properties
 70
     8
 90
       19
310
434D445F43454E5445525054434952434C4540
  0
TCOPTIONALDATA
  5
317
102
{ACAD_REACTORS
330
316
102
}
330
316
100
TcOptionalData
 70
     2
 70
   129
  1
Circle/Arc
 90
        1
  1
#$AUX@_ToolInfo Properties
 70
     8
 90
       19
310
434D445F43454E5445525054434952434C4540
  0
TCOPTIONALDATA
  5
31A
102
{ACAD_REACTORS
330
319
102
}
330
319
100
TcOptionalData
 70
     2
 70
   129
  1
Line/Polyline
 90
        1
  1
#$AUX@_ToolInfo Properties
 70
     8
 90
       14
310
434D445F52454354414E474C4540
  0
TCOPTIONALDATA
  5
31D
102
{ACAD_REACTORS
330
31C
102
}
330
31C
100
TcOptionalData
 70
     2
 70
   129
  1
Line/Polyline
 90
        1
  1
#$AUX@_ToolInfo Properties
 70
     8
 90
       14
310
434D445F52454354414E474C4540
  0
TCOPTIONALDATA
  5
320
102
{ACAD_REACTORS
330
31F
102
}
330
31F
100
TcOptionalData
 70
     2
 70
   129
  1
Line/Polyline
 90
        1
  1
#$AUX@_ToolInfo Properties
 70
     8
 90
        9
310
434D445F4C494E4540
  0
TCOPTIONALDATA
  5
323
102
{ACAD_REACTORS
330
322
102
}
330
322
100
TcOptionalData
 70
     2
 70
   129
  1
Line/Polyline
 90
        1
  1
#$AUX@_ToolInfo Properties
 70
     8
 90
        9
310
434D445F4C494E4540
  0
TCOPTIONALDATA
  5
326
102
{ACAD_REACTORS
330
325
102
}
330
325
100
TcOptionalData
 70
     2
 70
   129
  1
Line/Polyline
 90
        1
  1
#$AUX@_ToolInfo Properties
 70
     8
 90
        9
310
434D445F4C494E4540
  0
TCOPTIONALDATA
  5
329
102
{ACAD_REACTORS
330
328
102
}
330
328
100
TcOptionalData
 70
     2
 70
   129
  1
Line/Polyline
 90
        1
  1
#$AUX@_ToolInfo Properties
 70
     8
 90
        9
310
434D445F4C494E4540
  0
TCOPTIONALDATA
  5
32C
102
{ACAD_REACTORS
330
32B
102
}
330
32B
100
TcOptionalData
 70
     2
 70
   129
  1
Line/Polyline
 90
        1
  1
#$AUX@_ToolInfo Properties
 70
     8
 90
        9
310
434D445F4C494E4540
  0
TCOPTIONALDATA
  5
32F
102
{ACAD_REACTORS
330
32E
102
}
330
32E
100
TcOptionalData
 70
     2
 70
   144
 90
        1
  1
#$AUX@_ToolInfo Properties
 70
     8
 90
        9
310
434D445F5445585440
  1
Arial
 70
     0
  0
TCOPTIONALDATA
  5
332
102
{ACAD_REACTORS
330
331
102
}
330
331
100
TcOptionalData
 70
     2
 70
     1
  1
DoubleLine
  0
TCOPTIONALDATA
  5
337
102
{ACAD_REACTORS
330
336
102
}
330
336
100
TcOptionalData
 70
     2
 70
     1
  1
DoubleLine
  0
TCOPTIONALDATA
  5
339
102
{ACAD_REACTORS
330
338
102
}
330
338
100
TcOptionalData
 70
     2
 70
     1
  1
DoubleLine
  0
TCOPTIONALDATA
  5
33C
102
{ACAD_REACTORS
330
33B
102
}
330
33B
100
TcOptionalData
 70
     2
 70
     1
  1
DoubleLine
  0
TCOPTIONALDATA
  5
340
102
{ACAD_REACTORS
330
33F
102
}
330
33F
100
TcOptionalData
 70
     2
 70
   128
 90
        1
  1
#$AUX@_ToolInfo Properties
 70
     8
 90
       18
310
434D445F4F5254484F474F4E414C44494D40
  0
TCOPTIONALDATA
  5
354
102
{ACAD_REACTORS
330
353
102
}
330
353
100
TcOptionalData
 70
     2
 70
   128
 90
        1
  1
#$AUX@_ToolInfo Properties
 70
     8
 90
       18
310
434D445F4F5254484F474F4E414C44494D40
  0
TCOPTIONALDATA
  5
364
102
{ACAD_REACTORS
330
363
102
}
330
363
100
TcOptionalData
 70
     2
 70
   128
 90
        1
  1
#$AUX@_ToolInfo Properties
 70
     8
 90
       18
310
434D445F4F5254484F474F4E414C44494D40
  0
TCOPTIONALDATA
  5
374
102
{ACAD_REACTORS
330
373
102
}
330
373
100
TcOptionalData
 70
     2
 70
   128
 90
        1
  1
#$AUX@_ToolInfo Properties
 70
     8
 90
       18
310
434D445F4F5254484F474F4E414C44494D40
  0
TCOPTIONALDATA
  5
383
102
{ACAD_REACTORS
330
382
102
}
330
382
100
TcOptionalData
 70
     2
 70
   128
 90
        1
  1
#$AUX@_ToolInfo Properties
 70
     8
 90
       18
310
434D445F4F5254484F474F4E414C44494D40
  0
TCOPTIONALDATA
  5
392
102
{ACAD_REACTORS
330
391
102
}
330
391
100
TcOptionalData
 70
     2
 70
   128
 90
        1
  1
#$AUX@_ToolInfo Properties
 70
     8
 90
       18
310
434D445F4F5254484F474F4E414C44494D40
  0
TCOPTIONALDATA
  5
3A1
102
{ACAD_REACTORS
330
3A0
102
}
330
3A0
100
TcOptionalData
 70
     2
 70
   128
 90
        1
  1
#$AUX@_ToolInfo Properties
 70
     8
 90
       18
310
434D445F4F5254484F474F4E414C44494D40
  0
TCOPTIONALDATA
  5
3B0
102
{ACAD_REACTORS
330
3AF
102
}
330
3AF
100
TcOptionalData
 70
     2
 70
     1
  1
DoubleLine
  0
TCOPTIONALDATA
  5
3B2
102
{ACAD_REACTORS
330
3B1
102
}
330
3B1
100
TcOptionalData
 70
     2
 70
     1
  1
DoubleLine
  0
TCOPTIONALDATA
  5
3B5
102
{ACAD_REACTORS
330
3B4
102
}
330
3B4
100
TcOptionalData
 70
     2
 70
     1
  1
DoubleLine
  0
TCOPTIONALDATA
  5
3B8
102
{ACAD_REACTORS
330
3B7
102
}
330
3B7
100
TcOptionalData
 70
     2
 70
     1
  1
DoubleLine
  0
TCOPTIONALDATA
  5
3BE
102
{ACAD_REACTORS
330
3BD
102
}
330
3BD
100
TcOptionalData
 70
     2
 70
   144
 90
        1
  1
#$AUX@_ToolInfo Properties
 70
     8
 90
        9
310
434D445F5445585440
  1
Arial
 70
     0
  0
TCOPTIONALDATA
  5
3C1
102
{ACAD_REACTORS
330
3C0
102
}
330
3C0
100
TcOptionalData
 70
     2
 70
   129
  1
Line/Polyline
 90
        1
  1
#$AUX@_ToolInfo Properties
 70
     8
 90
       13
310
434D445F504F4C594C494E4540
  0
TCOPTIONALDATA
  5
3C4
102
{ACAD_REACTORS
330
3C3
102
}
330
3C3
100
TcOptionalData
 70
     2
 70
   129
  1
Line/Polyline
 90
        1
  1
#$AUX@_ToolInfo Properties
 70
     8
 90
       13
310
434D445F504F4C594C494E4540
  0
TCOPTIONALDATA
  5
3C8
102
{ACAD_REACTORS
330
3C7
102
}
330
3C7
100
TcOptionalData
 70
     2
 70
   129
  1
Line/Polyline
 90
        1
  1
#$AUX@_ToolInfo Properties
 70
     8
 90
       14
310
434D445F52454354414E474C4540
  0
TCOPTIONALDATA
  5
3CB
102
{ACAD_REACTORS
330
3CA
102
}
330
3CA
100
TcOptionalData
 70
     2
 70
   129
  1
Line/Polyline
 90
        1
  1
#$AUX@_ToolInfo Properties
 70
     8
 90
       14
310
434D445F52454354414E474C4540
  0
TCOPTIONALDATA
  5
3CE
102
{ACAD_REACTORS
330
3CD
102
}
330
3CD
100
TcOptionalData
 70
     2
 70
   129
  1
Line/Polyline
 90
        1
  1
#$AUX@_ToolInfo Properties
 70
     8
 90
       14
310
434D445F52454354414E474C4540
  0
TCOPTIONALDATA
  5
3D1
102
{ACAD_REACTORS
330
3D0
102
}
330
3D0
100
TcOptionalData
 70
     2
 70
   129
  1
Line/Polyline
 90
        1
  1
#$AUX@_ToolInfo Properties
 70
     8
 90
       14
310
434D445F52454354414E474C4540
  0
TCOPTIONALDATA
  5
3D4
102
{ACAD_REACTORS
330
3D3
102
}
330
3D3
100
TcOptionalData
 70
     2
 70
   144
 90
        1
  1
#$AUX@_ToolInfo Properties
 70
     8
 90
        9
310
434D445F5445585440
  1
Arial
 70
     0
  0
TCOPTIONALDATA
  5
3D7
102
{ACAD_REACTORS
330
3D6
102
}
330
3D6
100
TcOptionalData
 70
     2
 70
   144
 90
        1
  1
#$AUX@_ToolInfo Properties
 70
     8
 90
        9
310
434D445F5445585440
  1
Arial
 70
     0
  0
TCOPTIONALDATA
  5
3DA
102
{ACAD_REACTORS
330
3D9
102
}
330
3D9
100
TcOptionalData
 70
     2
 70
   144
 90
        1
  1
#$AUX@_ToolInfo Properties
 70
     8
 90
        9
310
434D445F5445585440
  1
Arial
 70
     0
  0
TCOPTIONALDATA
  5
3DD
102
{ACAD_REACTORS
330
3DC
102
}
330
3DC
100
TcOptionalData
 70
     2
 70
   144
 90
        1
  1
#$AUX@_ToolInfo Properties
 70
     8
 90
        9
310
434D445F5445585440
  1
Arial
 70
     0
  0
TCOPTIONALDATA
  5
3E4
102
{ACAD_REACTORS
330
3E3
102
}
330
3E3
100
TcOptionalData
 70
     2
 70
   144
 90
        1
  1
#$AUX@_ToolInfo Properties
 70
     8
 90
        9
310
434D445F5445585440
  1
Arial
 70
     2
  0
TCOPTIONALDATA
  5
3E8
102
{ACAD_REACTORS
330
3E7
102
}
330
3E7
100
TcOptionalData
 70
     2
 70
   144
 90
        1
  1
#$AUX@_ToolInfo Properties
 70
     8
 90
        9
310
434D445F5445585440
  1
Arial
 70
     0
  0
TCOPTIONALDATA
  5
3EB
102
{ACAD_REACTORS
330
3EA
102
}
330
3EA
100
TcOptionalData
 70
     2
 70
   144
 90
        1
  1
#$AUX@_ToolInfo Properties
 70
     8
 90
        9
310
434D445F5445585440
  1
Arial
 70
     0
  0
TCOPTIONALDATA
  5
3F2
102
{ACAD_REACTORS
330
3F1
102
}
330
3F1
100
TcOptionalData
 70
     2
 70
   128
 90
        1
  1
#$AUX@_ToolInfo Properties
 70
     8
 90
       18
310
434D445F4F5254484F474F4E414C44494D40
  0
TCOPTIONALDATA
  5
401
102
{ACAD_REACTORS
330
400
102
}
330
400
100
TcOptionalData
 70
     2
 70
   128
 90
        1
  1
#$AUX@_ToolInfo Properties
 70
     8
 90
       18
310
434D445F4F5254484F474F4E414C44494D40
  0
TCOPTIONALDATA
  5
410
102
{ACAD_REACTORS
330
40F
102
}
330
40F
100
TcOptionalData
 70
     2
 70
   128
 90
        1
  1
#$AUX@_ToolInfo Properties
 70
     8
 90
       18
310
434D445F4F5254484F474F4E414C44494D40
  0
TCOPTIONALDATA
  5
41F
102
{ACAD_REACTORS
330
41E
102
}
330
41E
100
TcOptionalData
 70
     2
 70
   128
 90
        1
  1
#$AUX@_ToolInfo Properties
 70
     8
 90
       18
310
434D445F4F5254484F474F4E414C44494D40
  0
TCOPTIONALDATA
  5
42F
102
{ACAD_REACTORS
330
42E
102
}
330
42E
100
TcOptionalData
 70
     2
 70
   128
 90
        1
  1
#$AUX@_ToolInfo Properties
 70
     8
 90
       18
310
434D445F4F5254484F474F4E414C44494D40
  0
TCOPTIONALDATA
  5
43F
102
{ACAD_REACTORS
330
43E
102
}
330
43E
100
TcOptionalData
 70
     2
 70
   144
 90
        1
  1
#$AUX@_ToolInfo Properties
 70
     8
 90
        9
310
434D445F5445585440
  1
Arial
 70
     0
  0
TCOPTIONALDATA
  5
442
102
{ACAD_REACTORS
330
441
102
}
330
441
100
TcOptionalData
 70
     2
 70
   144
 90
        1
  1
#$AUX@_ToolInfo Properties
 70
     8
 90
        9
310
434D445F5445585440
  1
Arial
 70
     0
  0
TCOPTIONALDATA
  5
445
102
{ACAD_REACTORS
330
444
102
}
330
444
100
TcOptionalData
 70
     2
 70
   144
 90
        1
  1
#$AUX@_ToolInfo Properties
 70
     8
 90
        9
310
434D445F5445585440
  1
Arial
 70
     0
  0
TCOPTIONALDATA
  5
448
102
{ACAD_REACTORS
330
447
102
}
330
447
100
TcOptionalData
 70
     2
 70
   144
 90
        1
  1
#$AUX@_ToolInfo Properties
 70
     8
 90
        9
310
434D445F5445585440
  1
Arial
 70
     0
  0
TCOPTIONALDATA
  5
44C
102
{ACAD_REACTORS
330
44B
102
}
330
44B
100
TcOptionalData
 70
     2
 70
   144
 90
        1
  1
#$AUX@_ToolInfo Properties
 70
     8
 90
        9
310
434D445F5445585440
  1
Arial
 70
     0
  0
TCOPTIONALDATA
  5
44F
102
{ACAD_REACTORS
330
44E
102
}
330
44E
100
TcOptionalData
 70
     2
 70
   144
 90
        1
  1
#$AUX@_ToolInfo Properties
 70
     8
 90
        9
310
434D445F5445585440
  1
Arial
 70
     0
  0
GROUP
  5
3C6
102
{ACAD_REACTORS
330
D
102
}
330
D
100
AcDbGroup
300

 70
     0
 71
     1
340
3C2
340
3C5
  0
GROUP
  5
3DF
102
{ACAD_REACTORS
330
D
102
}
102
{ACAD_XDICTIONARY
360
3E0
102
}
330
D
100
AcDbGroup
300

 70
     0
 71
     1
340
3C9
340
3CC
340
3CF
340
3D2
340
3D5
340
3D8
340
3DB
340
3DE
  0
LAYOUT
  5
22
102
{ACAD_REACTORS
330
1A
102
}
330
1A
100
AcDbPlotSettings
  1

  2
novaPDF 10
  4
Letter
  6

 40
0.0
 41
0.0
 42
0.0
 43
0.0
 44
215.9
 45
279.4
 46
0.0
 47
0.0
 48
-4.25
 49
-5.5
140
4.25
141
5.5
142
1.0
143
1.0
 70
  1696
 72
     0
 73
     0
 74
     4
  7

 75
     0
 76
     0
 77
     2
 78
   300
147
0.0008767184742147
148
0.0
149
0.0
100
AcDbLayout
  1
Model
 70
     1
 71
     0
 10
-447.6454020101295
 20
3379.514347626603
 11
-439.1454020101295
 21
3390.514347626603
 12
0.0
 22
0.0
 32
0.0
 14
129.9593784405977
 24
3.493325464057762
 34
0.0
 15
2993.813757111407
 25
2310.685531759765
 35
0.0
146
0.0
 13
0.0
 23
0.0
 33
0.0
 16
1.0
 26
0.0
 36
0.0
 17
0.0
 27
1.0
 37
0.0
 76
     0
330
1F
331
29
  0
LAYOUT
  5
1E
102
{ACAD_REACTORS
330
1A
102
}
330
1A
100
AcDbPlotSettings
  1

  2
none_device
  4
ANSI_A_(11.00_x_8.50_Inches)
  6

 40
6.35
 41
19.05
 42
6.35000508
 43
19.05000254
 44
279.4
 45
215.9
 46
0.0
 47
0.0
 48
0.0
 49
0.0
140
0.0
141
0.0
142
1.0
143
1.0
 70
   672
 72
     0
 73
     0
 74
     5
  7

 75
    16
 76
     0
 77
     2
 78
   300
147
1.0
148
-6.35
149
-19.05
100
AcDbLayout
  1
Paper 1
 70
     1
 71
     1
 10
0.0
 20
0.0
 11
11.0
 21
8.5
 12
0.0
 22
0.0
 32
0.0
 14
0.0
 24
0.0
 34
0.0
 15
11.0
 25
8.5
 35
0.0
146
0.0
 13
0.0
 23
0.0
 33
0.0
 16
1.0
 26
0.0
 36
0.0
 17
0.0
 27
1.0
 37
0.0
 76
     0
330
1B
331
451
  0
MATERIAL
  5
3D
102
{ACAD_REACTORS
330
3B
102
}
330
3B
100
AcDbMaterial
  1
ByBlock
 72
     1
 94
      127
  0
MATERIAL
  5
3C
102
{ACAD_REACTORS
330
3B
102
}
330
3B
100
AcDbMaterial
  1
ByLayer
 72
     1
 94
      127
  0
MATERIAL
  5
3E
102
{ACAD_REACTORS
330
3B
102
}
330
3B
100
AcDbMaterial
  1
Global
 72
     1
 94
      127
  0
MLEADERSTYLE
  5
168
102
{ACAD_REACTORS
330
167
102
}
330
167
100
AcDbMLeaderStyle
170
     2
171
     1
172
     0
 90
        2
 40
0.0
 41
0.0
173
     1
 91
-1056964608
340
14
 92
       -2
290
     1
 42
0.25
291
     1
 43
0.25
  3

341
0
 44
0.25
300

342
11
174
     1
178
     1
175
     1
176
     0
 93
-1056964608
 45
0.15
292
     0
297
     0
 46
0.18
343
0
 94
-1056964608
 47
1.0
 49
1.0
140
1.0
293
     1
141
0.0
294
     1
177
     0
142
1.0
295
     0
296
     0
143
0.125
1001
ACAD_MLEADERVER
1070
     2
  0
MLINESTYLE
  5
18
102
{ACAD_REACTORS
330
17
102
}
330
17
100
AcDbMlineStyle
  2
Standard
 70
     0
  3

 62
   256
 51
90.0
 52
90.0
 71
     7
 49
0.5
 62
   256
  6
BYLAYER
 49
-0.5
 62
   256
  6
BYLAYER
 49
0.5
 62
   256
  6
BYLAYER
 49
-0.5
 62
   256
  6
BYLAYER
 49
0.25
 62
     0
  6
BYLAYER
 49
0.0
 62
     0
  6
BYLAYER
 49
-0.25
 62
     0
  6
BYLAYER
  0
ACDBPLACEHOLDER
  5
F
102
{ACAD_REACTORS
330
E
102
}
330
E
  0
SCALE
  5
454
102
{ACAD_REACTORS
330
453
102
}
330
453
100
AcDbScale
 70
     0
300
1:1
140
1.0
141
1.0
290
     1
  0
SCALE
  5
455
102
{ACAD_REACTORS
330
453
102
}
330
453
100
AcDbScale
 70
     0
300
1:2
140
1.0
141
2.0
290
     0
  0
SCALE
  5
456
102
{ACAD_REACTORS
330
453
102
}
330
453
100
AcDbScale
 70
     0
300
1:4
140
1.0
141
4.0
290
     0
  0
SCALE
  5
457
102
{ACAD_REACTORS
330
453
102
}
330
453
100
AcDbScale
 70
     0
300
1:5
140
1.0
141
5.0
290
     0
  0
SCALE
  5
458
102
{ACAD_REACTORS
330
453
102
}
330
453
100
AcDbScale
 70
     0
300
1:8
140
1.0
141
8.0
290
     0
  0
SCALE
  5
459
102
{ACAD_REACTORS
330
453
102
}
330
453
100
AcDbScale
 70
     0
300
1:10
140
1.0
141
10.0
290
     0
  0
SCALE
  5
45A
102
{ACAD_REACTORS
330
453
102
}
330
453
100
AcDbScale
 70
     0
300
1:16
140
1.0
141
16.0
290
     0
  0
SCALE
  5
45B
102
{ACAD_REACTORS
330
453
102
}
330
453
100
AcDbScale
 70
     0
300
1:20
140
1.0
141
20.0
290
     0
  0
SCALE
  5
45C
102
{ACAD_REACTORS
330
453
102
}
330
453
100
AcDbScale
 70
     0
300
1:30
140
1.0
141
30.0
290
     0
  0
SCALE
  5
45D
102
{ACAD_REACTORS
330
453
102
}
330
453
100
AcDbScale
 70
     0
300
1:40
140
1.0
141
40.0
290
     0
  0
SCALE
  5
45E
102
{ACAD_REACTORS
330
453
102
}
330
453
100
AcDbScale
 70
     0
300
1:50
140
1.0
141
50.0
290
     0
  0
SCALE
  5
45F
102
{ACAD_REACTORS
330
453
102
}
330
453
100
AcDbScale
 70
     0
300
1:100
140
1.0
141
100.0
290
     0
  0
SCALE
  5
460
102
{ACAD_REACTORS
330
453
102
}
330
453
100
AcDbScale
 70
     0
300
2:1
140
2.0
141
1.0
290
     0
  0
SCALE
  5
461
102
{ACAD_REACTORS
330
453
102
}
330
453
100
AcDbScale
 70
     0
300
4:1
140
4.0
141
1.0
290
     0
  0
SCALE
  5
462
102
{ACAD_REACTORS
330
453
102
}
330
453
100
AcDbScale
 70
     0
300
8:1
140
8.0
141
1.0
290
     0
  0
SCALE
  5
463
102
{ACAD_REACTORS
330
453
102
}
330
453
100
AcDbScale
 70
     0
300
10:1
140
10.0
141
1.0
290
     0
  0
SCALE
  5
464
102
{ACAD_REACTORS
330
453
102
}
330
453
100
AcDbScale
 70
     0
300
100:1
140
100.0
141
1.0
290
     0
  0
SCALE
  5
465
102
{ACAD_REACTORS
330
453
102
}
330
453
100
AcDbScale
 70
     0
300
1/128" = 1'-0"
140
0.0078125
141
12.0
290
     0
  0
SCALE
  5
466
102
{ACAD_REACTORS
330
453
102
}
330
453
100
AcDbScale
 70
     0
300
1/64" = 1'-0"
140
0.015625
141
12.0
290
     0
  0
SCALE
  5
467
102
{ACAD_REACTORS
330
453
102
}
330
453
100
AcDbScale
 70
     0
300
1/32" = 1'-0"
140
0.03125
141
12.0
290
     0
  0
SCALE
  5
468
102
{ACAD_REACTORS
330
453
102
}
330
453
100
AcDbScale
 70
     0
300
1/16" = 1'-0"
140
0.0625
141
12.0
290
     0
  0
SCALE
  5
469
102
{ACAD_REACTORS
330
453
102
}
330
453
100
AcDbScale
 70
     0
300
3/32" = 1'-0"
140
0.09375
141
12.0
290
     0
  0
SCALE
  5
46A
102
{ACAD_REACTORS
330
453
102
}
330
453
100
AcDbScale
 70
     0
300
1/8" = 1'-0"
140
0.125
141
12.0
290
     0
  0
SCALE
  5
46B
102
{ACAD_REACTORS
330
453
102
}
330
453
100
AcDbScale
 70
     0
300
3/16" = 1'-0"
140
0.1875
141
12.0
290
     0
  0
SCALE
  5
46C
102
{ACAD_REACTORS
330
453
102
}
330
453
100
AcDbScale
 70
     0
300
1/4" = 1'-0"
140
0.25
141
12.0
290
     0
  0
SCALE
  5
46D
102
{ACAD_REACTORS
330
453
102
}
330
453
100
AcDbScale
 70
     0
300
3/8" = 1'-0"
140
0.375
141
12.0
290
     0
  0
SCALE
  5
46E
102
{ACAD_REACTORS
330
453
102
}
330
453
100
AcDbScale
 70
     0
300
1/2" = 1'-0"
140
0.5
141
12.0
290
     0
  0
SCALE
  5
46F
102
{ACAD_REACTORS
330
453
102
}
330
453
100
AcDbScale
 70
     0
300
3/4" = 1'-0"
140
0.75
141
12.0
290
     0
  0
SCALE
  5
470
102
{ACAD_REACTORS
330
453
102
}
330
453
100
AcDbScale
 70
     0
300
1" = 1'-0"
140
1.0
141
12.0
290
     0
  0
SCALE
  5
471
102
{ACAD_REACTORS
330
453
102
}
330
453
100
AcDbScale
 70
     0
300
1-1/2" = 1'-0"
140
1.5
141
12.0
290
     0
  0
SCALE
  5
472
102
{ACAD_REACTORS
330
453
102
}
330
453
100
AcDbScale
 70
     0
300
3" = 1'-0"
140
3.0
141
12.0
290
     0
  0
SCALE
  5
473
102
{ACAD_REACTORS
330
453
102
}
330
453
100
AcDbScale
 70
     0
300
6" = 1'-0"
140
6.0
141
12.0
290
     0
  0
SCALE
  5
474
102
{ACAD_REACTORS
330
453
102
}
330
453
100
AcDbScale
 70
     0
300
1'-0" = 1'-0"
140
12.0
141
12.0
290
     0
  0
TABLESTYLE
  5
17A
102
{ACAD_REACTORS
330
179
102
}
102
{ACAD_XDICTIONARY
360
497
102
}
330
179
100
AcDbTableStyle
  3

 70
     0
 71
     0
 40
0.06
 41
0.06
280
     0
281
     0
  7
Standard
140
0.1500000059604645
170
     5
 62
     0
 63
   257
283
     1
 90
        4
 91
        0
  1

274
    -2
284
     1
 64
     0
275
    -2
285
     1
 65
     0
276
    -2
286
     1
 66
     0
277
    -2
287
     1
 67
     0
278
    -2
288
     1
 68
     0
279
    -2
289
     1
 69
     0
  7
Standard
140
0.1500000059604645
170
     5
 62
     0
 63
   257
283
     1
 90
        4
 91
        0
  1

274
    -2
284
     1
 64
     0
275
    -2
285
     1
 65
     0
276
    -2
286
     1
 66
     0
277
    -2
287
     1
 67
     0
278
    -2
288
     1
 68
     0
279
    -2
289
     1
 69
     0
  7
Standard
140
0.1500000059604645
170
     5
 62
     0
 63
   257
283
     1
 90
        4
 91
        0
  1

274
    -2
284
     1
 64
     0
275
    -2
285
     1
 65
     0
276
    -2
286
     1
 66
     0
277
    -2
287
     1
 67
     0
278
    -2
288
     1
 68
     0
279
    -2
289
     1
 69
     0
  0
VISUALSTYLE
  5
2F
102
{ACAD_REACTORS
330
2A
102
}
102
{ACAD_XDICTIONARY
360
47F
102
}
330
2A
100
AcDbVisualStyle
  2
2dWireframe
 70
     4
 71
     0
 72
     2
 73
     0
 90
        0
 40
-0.6
 41
-30.0
 62
     5
 63
     7
421
 16777215
 74
     1
 91
        4
 64
     7
 65
   257
 75
     1
175
     1
 42
1.0
 92
        0
 66
   257
 43
1.0
 76
     1
 77
     6
 78
     2
 67
     7
 79
     5
170
     0
171
     0
290
     0
174
     0
 93
        1
 44
0.0
173
     0
291
     0
 45
0.0
  0
VISUALSTYLE
  5
31
102
{ACAD_REACTORS
330
2A
102
}
102
{ACAD_XDICTIONARY
360
483
102
}
330
2A
100
AcDbVisualStyle
  2
3D Hidden
 70
     6
 71
     1
 72
     2
 73
     2
 90
        0
 40
-0.6
 41
-30.0
 62
     5
 63
     7
421
 16777215
 74
     2
 91
        2
 64
     7
 65
   257
 75
     2
175
     1
 42
40.0
 92
        0
 66
   257
 43
1.0
 76
     1
 77
     6
 78
     2
 67
     7
 79
     3
170
     0
171
     0
290
     0
174
     0
 93
        1
 44
0.0
173
     0
291
     0
 45
0.0
  0
VISUALSTYLE
  5
30
102
{ACAD_REACTORS
330
2A
102
}
102
{ACAD_XDICTIONARY
360
481
102
}
330
2A
100
AcDbVisualStyle
  2
3dWireframe
 70
     5
 71
     0
 72
     2
 73
     0
 90
        0
 40
-0.6
 41
-30.0
 62
     5
 63
     7
421
 16777215
 74
     1
 91
        4
 64
     7
 65
   257
 75
     1
175
     1
 42
1.0
 92
        0
 66
   257
 43
1.0
 76
     1
 77
     6
 78
     2
 67
     7
 79
     5
170
     0
171
     0
290
     0
174
     0
 93
        1
 44
0.0
173
     0
291
     0
 45
0.0
  0
VISUALSTYLE
  5
32
102
{ACAD_REACTORS
330
2A
102
}
102
{ACAD_XDICTIONARY
360
485
102
}
330
2A
100
AcDbVisualStyle
  2
Basic
 70
     7
 71
     1
 72
     0
 73
     1
 90
        0
 40
-0.6
 41
-30.0
 62
     5
 63
     7
421
 16777215
 74
     0
 91
        4
 64
     7
 65
   257
 75
     1
175
     1
 42
1.0
 92
        8
 66
     7
 43
1.0
 76
     1
 77
     6
 78
     2
 67
     7
 79
     5
170
     0
171
     0
290
     0
174
     0
 93
        1
 44
0.0
173
     0
291
     1
 45
0.0
  0
VISUALSTYLE
  5
36
102
{ACAD_REACTORS
330
2A
102
}
102
{ACAD_XDICTIONARY
360
48D
102
}
330
2A
100
AcDbVisualStyle
  2
Brighten
 70
    12
 71
     2
 72
     2
 73
     0
 90
        0
 40
-0.6
 41
-30.0
 62
     5
 63
     7
421
 16777215
 74
     1
 91
        4
 64
     7
 65
   257
 75
     1
175
     1
 42
1.0
 92
        8
 66
     7
 43
1.0
 76
     1
 77
     6
 78
     2
 67
     7
 79
     5
170
     0
171
     0
290
     0
174
     0
 93
        1
 44
50.0
173
     0
291
     1
 45
0.0
  0
VISUALSTYLE
  5
3A
102
{ACAD_REACTORS
330
2A
102
}
102
{ACAD_XDICTIONARY
360
495
102
}
330
2A
100
AcDbVisualStyle
  2
ColorChange
 70
    16
 71
     2
 72
     2
 73
     3
 90
        0
 40
-0.6
 41
-30.0
 62
     5
 63
     8
421
  8421504
 74
     1
 91
        4
 64
     7
 65
   257
 75
     1
175
     1
 42
1.0
 92
        8
 66
     8
424
  8421504
 43
1.0
 76
     1
 77
     6
 78
     2
 67
     7
 79
     5
170
     0
171
     0
290
     0
174
     0
 93
        1
 44
0.0
173
     0
291
     1
 45
0.0
  0
VISUALSTYLE
  5
34
102
{ACAD_REACTORS
330
2A
102
}
102
{ACAD_XDICTIONARY
360
489
102
}
330
2A
100
AcDbVisualStyle
  2
Conceptual
 70
     9
 71
     3
 72
     2
 73
     0
 90
        0
 40
-0.6
 41
-30.0
 62
     5
 63
     7
421
 16777215
 74
     2
 91
        2
 64
     7
 65
   257
 75
     1
175
     1
 42
40.0
 92
        8
 66
     7
 43
1.0
 76
     1
 77
     6
 78
     2
 67
     7
 79
     3
170
     0
171
     0
290
     0
174
     0
 93
        1
 44
0.0
173
     0
291
     0
 45
0.0
  0
VISUALSTYLE
  5
35
102
{ACAD_REACTORS
330
2A
102
}
102
{ACAD_XDICTIONARY
360
48B
102
}
330
2A
100
AcDbVisualStyle
  2
Dim
 70
    11
 71
     2
 72
     2
 73
     0
 90
        0
 40
-0.6
 41
-30.0
 62
     5
 63
     7
421
 16777215
 74
     1
 91
        4
 64
     7
 65
   257
 75
     1
175
     1
 42
1.0
 92
        8
 66
     7
 43
1.0
 76
     1
 77
     6
 78
     2
 67
     7
 79
     5
170
     0
171
     0
290
     0
174
     0
 93
        1
 44
-50.0
173
     0
291
     1
 45
0.0
  0
VISUALSTYLE
  5
39
102
{ACAD_REACTORS
330
2A
102
}
102
{ACAD_XDICTIONARY
360
493
102
}
330
2A
100
AcDbVisualStyle
  2
Facepattern
 70
    15
 71
     2
 72
     2
 73
     0
 90
        0
 40
-0.6
 41
-30.0
 62
     5
 63
     7
421
 16777215
 74
     1
 91
        4
 64
     7
 65
   257
 75
     1
175
     1
 42
1.0
 92
        8
 66
     7
 43
1.0
 76
     1
 77
     6
 78
     2
 67
     7
 79
     5
170
     0
171
     0
290
     0
174
     0
 93
        1
 44
0.0
173
     0
291
     1
 45
0.0
  0
VISUALSTYLE
  5
2B
102
{ACAD_REACTORS
330
2A
102
}
102
{ACAD_XDICTIONARY
360
477
102
}
330
2A
100
AcDbVisualStyle
  2
Flat
 70
     0
 71
     2
 72
     1
 73
     1
 90
        2
 40
-0.6
 41
30.0
 62
     5
 63
     7
421
 16777215
 74
     0
 91
        4
 64
     7
 65
   257
 75
     1
175
     1
 42
1.0
 92
        8
 66
     7
 43
1.0
 76
     1
 77
     6
 78
     2
 67
     7
 79
     5
170
     0
171
     0
290
     0
174
     0
 93
       13
 44
0.0
173
     0
291
     1
 45
0.0
  0
VISUALSTYLE
  5
2C
102
{ACAD_REACTORS
330
2A
102
}
102
{ACAD_XDICTIONARY
360
479
102
}
330
2A
100
AcDbVisualStyle
  2
FlatWithEdges
 70
     1
 71
     2
 72
     1
 73
     1
 90
        2
 40
-0.6
 41
30.0
 62
     5
 63
     7
421
 16777215
 74
     1
 91
        4
 64
     7
 65
   257
 75
     1
175
     1
 42
1.0
 92
        0
 66
   257
 43
1.0
 76
     1
 77
     6
 78
     2
 67
     7
 79
     5
170
     0
171
     0
290
     0
174
     0
 93
       13
 44
0.0
173
     0
291
     1
 45
0.0
  0
VISUALSTYLE
  5
2D
102
{ACAD_REACTORS
330
2A
102
}
102
{ACAD_XDICTIONARY
360
47B
102
}
330
2A
100
AcDbVisualStyle
  2
Gouraud
 70
     2
 71
     2
 72
     2
 73
     1
 90
        2
 40
-0.6
 41
30.0
 62
     5
 63
     7
421
 16777215
 74
     0
 91
        4
 64
     7
 65
   257
 75
     1
175
     1
 42
1.0
 92
        0
 66
     7
 43
1.0
 76
     1
 77
     6
 78
     2
 67
     7
 79
     5
170
     0
171
     0
290
     0
174
     0
 93
       13
 44
0.0
173
     0
291
     1
 45
0.0
  0
VISUALSTYLE
  5
2E
102
{ACAD_REACTORS
330
2A
102
}
102
{ACAD_XDICTIONARY
360
47D
102
}
330
2A
100
AcDbVisualStyle
  2
GouraudWithEdges
 70
     3
 71
     2
 72
     2
 73
     1
 90
        2
 40
-0.6
 41
30.0
 62
     5
 63
     7
421
 16777215
 74
     1
 91
        4
 64
     7
 65
   257
 75
     1
175
     1
 42
1.0
 92
        0
 66
   257
 43
1.0
 76
     1
 77
     6
 78
     2
 67
     7
 79
     5
170
     0
171
     0
290
     0
174
     0
 93
       13
 44
0.0
173
     0
291
     1
 45
0.0
  0
VISUALSTYLE
  5
38
102
{ACAD_REACTORS
330
2A
102
}
102
{ACAD_XDICTIONARY
360
491
102
}
330
2A
100
AcDbVisualStyle
  2
Linepattern
 70
    14
 71
     2
 72
     2
 73
     0
 90
        0
 40
-0.6
 41
-30.0
 62
     5
 63
     7
421
 16777215
 74
     1
 91
        4
 64
     7
 65
   257
 75
     7
175
     7
 42
1.0
 92
        8
 66
     7
 43
1.0
 76
     1
 77
     6
 78
     2
 67
     7
 79
     5
170
     0
171
     0
290
     0
174
     0
 93
        1
 44
0.0
173
     0
291
     1
 45
0.0
  0
VISUALSTYLE
  5
33
102
{ACAD_REACTORS
330
2A
102
}
102
{ACAD_XDICTIONARY
360
487
102
}
330
2A
100
AcDbVisualStyle
  2
Realistic
 70
     8
 71
     2
 72
     2
 73
     0
 90
        0
 40
-0.6
 41
-30.0
 62
     5
 63
     7
421
 16777215
 74
     1
 91
        0
 64
     7
 65
   257
 75
     1
175
     1
 42
1.0
 92
        8
 66
     8
424
  7895160
 43
1.0
 76
     1
 77
     6
 78
     2
 67
     7
 79
     5
170
     0
171
     0
290
     0
174
     0
 93
       13
 44
0.0
173
     0
291
     0
 45
0.0
  0
VISUALSTYLE
  5
37
102
{ACAD_REACTORS
330
2A
102
}
102
{ACAD_XDICTIONARY
360
48F
102
}
330
2A
100
AcDbVisualStyle
  2
Thicken
 70
    13
 71
     2
 72
     2
 73
     0
 90
        0
 40
-0.6
 41
-30.0
 62
     5
 63
     7
421
 16777215
 74
     1
 91
        4
 64
     7
 65
   257
 75
     1
175
     1
 42
1.0
 92
       12
 66
     7
 43
1.0
 76
     1
 77
     6
 78
     2
 67
     7
 79
     5
170
     0
171
     0
290
     0
174
     0
 93
        1
 44
0.0
173
     0
291
     1
 45
0.0
  0
DICTIONARYVAR
  5
476
102
{ACAD_REACTORS
330
475
102
}
330
475
100
DictionaryVariables
280
     0
  1
1:1
  0
DICTIONARY
  5
3E0
330
3DF
100
AcDbDictionary
280
     1
281
     1
  3
TC_EXTENDED_DATA
360
3E1
  0
DICTIONARY
  5
497
330
17A
100
AcDbDictionary
280
     1
281
     1
  3
ACAD_ROUNDTRIP_2008_TABLESTYLE_CELLSTYLEMAP
360
498
  0
DICTIONARY
  5
47F
330
2F
100
AcDbDictionary
280
     1
281
     1
  3
ACAD_XREC_ROUNDTRIP
360
480
  0
DICTIONARY
  5
483
330
31
100
AcDbDictionary
280
     1
281
     1
  3
ACAD_XREC_ROUNDTRIP
360
484
  0
DICTIONARY
  5
481
330
30
100
AcDbDictionary
280
     1
281
     1
  3
ACAD_XREC_ROUNDTRIP
360
482
  0
DICTIONARY
  5
485
330
32
100
AcDbDictionary
280
     1
281
     1
  3
ACAD_XREC_ROUNDTRIP
360
486
  0
DICTIONARY
  5
48D
330
36
100
AcDbDictionary
280
     1
281
     1
  3
ACAD_XREC_ROUNDTRIP
360
48E
  0
DICTIONARY
  5
495
330
3A
100
AcDbDictionary
280
     1
281
     1
  3
ACAD_XREC_ROUNDTRIP
360
496
  0
DICTIONARY
  5
489
330
34
100
AcDbDictionary
280
     1
281
     1
  3
ACAD_XREC_ROUNDTRIP
360
48A
  0
DICTIONARY
  5
48B
330
35
100
AcDbDictionary
280
     1
281
     1
  3
ACAD_XREC_ROUNDTRIP
360
48C
  0
DICTIONARY
  5
493
330
39
100
AcDbDictionary
280
     1
281
     1
  3
ACAD_XREC_ROUNDTRIP
360
494
  0
DICTIONARY
  5
477
330
2B
100
AcDbDictionary
280
     1
281
     1
  3
ACAD_XREC_ROUNDTRIP
360
478
  0
DICTIONARY
  5
479
330
2C
100
AcDbDictionary
280
     1
281
     1
  3
ACAD_XREC_ROUNDTRIP
360
47A
  0
DICTIONARY
  5
47B
330
2D
100
AcDbDictionary
280
     1
281
     1
  3
ACAD_XREC_ROUNDTRIP
360
47C
  0
DICTIONARY
  5
47D
330
2E
100
AcDbDictionary
280
     1
281
     1
  3
ACAD_XREC_ROUNDTRIP
360
47E
  0
DICTIONARY
  5
491
330
38
100
AcDbDictionary
280
     1
281
     1
  3
ACAD_XREC_ROUNDTRIP
360
492
  0
DICTIONARY
  5
487
330
33
100
AcDbDictionary
280
     1
281
     1
  3
ACAD_XREC_ROUNDTRIP
360
488
  0
DICTIONARY
  5
48F
330
37
100
AcDbDictionary
280
     1
281
     1
  3
ACAD_XREC_ROUNDTRIP
360
490
  0
TCOPTIONALDATA
  5
3E1
102
{ACAD_REACTORS
330
3E0
102
}
330
3E0
100
TcOptionalData
 70
     2
 70
     2
 10
1823.860841292649
 20
183.1512478703725
 30
0.0
  0
CELLSTYLEMAP
  5
498
102
{ACAD_REACTORS
330
497
102
}
330
497
100
AcDbCellStyleMap
 90
        3
300
CELLSTYLE
  1
TABLEFORMAT_BEGIN
 90
        5
170
     1
 91
        0
 92
        0
 62
   257
 93
        1
300
CONTENTFORMAT
  1
CONTENTFORMAT_BEGIN
 90
        0
 91
        0
 92
        4
 93
        0
300

 40
0.0
140
1.0
 94
        5
 62
     0
340
11
144
0.1500000059604645
309
CONTENTFORMAT_END
171
     0
 94
        6
 95
        1
302
GRIDFORMAT
  1
GRIDFORMAT_BEGIN
 90
        0
 91
        1
 62
     0
 92
       -2
340
0
 93
        0
 40
0.045
309
GRIDFORMAT_END
 95
        2
302
GRIDFORMAT
  1
GRIDFORMAT_BEGIN
 90
        0
 91
        1
 62
     0
 92
       -2
340
0
 93
        0
 40
0.045
309
GRIDFORMAT_END
 95
        4
302
GRIDFORMAT
  1
GRIDFORMAT_BEGIN
 90
        0
 91
        1
 62
     0
 92
       -2
340
0
 93
        0
 40
0.045
309
GRIDFORMAT_END
 95
        8
302
GRIDFORMAT
  1
GRIDFORMAT_BEGIN
 90
        0
 91
        1
 62
     0
 92
       -2
340
0
 93
        0
 40
0.045
309
GRIDFORMAT_END
 95
       16
302
GRIDFORMAT
  1
GRIDFORMAT_BEGIN
 90
        0
 91
        1
 62
     0
 92
       -2
340
0
 93
        0
 40
0.045
309
GRIDFORMAT_END
 95
       32
302
GRIDFORMAT
  1
GRIDFORMAT_BEGIN
 90
        0
 91
        1
 62
     0
 92
       -2
340
0
 93
        0
 40
0.045
309
GRIDFORMAT_END
309
TABLEFORMAT_END
  1
CELLSTYLE_BEGIN
 90
        1
 91
        1
300
_TITLE
309
CELLSTYLE_END
300
CELLSTYLE
  1
TABLEFORMAT_BEGIN
 90
        5
170
     1
 91
        0
 92
        0
 62
   257
 93
        1
300
CONTENTFORMAT
  1
CONTENTFORMAT_BEGIN
 90
        0
 91
        0
 92
        4
 93
        0
300

 40
0.0
140
1.0
 94
        5
 62
     0
340
11
144
0.1500000059604645
309
CONTENTFORMAT_END
171
     0
 94
        6
 95
        1
302
GRIDFORMAT
  1
GRIDFORMAT_BEGIN
 90
        0
 91
        1
 62
     0
 92
       -2
340
0
 93
        0
 40
0.045
309
GRIDFORMAT_END
 95
        2
302
GRIDFORMAT
  1
GRIDFORMAT_BEGIN
 90
        0
 91
        1
 62
     0
 92
       -2
340
0
 93
        0
 40
0.045
309
GRIDFORMAT_END
 95
        4
302
GRIDFORMAT
  1
GRIDFORMAT_BEGIN
 90
        0
 91
        1
 62
     0
 92
       -2
340
0
 93
        0
 40
0.045
309
GRIDFORMAT_END
 95
        8
302
GRIDFORMAT
  1
GRIDFORMAT_BEGIN
 90
        0
 91
        1
 62
     0
 92
       -2
340
0
 93
        0
 40
0.045
309
GRIDFORMAT_END
 95
       16
302
GRIDFORMAT
  1
GRIDFORMAT_BEGIN
 90
        0
 91
        1
 62
     0
 92
       -2
340
0
 93
        0
 40
0.045
309
GRIDFORMAT_END
 95
       32
302
GRIDFORMAT
  1
GRIDFORMAT_BEGIN
 90
        0
 91
        1
 62
     0
 92
       -2
340
0
 93
        0
 40
0.045
309
GRIDFORMAT_END
309
TABLEFORMAT_END
  1
CELLSTYLE_BEGIN
 90
        2
 91
        1
300
_HEADER
309
CELLSTYLE_END
300
CELLSTYLE
  1
TABLEFORMAT_BEGIN
 90
        5
170
     1
 91
        0
 92
        0
 62
   257
 93
        1
300
CONTENTFORMAT
  1
CONTENTFORMAT_BEGIN
 90
        0
 91
        0
 92
        4
 93
        0
300

 40
0.0
140
1.0
 94
        5
 62
     0
340
11
144
0.1500000059604645
309
CONTENTFORMAT_END
171
     0
 94
        6
 95
        1
302
GRIDFORMAT
  1
GRIDFORMAT_BEGIN
 90
        0
 91
        1
 62
     0
 92
       -2
340
0
 93
        0
 40
0.045
309
GRIDFORMAT_END
 95
        2
302
GRIDFORMAT
  1
GRIDFORMAT_BEGIN
 90
        0
 91
        1
 62
     0
 92
       -2
340
0
 93
        0
 40
0.045
309
GRIDFORMAT_END
 95
        4
302
GRIDFORMAT
  1
GRIDFORMAT_BEGIN
 90
        0
 91
        1
 62
     0
 92
       -2
340
0
 93
        0
 40
0.045
309
GRIDFORMAT_END
 95
        8
302
GRIDFORMAT
  1
GRIDFORMAT_BEGIN
 90
        0
 91
        1
 62
     0
 92
       -2
340
0
 93
        0
 40
0.045
309
GRIDFORMAT_END
 95
       16
302
GRIDFORMAT
  1
GRIDFORMAT_BEGIN
 90
        0
 91
        1
 62
     0
 92
       -2
340
0
 93
        0
 40
0.045
309
GRIDFORMAT_END
 95
       32
302
GRIDFORMAT
  1
GRIDFORMAT_BEGIN
 90
        0
 91
        1
 62
     0
 92
       -2
340
0
 93
        0
 40
0.045
309
GRIDFORMAT_END
309
TABLEFORMAT_END
  1
CELLSTYLE_BEGIN
 90
        3
 91
        2
300
_DATA
309
CELLSTYLE_END
  0
XRECORD
  5
480
102
{ACAD_REACTORS
330
47F
102
}
330
47F
100
AcDbXrecord
280
     1
102
RTVSPropertyOp0
 70
     1
102
RTVSPropertyOp1
 70
     1
102
RTVSPropertyOp2
 70
     1
102
RTVSPropertyOp3
 70
     1
102
RTVSPropertyOp4
 70
     1
102
RTVSPropertyOp5
 70
     1
102
RTVSPropertyOp6
 70
     1
102
RTVSPropertyOp7
 70
     1
102
RTVSPropertyOp8
 70
     1
102
RTVSPropertyOp9
 70
     1
102
RTVSPropertyOp10
 70
     1
102
RTVSPropertyOp11
 70
     1
102
RTVSPropertyOp12
 70
     1
102
RTVSPropertyOp13
 70
     1
102
RTVSPropertyOp14
 70
     1
102
RTVSPropertyOp15
 70
     1
102
RTVSPropertyOp16
 70
     1
102
RTVSPropertyOp17
 70
     1
102
RTVSPropertyOp18
 70
     1
102
RTVSPropertyOp19
 70
     1
102
RTVSPropertyOp20
 70
     1
102
RTVSPropertyOp21
 70
     1
102
RTVSPropertyOp22
 70
     1
102
RTVSPropertyOp23
 70
     1
102
RTVSPropertyOp24
 70
     1
102
RTVSPropertyOp25
 70
     1
102
RTVSPropertyOp26
 70
     1
102
RTVSPropertyOp27
 70
     1
  0
XRECORD
  5
484
102
{ACAD_REACTORS
330
483
102
}
330
483
100
AcDbXrecord
280
     1
102
RTVSPropertyOp0
 70
     1
102
RTVSPropertyOp1
 70
     1
102
RTVSPropertyOp2
 70
     1
102
RTVSPropertyOp3
 70
     1
102
RTVSPropertyOp4
 70
     1
102
RTVSPropertyOp5
 70
     1
102
RTVSPropertyOp6
 70
     1
102
RTVSPropertyOp7
 70
     1
102
RTVSPropertyOp8
 70
     1
102
RTVSPropertyOp9
 70
     1
102
RTVSPropertyOp10
 70
     1
102
RTVSPropertyOp11
 70
     1
102
RTVSPropertyOp12
 70
     1
102
RTVSPropertyOp13
 70
     1
102
RTVSPropertyOp14
 70
     1
102
RTVSPropertyOp15
 70
     1
102
RTVSPropertyOp16
 70
     1
102
RTVSPropertyOp17
 70
     1
102
RTVSPropertyOp18
 70
     1
102
RTVSPropertyOp19
 70
     1
102
RTVSPropertyOp20
 70
     1
102
RTVSPropertyOp21
 70
     1
102
RTVSPropertyOp22
 70
     1
102
RTVSPropertyOp23
 70
     1
102
RTVSPropertyOp24
 70
     1
102
RTVSPropertyOp25
 70
     1
102
RTVSPropertyOp26
 70
     1
102
RTVSPropertyOp27
 70
     1
  0
XRECORD
  5
482
102
{ACAD_REACTORS
330
481
102
}
330
481
100
AcDbXrecord
280
     1
102
RTVSPropertyOp0
 70
     1
102
RTVSPropertyOp1
 70
     1
102
RTVSPropertyOp2
 70
     1
102
RTVSPropertyOp3
 70
     1
102
RTVSPropertyOp4
 70
     1
102
RTVSPropertyOp5
 70
     1
102
RTVSPropertyOp6
 70
     1
102
RTVSPropertyOp7
 70
     1
102
RTVSPropertyOp8
 70
     1
102
RTVSPropertyOp9
 70
     1
102
RTVSPropertyOp10
 70
     1
102
RTVSPropertyOp11
 70
     1
102
RTVSPropertyOp12
 70
     1
102
RTVSPropertyOp13
 70
     1
102
RTVSPropertyOp14
 70
     1
102
RTVSPropertyOp15
 70
     1
102
RTVSPropertyOp16
 70
     1
102
RTVSPropertyOp17
 70
     1
102
RTVSPropertyOp18
 70
     1
102
RTVSPropertyOp19
 70
     1
102
RTVSPropertyOp20
 70
     1
102
RTVSPropertyOp21
 70
     1
102
RTVSPropertyOp22
 70
     1
102
RTVSPropertyOp23
 70
     1
102
RTVSPropertyOp24
 70
     1
102
RTVSPropertyOp25
 70
     1
102
RTVSPropertyOp26
 70
     1
102
RTVSPropertyOp27
 70
     1
  0
XRECORD
  5
486
102
{ACAD_REACTORS
330
485
102
}
330
485
100
AcDbXrecord
280
     1
102
RTVSPropertyOp0
 70
     1
102
RTVSPropertyOp1
 70
     1
102
RTVSPropertyOp2
 70
     1
102
RTVSPropertyOp3
 70
     1
102
RTVSPropertyOp4
 70
     1
102
RTVSPropertyOp5
 70
     1
102
RTVSPropertyOp6
 70
     1
102
RTVSPropertyOp7
 70
     1
102
RTVSPropertyOp8
 70
     1
102
RTVSPropertyOp9
 70
     1
102
RTVSPropertyOp10
 70
     1
102
RTVSPropertyOp11
 70
     1
102
RTVSPropertyOp12
 70
     1
102
RTVSPropertyOp13
 70
     1
102
RTVSPropertyOp14
 70
     1
102
RTVSPropertyOp15
 70
     1
102
RTVSPropertyOp16
 70
     1
102
RTVSPropertyOp17
 70
     1
102
RTVSPropertyOp18
 70
     1
102
RTVSPropertyOp19
 70
     1
102
RTVSPropertyOp20
 70
     1
102
RTVSPropertyOp21
 70
     1
102
RTVSPropertyOp22
 70
     1
102
RTVSPropertyOp23
 70
     1
102
RTVSPropertyOp24
 70
     1
102
RTVSPropertyOp25
 70
     1
102
RTVSPropertyOp26
 70
     1
102
RTVSPropertyOp27
 70
     1
  0
XRECORD
  5
48E
102
{ACAD_REACTORS
330
48D
102
}
330
48D
100
AcDbXrecord
280
     1
102
RTVSPropertyOp0
 70
     1
102
RTVSPropertyOp1
 70
     1
102
RTVSPropertyOp2
 70
     1
102
RTVSPropertyOp3
 70
     1
102
RTVSPropertyOp4
 70
     1
102
RTVSPropertyOp5
 70
     1
102
RTVSPropertyOp6
 70
     1
102
RTVSPropertyOp7
 70
     1
102
RTVSPropertyOp8
 70
     1
102
RTVSPropertyOp9
 70
     1
102
RTVSPropertyOp10
 70
     1
102
RTVSPropertyOp11
 70
     1
102
RTVSPropertyOp12
 70
     1
102
RTVSPropertyOp13
 70
     1
102
RTVSPropertyOp14
 70
     1
102
RTVSPropertyOp15
 70
     1
102
RTVSPropertyOp16
 70
     1
102
RTVSPropertyOp17
 70
     1
102
RTVSPropertyOp18
 70
     1
102
RTVSPropertyOp19
 70
     1
102
RTVSPropertyOp20
 70
     1
102
RTVSPropertyOp21
 70
     1
102
RTVSPropertyOp22
 70
     1
102
RTVSPropertyOp23
 70
     1
102
RTVSPropertyOp24
 70
     1
102
RTVSPropertyOp25
 70
     1
102
RTVSPropertyOp26
 70
     1
102
RTVSPropertyOp27
 70
     1
  0
XRECORD
  5
496
102
{ACAD_REACTORS
330
495
102
}
330
495
100
AcDbXrecord
280
     1
102
RTVSPropertyOp0
 70
     1
102
RTVSPropertyOp1
 70
     1
102
RTVSPropertyOp2
 70
     1
102
RTVSPropertyOp3
 70
     1
102
RTVSPropertyOp4
 70
     1
102
RTVSPropertyOp5
 70
     1
102
RTVSPropertyOp6
 70
     1
102
RTVSPropertyOp7
 70
     1
102
RTVSPropertyOp8
 70
     1
102
RTVSPropertyOp9
 70
     1
102
RTVSPropertyOp10
 70
     1
102
RTVSPropertyOp11
 70
     1
102
RTVSPropertyOp12
 70
     1
102
RTVSPropertyOp13
 70
     1
102
RTVSPropertyOp14
 70
     1
102
RTVSPropertyOp15
 70
     1
102
RTVSPropertyOp16
 70
     1
102
RTVSPropertyOp17
 70
     1
102
RTVSPropertyOp18
 70
     1
102
RTVSPropertyOp19
 70
     1
102
RTVSPropertyOp20
 70
     1
102
RTVSPropertyOp21
 70
     1
102
RTVSPropertyOp22
 70
     1
102
RTVSPropertyOp23
 70
     1
102
RTVSPropertyOp24
 70
     1
102
RTVSPropertyOp25
 70
     1
102
RTVSPropertyOp26
 70
     1
102
RTVSPropertyOp27
 70
     1
  0
XRECORD
  5
48A
102
{ACAD_REACTORS
330
489
102
}
330
489
100
AcDbXrecord
280
     1
102
RTVSPropertyOp0
 70
     1
102
RTVSPropertyOp1
 70
     1
102
RTVSPropertyOp2
 70
     1
102
RTVSPropertyOp3
 70
     1
102
RTVSPropertyOp4
 70
     1
102
RTVSPropertyOp5
 70
     1
102
RTVSPropertyOp6
 70
     1
102
RTVSPropertyOp7
 70
     1
102
RTVSPropertyOp8
 70
     1
102
RTVSPropertyOp9
 70
     1
102
RTVSPropertyOp10
 70
     1
102
RTVSPropertyOp11
 70
     1
102
RTVSPropertyOp12
 70
     1
102
RTVSPropertyOp13
 70
     1
102
RTVSPropertyOp14
 70
     1
102
RTVSPropertyOp15
 70
     1
102
RTVSPropertyOp16
 70
     1
102
RTVSPropertyOp17
 70
     1
102
RTVSPropertyOp18
 70
     1
102
RTVSPropertyOp19
 70
     1
102
RTVSPropertyOp20
 70
     1
102
RTVSPropertyOp21
 70
     1
102
RTVSPropertyOp22
 70
     1
102
RTVSPropertyOp23
 70
     1
102
RTVSPropertyOp24
 70
     1
102
RTVSPropertyOp25
 70
     1
102
RTVSPropertyOp26
 70
     1
102
RTVSPropertyOp27
 70
     1
  0
XRECORD
  5
48C
102
{ACAD_REACTORS
330
48B
102
}
330
48B
100
AcDbXrecord
280
     1
102
RTVSPropertyOp0
 70
     1
102
RTVSPropertyOp1
 70
     1
102
RTVSPropertyOp2
 70
     1
102
RTVSPropertyOp3
 70
     1
102
RTVSPropertyOp4
 70
     1
102
RTVSPropertyOp5
 70
     1
102
RTVSPropertyOp6
 70
     1
102
RTVSPropertyOp7
 70
     1
102
RTVSPropertyOp8
 70
     1
102
RTVSPropertyOp9
 70
     1
102
RTVSPropertyOp10
 70
     1
102
RTVSPropertyOp11
 70
     1
102
RTVSPropertyOp12
 70
     1
102
RTVSPropertyOp13
 70
     1
102
RTVSPropertyOp14
 70
     1
102
RTVSPropertyOp15
 70
     1
102
RTVSPropertyOp16
 70
     1
102
RTVSPropertyOp17
 70
     1
102
RTVSPropertyOp18
 70
     1
102
RTVSPropertyOp19
 70
     1
102
RTVSPropertyOp20
 70
     1
102
RTVSPropertyOp21
 70
     1
102
RTVSPropertyOp22
 70
     1
102
RTVSPropertyOp23
 70
     1
102
RTVSPropertyOp24
 70
     1
102
RTVSPropertyOp25
 70
     1
102
RTVSPropertyOp26
 70
     1
102
RTVSPropertyOp27
 70
     1
  0
XRECORD
  5
494
102
{ACAD_REACTORS
330
493
102
}
330
493
100
AcDbXrecord
280
     1
102
RTVSPropertyOp0
 70
     1
102
RTVSPropertyOp1
 70
     1
102
RTVSPropertyOp2
 70
     1
102
RTVSPropertyOp3
 70
     1
102
RTVSPropertyOp4
 70
     1
102
RTVSPropertyOp5
 70
     1
102
RTVSPropertyOp6
 70
     1
102
RTVSPropertyOp7
 70
     1
102
RTVSPropertyOp8
 70
     1
102
RTVSPropertyOp9
 70
     1
102
RTVSPropertyOp10
 70
     1
102
RTVSPropertyOp11
 70
     1
102
RTVSPropertyOp12
 70
     1
102
RTVSPropertyOp13
 70
     1
102
RTVSPropertyOp14
 70
     1
102
RTVSPropertyOp15
 70
     1
102
RTVSPropertyOp16
 70
     1
102
RTVSPropertyOp17
 70
     1
102
RTVSPropertyOp18
 70
     1
102
RTVSPropertyOp19
 70
     1
102
RTVSPropertyOp20
 70
     1
102
RTVSPropertyOp21
 70
     1
102
RTVSPropertyOp22
 70
     1
102
RTVSPropertyOp23
 70
     1
102
RTVSPropertyOp24
 70
     1
102
RTVSPropertyOp25
 70
     1
102
RTVSPropertyOp26
 70
     1
102
RTVSPropertyOp27
 70
     1
  0
XRECORD
  5
478
102
{ACAD_REACTORS
330
477
102
}
330
477
100
AcDbXrecord
280
     1
102
RTVSPropertyOp0
 70
     1
102
RTVSPropertyOp1
 70
     1
102
RTVSPropertyOp2
 70
     1
102
RTVSPropertyOp3
 70
     1
102
RTVSPropertyOp4
 70
     1
102
RTVSPropertyOp5
 70
     1
102
RTVSPropertyOp6
 70
     1
102
RTVSPropertyOp7
 70
     1
102
RTVSPropertyOp8
 70
     1
102
RTVSPropertyOp9
 70
     1
102
RTVSPropertyOp10
 70
     1
102
RTVSPropertyOp11
 70
     1
102
RTVSPropertyOp12
 70
     1
102
RTVSPropertyOp13
 70
     1
102
RTVSPropertyOp14
 70
     1
102
RTVSPropertyOp15
 70
     1
102
RTVSPropertyOp16
 70
     1
102
RTVSPropertyOp17
 70
     1
102
RTVSPropertyOp18
 70
     1
102
RTVSPropertyOp19
 70
     1
102
RTVSPropertyOp20
 70
     1
102
RTVSPropertyOp21
 70
     1
102
RTVSPropertyOp22
 70
     1
102
RTVSPropertyOp23
 70
     1
102
RTVSPropertyOp24
 70
     1
102
RTVSPropertyOp25
 70
     1
102
RTVSPropertyOp26
 70
     1
102
RTVSPropertyOp27
 70
     1
  0
XRECORD
  5
47A
102
{ACAD_REACTORS
330
479
102
}
330
479
100
AcDbXrecord
280
     1
102
RTVSPropertyOp0
 70
     1
102
RTVSPropertyOp1
 70
     1
102
RTVSPropertyOp2
 70
     1
102
RTVSPropertyOp3
 70
     1
102
RTVSPropertyOp4
 70
     1
102
RTVSPropertyOp5
 70
     1
102
RTVSPropertyOp6
 70
     1
102
RTVSPropertyOp7
 70
     1
102
RTVSPropertyOp8
 70
     1
102
RTVSPropertyOp9
 70
     1
102
RTVSPropertyOp10
 70
     1
102
RTVSPropertyOp11
 70
     1
102
RTVSPropertyOp12
 70
     1
102
RTVSPropertyOp13
 70
     1
102
RTVSPropertyOp14
 70
     1
102
RTVSPropertyOp15
 70
     1
102
RTVSPropertyOp16
 70
     1
102
RTVSPropertyOp17
 70
     1
102
RTVSPropertyOp18
 70
     1
102
RTVSPropertyOp19
 70
     1
102
RTVSPropertyOp20
 70
     1
102
RTVSPropertyOp21
 70
     1
102
RTVSPropertyOp22
 70
     1
102
RTVSPropertyOp23
 70
     1
102
RTVSPropertyOp24
 70
     1
102
RTVSPropertyOp25
 70
     1
102
RTVSPropertyOp26
 70
     1
102
RTVSPropertyOp27
 70
     1
  0
XRECORD
  5
47C
102
{ACAD_REACTORS
330
47B
102
}
330
47B
100
AcDbXrecord
280
     1
102
RTVSPropertyOp0
 70
     1
102
RTVSPropertyOp1
 70
     1
102
RTVSPropertyOp2
 70
     1
102
RTVSPropertyOp3
 70
     1
102
RTVSPropertyOp4
 70
     1
102
RTVSPropertyOp5
 70
     1
102
RTVSPropertyOp6
 70
     1
102
RTVSPropertyOp7
 70
     1
102
RTVSPropertyOp8
 70
     1
102
RTVSPropertyOp9
 70
     1
102
RTVSPropertyOp10
 70
     1
102
RTVSPropertyOp11
 70
     1
102
RTVSPropertyOp12
 70
     1
102
RTVSPropertyOp13
 70
     1
102
RTVSPropertyOp14
 70
     1
102
RTVSPropertyOp15
 70
     1
102
RTVSPropertyOp16
 70
     1
102
RTVSPropertyOp17
 70
     1
102
RTVSPropertyOp18
 70
     1
102
RTVSPropertyOp19
 70
     1
102
RTVSPropertyOp20
 70
     1
102
RTVSPropertyOp21
 70
     1
102
RTVSPropertyOp22
 70
     1
102
RTVSPropertyOp23
 70
     1
102
RTVSPropertyOp24
 70
     1
102
RTVSPropertyOp25
 70
     1
102
RTVSPropertyOp26
 70
     1
102
RTVSPropertyOp27
 70
     1
  0
XRECORD
  5
47E
102
{ACAD_REACTORS
330
47D
102
}
330
47D
100
AcDbXrecord
280
     1
102
RTVSPropertyOp0
 70
     1
102
RTVSPropertyOp1
 70
     1
102
RTVSPropertyOp2
 70
     1
102
RTVSPropertyOp3
 70
     1
102
RTVSPropertyOp4
 70
     1
102
RTVSPropertyOp5
 70
     1
102
RTVSPropertyOp6
 70
     1
102
RTVSPropertyOp7
 70
     1
102
RTVSPropertyOp8
 70
     1
102
RTVSPropertyOp9
 70
     1
102
RTVSPropertyOp10
 70
     1
102
RTVSPropertyOp11
 70
     1
102
RTVSPropertyOp12
 70
     1
102
RTVSPropertyOp13
 70
     1
102
RTVSPropertyOp14
 70
     1
102
RTVSPropertyOp15
 70
     1
102
RTVSPropertyOp16
 70
     1
102
RTVSPropertyOp17
 70
     1
102
RTVSPropertyOp18
 70
     1
102
RTVSPropertyOp19
 70
     1
102
RTVSPropertyOp20
 70
     1
102
RTVSPropertyOp21
 70
     1
102
RTVSPropertyOp22
 70
     1
102
RTVSPropertyOp23
 70
     1
102
RTVSPropertyOp24
 70
     1
102
RTVSPropertyOp25
 70
     1
102
RTVSPropertyOp26
 70
     1
102
RTVSPropertyOp27
 70
     1
  0
XRECORD
  5
492
102
{ACAD_REACTORS
330
491
102
}
330
491
100
AcDbXrecord
280
     1
102
RTVSPropertyOp0
 70
     1
102
RTVSPropertyOp1
 70
     1
102
RTVSPropertyOp2
 70
     1
102
RTVSPropertyOp3
 70
     1
102
RTVSPropertyOp4
 70
     1
102
RTVSPropertyOp5
 70
     1
102
RTVSPropertyOp6
 70
     1
102
RTVSPropertyOp7
 70
     1
102
RTVSPropertyOp8
 70
     1
102
RTVSPropertyOp9
 70
     1
102
RTVSPropertyOp10
 70
     1
102
RTVSPropertyOp11
 70
     1
102
RTVSPropertyOp12
 70
     1
102
RTVSPropertyOp13
 70
     1
102
RTVSPropertyOp14
 70
     1
102
RTVSPropertyOp15
 70
     1
102
RTVSPropertyOp16
 70
     1
102
RTVSPropertyOp17
 70
     1
102
RTVSPropertyOp18
 70
     1
102
RTVSPropertyOp19
 70
     1
102
RTVSPropertyOp20
 70
     1
102
RTVSPropertyOp21
 70
     1
102
RTVSPropertyOp22
 70
     1
102
RTVSPropertyOp23
 70
     1
102
RTVSPropertyOp24
 70
     1
102
RTVSPropertyOp25
 70
     1
102
RTVSPropertyOp26
 70
     1
102
RTVSPropertyOp27
 70
     1
  0
XRECORD
  5
488
102
{ACAD_REACTORS
330
487
102
}
330
487
100
AcDbXrecord
280
     1
102
RTVSPropertyOp0
 70
     1
102
RTVSPropertyOp1
 70
     1
102
RTVSPropertyOp2
 70
     1
102
RTVSPropertyOp3
 70
     1
102
RTVSPropertyOp4
 70
     1
102
RTVSPropertyOp5
 70
     1
102
RTVSPropertyOp6
 70
     1
102
RTVSPropertyOp7
 70
     1
102
RTVSPropertyOp8
 70
     1
102
RTVSPropertyOp9
 70
     1
102
RTVSPropertyOp10
 70
     1
102
RTVSPropertyOp11
 70
     1
102
RTVSPropertyOp12
 70
     1
102
RTVSPropertyOp13
 70
     1
102
RTVSPropertyOp14
 70
     1
102
RTVSPropertyOp15
 70
     1
102
RTVSPropertyOp16
 70
     1
102
RTVSPropertyOp17
 70
     1
102
RTVSPropertyOp18
 70
     1
102
RTVSPropertyOp19
 70
     1
102
RTVSPropertyOp20
 70
     1
102
RTVSPropertyOp21
 70
     1
102
RTVSPropertyOp22
 70
     1
102
RTVSPropertyOp23
 70
     1
102
RTVSPropertyOp24
 70
     1
102
RTVSPropertyOp25
 70
     1
102
RTVSPropertyOp26
 70
     1
102
RTVSPropertyOp27
 70
     1
  0
XRECORD
  5
490
102
{ACAD_REACTORS
330
48F
102
}
330
48F
100
AcDbXrecord
280
     1
102
RTVSPropertyOp0
 70
     1
102
RTVSPropertyOp1
 70
     1
102
RTVSPropertyOp2
 70
     1
102
RTVSPropertyOp3
 70
     1
102
RTVSPropertyOp4
 70
     1
102
RTVSPropertyOp5
 70
     1
102
RTVSPropertyOp6
 70
     1
102
RTVSPropertyOp7
 70
     1
102
RTVSPropertyOp8
 70
     1
102
RTVSPropertyOp9
 70
     1
102
RTVSPropertyOp10
 70
     1
102
RTVSPropertyOp11
 70
     1
102
RTVSPropertyOp12
 70
     1
102
RTVSPropertyOp13
 70
     1
102
RTVSPropertyOp14
 70
     1
102
RTVSPropertyOp15
 70
     1
102
RTVSPropertyOp16
 70
     1
102
RTVSPropertyOp17
 70
     1
102
RTVSPropertyOp18
 70
     1
102
RTVSPropertyOp19
 70
     1
102
RTVSPropertyOp20
 70
     1
102
RTVSPropertyOp21
 70
     1
102
RTVSPropertyOp22
 70
     1
102
RTVSPropertyOp23
 70
     1
102
RTVSPropertyOp24
 70
     1
102
RTVSPropertyOp25
 70
     1
102
RTVSPropertyOp26
 70
     1
102
RTVSPropertyOp27
 70
     1
  0
ENDSEC
  0
EOF
