  0
SECTION
  2
HEADER
  9
$ACADVER
  1
AC1021
  9
$ACADMAINTVER
 70
    25
  9
$DWGCODEPAGE
  3
ANSI_1252
  9
$INSBASE
 10
0.0
 20
0.0
 30
0.0
  9
$EXTMIN
 10
99.27241262670805
 20
-55.75831495763782
 30
0.0
  9
$EXTMAX
 10
2392.775938379855
 20
1867.195603398309
 30
0.0
  9
$LIMMIN
 10
-15.78065883437523
 20
-96.96454929762103
  9
$LIMMAX
 10
-7.28130623504512
 20
-85.96538711025266
  9
$ORTHOMODE
 70
     0
  9
$REGENMODE
 70
     1
  9
$FILLMODE
 70
     1
  9
$QTEXTMODE
 70
     0
  9
$MIRRTEXT
 70
     0
  9
$LTSCALE
 40
1.0
  9
$ATTMODE
 70
     1
  9
$TEXTSIZE
 40
24.0
  9
$TRACEWID
 40
1.0
  9
$TEXTSTYLE
  7
Standard
  9
$CLAYER
  8
0
  9
$CELTYPE
  6
ByLayer
  9
$CECOLOR
 62
     7
  9
$CELTSCALE
 40
1.0
  9
$DISPSILH
 70
     0
  9
$DIMSCALE
 40
1.0
  9
$DIMASZ
 40
0.25
  9
$DIMEXO
 40
0.0625
  9
$DIMDLI
 40
0.375
  9
$DIMRND
 40
0.01
  9
$DIMDLE
 40
0.0
  9
$DIMEXE
 40
0.125
  9
$DIMTP
 40
0.0
  9
$DIMTM
 40
0.0
  9
$DIMTXT
 40
0.15
  9
$DIMCEN
 40
0.0
  9
$DIMTSZ
 40
0.0
  9
$DIMTOL
 70
     0
  9
$DIMLIM
 70
     0
  9
$DIMTIH
 70
     1
  9
$DIMTOH
 70
     0
  9
$DIMSE1
 70
     0
  9
$DIMSE2
 70
     0
  9
$DIMTAD
 70
     1
  9
$DIMZIN
 70
     1
  9
$DIMBLK
  1

  9
$DIMASO
 70
     1
  9
$DIMSHO
 70
     1
  9
$DIMPOST
  1
 "
  9
$DIMAPOST
  1
 "
  9
$DIMALT
 70
     0
  9
$DIMALTD
 70
     2
  9
$DIMALTF
 40
1.0
  9
$DIMLFAC
 40
1.0
  9
$DIMTOFL
 70
     1
  9
$DIMTVP
 40
0.0
  9
$DIMTIX
 70
     0
  9
$DIMSOXD
 70
     0
  9
$DIMSAH
 70
     0
  9
$DIMBLK1
  1

  9
$DIMBLK2
  1

  9
$DIMSTYLE
  2
Standard
  9
$DIMCLRD
 70
     0
  9
$DIMCLRE
 70
     0
  9
$DIMCLRT
 70
     0
  9
$DIMTFAC
 40
1.0
  9
$DIMGAP
 40
0.0625
  9
$DIMJUST
 70
     0
  9
$DIMSD1
 70
     0
  9
$DIMSD2
 70
     0
  9
$DIMTOLJ
 70
     1
  9
$DIMTZIN
 70
     0
  9
$DIMALTZ
 70
     0
  9
$DIMALTTZ
 70
     0
  9
$DIMUPT
 70
     0
  9
$DIMDEC
 70
     2
  9
$DIMTDEC
 70
     3
  9
$DIMALTU
 70
     2
  9
$DIMALTTD
 70
     2
  9
$DIMTXSTY
  7
Standard
  9
$DIMAUNIT
 70
     0
  9
$DIMADEC
 70
     2
  9
$DIMALTRND
 40
0.01
  9
$DIMAZIN
 70
     0
  9
$DIMDSEP
 70
     0
  9
$DIMATFIT
 70
     3
  9
$DIMFRAC
 70
     2
  9
$DIMLDRBLK
  1

  9
$DIMLUNIT
 70
     2
  9
$DIMLWD
 70
    -2
  9
$DIMLWE
 70
    -2
  9
$DIMTMOVE
 70
     0
  9
$DIMFXL
 40
1.0
  9
$DIMFXLON
 70
     0
  9
$DIMJOGANG
 40
0.7853981633974483
  9
$DIMTFILL
 70
     0
  9
$DIMTFILLCLR
 70
     7
  9
$DIMARCSYM
 70
     0
  9
$DIMLTYPE
  6
ByBlock
  9
$DIMLTEX1
  6
ByBlock
  9
$DIMLTEX2
  6
ByBlock
  9
$LUNITS
 70
     4
  9
$LUPREC
 70
     3
  9
$SKETCHINC
 40
1.0
  9
$FILLETRAD
 40
1.0
  9
$AUNITS
 70
     0
  9
$AUPREC
 70
     2
  9
$MENU
  1
.
  9
$ELEVATION
 40
0.0
  9
$PELEVATION
 40
0.0
  9
$THICKNESS
 40
0.0
  9
$LIMCHECK
 70
     0
  9
$CHAMFERA
 40
0.5
  9
$CHAMFERB
 40
0.5
  9
$CHAMFERC
 40
1.0
  9
$CHAMFERD
 40
0.0
  9
$SKPOLY
 70
     0
  9
$TDCREATE
 40
2459060.423949537
  9
$TDUCREATE
 40
2459060.715616204
  9
$TDUPDATE
 40
2459060.423949549
  9
$TDUUPDATE
 40
2459060.715616215
  9
$TDINDWG
 40
0.0
  9
$TDUSRTIMER
 40
0.0
  9
$USRTIMER
 70
     1
  9
$ANGBASE
 50
0.0
  9
$ANGDIR
 70
     0
  9
$PDMODE
 70
     0
  9
$PDSIZE
 40
0.0
  9
$PLINEWID
 40
0.0
  9
$SPLFRAME
 70
     0
  9
$SPLINETYPE
 70
     5
  9
$SPLINESEGS
 70
    20
  9
$HANDSEED
  5
390
  9
$SURFTAB1
 70
     6
  9
$SURFTAB2
 70
     6
  9
$SURFTYPE
 70
     6
  9
$SURFU
 70
     6
  9
$SURFV
 70
     6
  9
$UCSBASE
  2

  9
$UCSNAME
  2

  9
$UCSORG
 10
0.0
 20
0.0
 30
0.0
  9
$UCSXDIR
 10
1.0
 20
0.0
 30
0.0
  9
$UCSYDIR
 10
0.0
 20
1.0
 30
0.0
  9
$UCSORTHOREF
  2

  9
$UCSORTHOVIEW
 70
     0
  9
$UCSORGTOP
 10
0.0
 20
0.0
 30
0.0
  9
$UCSORGBOTTOM
 10
0.0
 20
0.0
 30
0.0
  9
$UCSORGLEFT
 10
0.0
 20
0.0
 30
0.0
  9
$UCSORGRIGHT
 10
0.0
 20
0.0
 30
0.0
  9
$UCSORGFRONT
 10
0.0
 20
0.0
 30
0.0
  9
$UCSORGBACK
 10
0.0
 20
0.0
 30
0.0
  9
$PUCSBASE
  2

  9
$PUCSNAME
  2

  9
$PUCSORG
 10
0.0
 20
0.0
 30
0.0
  9
$PUCSXDIR
 10
1.0
 20
0.0
 30
0.0
  9
$PUCSYDIR
 10
0.0
 20
1.0
 30
0.0
  9
$PUCSORTHOREF
  2

  9
$PUCSORTHOVIEW
 70
     0
  9
$PUCSORGTOP
 10
0.0
 20
0.0
 30
0.0
  9
$PUCSORGBOTTOM
 10
0.0
 20
0.0
 30
0.0
  9
$PUCSORGLEFT
 10
0.0
 20
0.0
 30
0.0
  9
$PUCSORGRIGHT
 10
0.0
 20
0.0
 30
0.0
  9
$PUCSORGFRONT
 10
0.0
 20
0.0
 30
0.0
  9
$PUCSORGBACK
 10
0.0
 20
0.0
 30
0.0
  9
$USERI1
 70
     0
  9
$USERI2
 70
     0
  9
$USERI3
 70
     0
  9
$USERI4
 70
     0
  9
$USERI5
 70
     0
  9
$USERR1
 40
0.0
  9
$USERR2
 40
0.0
  9
$USERR3
 40
0.0
  9
$USERR4
 40
0.0
  9
$USERR5
 40
0.0
  9
$WORLDVIEW
 70
     1
  9
$SHADEDGE
 70
     3
  9
$SHADEDIF
 70
    70
  9
$TILEMODE
 70
     1
  9
$MAXACTVP
 70
    64
  9
$PINSBASE
 10
0.0
 20
0.0
 30
0.0
  9
$PLIMCHECK
 70
     0
  9
$PEXTMIN
 10
0.0
 20
0.0
 30
0.0
  9
$PEXTMAX
 10
11.0
 20
8.5
 30
0.0
  9
$PLIMMIN
 10
0.0
 20
0.0
  9
$PLIMMAX
 10
11.0
 20
8.5
  9
$UNITMODE
 70
     0
  9
$VISRETAIN
 70
     1
  9
$PLINEGEN
 70
     0
  9
$PSLTSCALE
 70
     1
  9
$TREEDEPTH
 70
  3020
  9
$CMLSTYLE
  2
Standard
  9
$CMLJUST
 70
     0
  9
$CMLSCALE
 40
1.0
  9
$PROXYGRAPHICS
 70
     1
  9
$MEASUREMENT
 70
     0
  9
$CELWEIGHT
370
    -1
  9
$ENDCAPS
280
     0
  9
$JOINSTYLE
280
     0
  9
$LWDISPLAY
290
     0
  9
$INSUNITS
 70
     1
  9
$HYPERLINKBASE
  1

  9
$STYLESHEET
  1

  9
$XEDIT
290
     1
  9
$CEPSNTYPE
380
     0
  9
$PSTYLEMODE
290
     1
  9
$FINGERPRINTGUID
  2
{A2A882A4-818E-4937-A359-9DD3D6C91A1C}
  9
$VERSIONGUID
  2
{FAEB1C32-E019-11D5-929B-00C0DF256EC4}
  9
$EXTNAMES
290
     1
  9
$PSVPSCALE
 40
0.0
  9
$OLESTARTUP
290
     0
  9
$SORTENTS
280
   127
  9
$INDEXCTL
280
     0
  9
$HIDETEXT
280
     1
  9
$XCLIPFRAME
290
     0
  9
$HALOGAP
280
     0
  9
$OBSCOLOR
 70
   257
  9
$OBSLTYPE
280
     0
  9
$INTERSECTIONDISPLAY
280
     0
  9
$INTERSECTIONCOLOR
 70
   257
  9
$DIMASSOC
280
     2
  9
$PROJECTNAME
  1

  9
$CAMERADISPLAY
290
     0
  9
$LENSLENGTH
 40
50.0
  9
$CAMERAHEIGHT
 40
0.0
  9
$STEPSPERSEC
 40
2.0
  9
$STEPSIZE
 40
6.0
  9
$3DDWFPREC
 40
2.0
  9
$PSOLWIDTH
 40
0.25
  9
$PSOLHEIGHT
 40
4.0
  9
$LOFTANG1
 40
1.570796326794897
  9
$LOFTANG2
 40
1.570796326794897
  9
$LOFTMAG1
 40
0.0
  9
$LOFTMAG2
 40
0.0
  9
$LOFTPARAM
 70
     7
  9
$LOFTNORMALS
280
     1
  9
$LATITUDE
 40
37.795
  9
$LONGITUDE
 40
-122.394
  9
$NORTHDIRECTION
 40
0.0
  9
$TIMEZONE
 70
 -8000
  9
$LIGHTGLYPHDISPLAY
280
     1
  9
$TILEMODELIGHTSYNCH
280
     1
  9
$SOLIDHIST
280
     1
  9
$SHOWHIST
280
     1
  9
$DWFFRAME
280
     2
  9
$DGNFRAME
280
     2
  9
$REALWORLDSCALE
290
     1
  9
$INTERFERECOLOR
 62
   256
  9
$CSHADOW
280
     0
  9
$SHADOWPLANELOCATION
 40
0.0
  0
ENDSEC
  0
SECTION
  2
CLASSES
  0
CLASS
  1
ACDBDICTIONARYWDFLT
  2
AcDbDictionaryWithDefault
  3
ObjectDBX Classes
 90
        0
 91
        4
280
     0
281
     0
  0
CLASS
  1
VISUALSTYLE
  2
AcDbVisualStyle
  3
ObjectDBX Classes
 90
     4095
 91
        4
280
     0
281
     0
  0
CLASS
  1
MATERIAL
  2
AcDbMaterial
  3
ObjectDBX Classes
 90
     1153
 91
        4
280
     0
281
     0
  0
CLASS
  1
AEC_VARS_DWG_SETUP
  2
AecDbVarsDwgSetup
  3
AecBase60
 90
      129
 91
        4
280
     0
281
     0
  0
CLASS
  1
AEC_DISP_REP_2D_SECTION
  2
AecDbDispRep2dSection
  3
AecBase60
 90
      129
 91
        4
280
     0
281
     0
  0
CLASS
  1
AEC_DISP_PROPS_2D_SECTION
  2
AecDbDispProps2dSection
  3
AecBase60
 90
      129
 91
        4
280
     0
281
     0
  0
CLASS
  1
AEC_DISP_REP_CLIP_VOLUME_MODEL
  2
AecDbDispRepClipVolModel
  3
AecBase60
 90
      129
 91
        6
280
     0
281
     0
  0
CLASS
  1
AEC_DISP_PROPS_CLIP_VOLUME
  2
AecDbDispPropsClipVol
  3
AecBase60
 90
      129
 91
        4
280
     0
281
     0
  0
CLASS
  1
AEC_DISP_REP_CLIP_VOLUME_PLAN
  2
AecDbDispRepClipVolPlan
  3
AecBase60
 90
      129
 91
        4
280
     0
281
     0
  0
CLASS
  1
AEC_DISP_REP_CLIP_VOLUME_RESULT
  2
AecDbDispRepClipVolResult
  3
AecBase60
 90
      129
 91
        6
280
     0
281
     0
  0
CLASS
  1
AEC_DISP_REP_CLIP_VOLUME_RESULT_SUBDIV
  2
AecDbDispRepClipVolResSubDiv
  3
AecBase60
 90
      129
 91
        5
280
     0
281
     0
  0
CLASS
  1
AEC_DISP_PROPS_CLIP_VOLUME_RESULT
  2
AecDbDispPropsClipVolResSubDiv
  3
AecBase60
 90
      129
 91
        4
280
     0
281
     0
  0
CLASS
  1
AEC_DISP_REP_DISPLAYTHEME
  2
AecDbDispRepDisplayTheme
  3
AecBase60
 90
      129
 91
        4
280
     0
281
     0
  0
CLASS
  1
AEC_DISP_REP_ENT_REF
  2
AecDbDispRepEntRef
  3
AecBase60
 90
      129
 91
        4
280
     0
281
     0
  0
CLASS
  1
AEC_DISP_PROPS_ENT_REF
  2
AecDbDispPropsEntRef
  3
AecBase60
 90
      129
 91
        4
280
     0
281
     0
  0
CLASS
  1
AEC_DISP_REP_LAYOUT_CURVE
  2
AecDbDispRepLayoutCurve
  3
AecBase60
 90
      129
 91
        4
280
     0
281
     0
  0
CLASS
  1
AEC_DISP_PROPS_LAYOUT_CURVE
  2
AecDbDispPropsLayoutCurve
  3
AecBase60
 90
      129
 91
        4
280
     0
281
     0
  0
CLASS
  1
AEC_DISP_REP_LAYOUT_GRID2D
  2
AecDbDispRepLayoutGrid2d
  3
AecBase60
 90
      129
 91
        6
280
     0
281
     0
  0
CLASS
  1
AEC_DISP_PROPS_LAYOUT_GRID2D
  2
AecDbDispPropsLayoutGrid2d
  3
AecBase60
 90
      129
 91
        5
280
     0
281
     0
  0
CLASS
  1
AEC_DISP_REP_LAYOUT_GRID3D
  2
AecDbDispRepLayoutGrid3d
  3
AecBase60
 90
      129
 91
        4
280
     0
281
     0
  0
CLASS
  1
AEC_DISP_PROPS_LAYOUT_GRID3D
  2
AecDbDispPropsLayoutGrid3d
  3
AecBase60
 90
      129
 91
        4
280
     0
281
     0
  0
CLASS
  1
AEC_DISP_REP_MASKBLOCK_REF
  2
AecDbDispRepMaskBlockRef
  3
AecBase60
 90
      129
 91
        5
280
     0
281
     0
  0
CLASS
  1
AEC_DISP_PROPS_MASKBLOCK
  2
AecDbDispPropsMaskBlock
  3
AecBase60
 90
      129
 91
        4
280
     0
281
     0
  0
CLASS
  1
AEC_DISP_REP_MASKBLOCK_REF_RCP
  2
AecDbDispRepMaskBlockRefRcp
  3
AecArchBase60
 90
      129
 91
        4
280
     0
281
     0
  0
CLASS
  1
AEC_DISP_REP_MASS_ELEM_MODEL
  2
AecDbDispRepMassElemModel
  3
AecBase60
 90
      129
 91
        4
280
     0
281
     0
  0
CLASS
  1
AEC_DISP_PROPS_MASS_ELEM_MODEL
  2
AecDbDispPropsMassElem
  3
AecBase60
 90
      129
 91
        5
280
     0
281
     0
  0
CLASS
  1
AEC_DISP_REP_MASS_ELEM_SCHEM
  2
AecDbDispRepMassElemSchem
  3
AecBase60
 90
      129
 91
        5
280
     0
281
     0
  0
CLASS
  1
AEC_DISPREPAECDBDISPREPMASSELEMPLAN50
  2
AecDbDispRepMassElemPlan50
  3
AecArchDACHBase60
 90
      129
 91
        4
280
     0
281
     0
  0
CLASS
  1
AEC_DISPROPSMASSELEMPLANCOMMON
  2
AecDbDispPropsMassElemPlanCommon
  3
AecArchDACHBase60
 90
      129
 91
        4
280
     0
281
     0
  0
CLASS
  1
AEC_DISPREPAECDBDISPREPMASSELEMPLAN100
  2
AecDbDispRepMassElemPlan100
  3
AecArchDACHBase60
 90
      129
 91
        4
280
     0
281
     0
  0
CLASS
  1
AEC_DISP_REP_MASS_ELEM_RCP
  2
AecDbDispRepMassElemRcp
  3
AecArchBase60
 90
      129
 91
        4
280
     0
281
     0
  0
CLASS
  1
AEC_DISP_REP_MASS_GROUP_MODEL
  2
AecDbDispRepMassGroupModel
  3
AecBase60
 90
      129
 91
        4
280
     0
281
     0
  0
CLASS
  1
AEC_DISP_PROPS_MASS_GROUP
  2
AecDbDispPropsMassGroup
  3
AecBase60
 90
      129
 91
        5
280
     0
281
     0
  0
CLASS
  1
AEC_DISP_REP_MASS_GROUP_PLAN
  2
AecDbDispRepMassGroupPlan
  3
AecBase60
 90
      129
 91
        8
280
     0
281
     0
  0
CLASS
  1
AEC_DISPREPAECDBDISPREPMASSGROUPPLAN50
  2
AecDbDispRepMassGroupPlan50
  3
AecArchDACHBase60
 90
      129
 91
        4
280
     0
281
     0
  0
CLASS
  1
AEC_DISPROPSMASSGROUPPLANCOMMON
  2
AecDbDispPropsMassGroupPlanCommon
  3
AecArchDACHBase60
 90
      129
 91
        4
280
     0
281
     0
  0
CLASS
  1
AEC_DISPREPAECDBDISPREPMASSGROUPPLAN100
  2
AecDbDispRepMassGroupPlan100
  3
AecArchDACHBase60
 90
      129
 91
        4
280
     0
281
     0
  0
CLASS
  1
AEC_DISP_REP_MASS_GROUP_RCP
  2
AecDbDispRepMassGroupRcp
  3
AecArchBase60
 90
      129
 91
        4
280
     0
281
     0
  0
CLASS
  1
AEC_DISP_REP_MVBLOCK_REF
  2
AecDbDispRepMvBlockRef
  3
AecBase60
 90
      129
 91
        8
280
     0
281
     0
  0
CLASS
  1
AEC_DISP_REP_MVBLOCK_REF_MODEL
  2
AecDbDispRepMvBlockRefModel
  3
AecBase60
 90
      129
 91
        4
280
     0
281
     0
  0
CLASS
  1
AEC_AECDBDISPREPMVBLOCKREFPLAN100
  2
AecDbDispRepMvBlockRefPlan100
  3
AecBase60
 90
      129
 91
        4
280
     0
281
     0
  0
CLASS
  1
AEC_AECDBDISPREPMVBLOCKREFPLAN50
  2
AecDbDispRepMvBlockRefPlan50
  3
AecBase60
 90
      129
 91
        4
280
     0
281
     0
  0
CLASS
  1
AEC_DISP_REP_POLYGON_MODEL
  2
AecDbDispRepPolygonModel
  3
AecBase60
 90
      129
 91
        4
280
     0
281
     0
  0
CLASS
  1
AEC_DISP_PROPS_POLYGON_MODEL
  2
AecDbDispPropsPolygonModel
  3
AecBase60
 90
      129
 91
        4
280
     0
281
     0
  0
CLASS
  1
AEC_DISP_REP_POLYGON_TRUECOLOUR
  2
AecDbDispRepPolygonTrueColour
  3
AecBase60
 90
      129
 91
        4
280
     0
281
     0
  0
CLASS
  1
AEC_DISP_PROPS_POLYGON_TRUECOLOUR
  2
AecDbDispPropsPolygonTrueColour
  3
AecBase60
 90
      129
 91
        4
280
     0
281
     0
  0
CLASS
  1
AEC_DISP_REP_SLICE
  2
AecDbDispRepSlice
  3
AecBase60
 90
      129
 91
        4
280
     0
281
     0
  0
CLASS
  1
AEC_DISP_PROPS_SLICE
  2
AecDbDispPropsSlice
  3
AecBase60
 90
      129
 91
        4
280
     0
281
     0
  0
CLASS
  1
AEC_DISP_REP_ANCHOR
  2
AecDbDispRepAnchor
  3
AecBase60
 90
      129
 91
        4
280
     0
281
     0
  0
CLASS
  1
AEC_DISP_REP_ANCHOR_ENT_TO_NODE
  2
AecDbDispRepAnchorEntToNode
  3
AecBase60
 90
      129
 91
        5
280
     0
281
     0
  0
CLASS
  1
AEC_DISP_PROPS_ENT
  2
AecDbDispPropsEnt
  3
AecBase60
 90
      129
 91
        4
280
     0
281
     0
  0
CLASS
  1
AEC_DISP_REP_MATERIAL
  2
AecDbDispRepMaterial
  3
AecBase60
 90
      129
 91
        4
280
     0
281
     0
  0
CLASS
  1
AEC_DISP_PROPS_MATERIAL
  2
AecDbDispPropsMaterial
  3
AecBase60
 90
      129
 91
        4
280
     0
281
     0
  0
CLASS
  1
AEC_DISP_REP_EDITINPLACEPROFILE
  2
AecDbDispRepEditInPlaceProfile
  3
AecBase60
 90
      129
 91
        4
280
     0
281
     0
  0
CLASS
  1
AEC_DISP_PROPS_EDITINPLACEPROFILE_MODEL
  2
AecDbDispPropsEditInPlaceProfile
  3
AecBase60
 90
      129
 91
        4
280
     0
281
     0
  0
CLASS
  1
AEC_VARS_ARCHBASE
  2
AecDbVarsArchBase
  3
AecArchBase60
 90
      129
 91
        4
280
     0
281
     0
  0
CLASS
  1
AEC_DISP_REP_BDG_ELEVLINE_PLAN
  2
AecDbDispRepBdgElevLinePlan
  3
AecArchBase60
 90
      129
 91
        7
280
     0
281
     0
  0
CLASS
  1
AEC_DISP_REP_BDG_ELEVLINE_MODEL
  2
AecDbDispRepBdgElevLineModel
  3
AecArchBase60
 90
      129
 91
        4
280
     0
281
     0
  0
CLASS
  1
AEC_DISP_REP_BDG_ELEVLINE_RCP
  2
AecDbDispRepBdgElevLineRcp
  3
AecArchBase60
 90
      129
 91
        4
280
     0
281
     0
  0
CLASS
  1
AEC_AECDBDISPREPBDGELEVLINEPLAN100
  2
AecDbDispRepBdgElevLinePlan100
  3
AecBase60
 90
      129
 91
        4
280
     0
281
     0
  0
CLASS
  1
AEC_AECDBDISPREPBDGELEVLINEPLAN50
  2
AecDbDispRepBdgElevLinePlan50
  3
AecBase60
 90
      129
 91
        4
280
     0
281
     0
  0
CLASS
  1
AEC_DISP_REP_BDG_SECTIONLINE_MODEL
  2
AecDbDispRepBdgSectionLineModel
  3
AecArchBase60
 90
      129
 91
        4
280
     0
281
     0
  0
CLASS
  1
AEC_DISP_REP_BDG_SECTIONLINE_PLAN
  2
AecDbDispRepBdgSectionLinePlan
  3
AecArchBase60
 90
      129
 91
        7
280
     0
281
     0
  0
CLASS
  1
AEC_DISP_REP_BDG_SECTIONLINE_RCP
  2
AecDbDispRepBdgSectionLineRcp
  3
AecArchBase60
 90
      129
 91
        4
280
     0
281
     0
  0
CLASS
  1
AEC_AECDBDISPREPBDGSECTIONLINEPLAN100
  2
AecDbDispRepBdgSectionLinePlan100
  3
AecBase60
 90
      129
 91
        4
280
     0
281
     0
  0
CLASS
  1
AEC_AECDBDISPREPBDGSECTIONLINEPLAN50
  2
AecDbDispRepBdgSectionLinePlan50
  3
AecBase60
 90
      129
 91
        4
280
     0
281
     0
  0
CLASS
  1
AEC_DISP_REP_BDG_SECTION_SUBDIV
  2
AecDbDispRepBdgSectionSubDiv
  3
AecArchBase60
 90
      129
 91
        4
280
     0
281
     0
  0
CLASS
  1
AEC_DISP_REP_BDG_SECTION_MODEL
  2
AecDbDispRepBdgSectionModel
  3
AecArchBase60
 90
      129
 91
        4
280
     0
281
     0
  0
CLASS
  1
AEC_DISP_REP_CEILING_GRID
  2
AecDbDispRepCeilingGrid
  3
AecArchBase60
 90
      893
 91
        8
280
     0
281
     0
  0
CLASS
  1
AEC_DISP_REP_CEILING_GRID_MODEL
  2
AecDbDispRepCeilingGridModel
  3
AecArchBase60
 90
      129
 91
        4
280
     0
281
     0
  0
CLASS
  1
AEC_DISP_REP_CEILING_GRID_RCP
  2
AecDbDispRepCeilingGridRcp
  3
AecArchBase60
 90
      129
 91
        4
280
     0
281
     0
  0
CLASS
  1
AEC_AECDBDISPREPCEILINGGRIDPLAN100
  2
AecDbDispRepCeilingGridPlan100
  3
AecBase60
 90
      129
 91
        4
280
     0
281
     0
  0
CLASS
  1
AEC_AECDBDISPREPCEILINGGRIDPLAN50
  2
AecDbDispRepCeilingGridPlan50
  3
AecBase60
 90
      129
 91
        4
280
     0
281
     0
  0
CLASS
  1
AEC_DISP_REP_CURTAIN_WALL_LAYOUT_MODEL
  2
AecDbDispRepCurtainWallLayoutModel
  3
AecArchBase60
 90
      129
 91
        4
280
     0
281
     0
  0
CLASS
  1
AEC_DISP_PROPS_GRID_ASSEMBLY_MODEL
  2
AecDbDispPropsGridAssemblyModel
  3
AecArchBase60
 90
      129
 91
        4
280
     0
281
     0
  0
CLASS
  1
AEC_DISP_REP_CURTAIN_WALL_LAYOUT_PLAN
  2
AecDbDispRepCurtainWallLayoutPlan
  3
AecArchBase60
 90
      129
 91
        6
280
     0
281
     0
  0
CLASS
  1
AEC_DISP_PROPS_GRID_ASSEMBLY_PLAN
  2
AecDbDispPropsGridAssemblyPlan
  3
AecArchBase60
 90
      129
 91
        4
280
     0
281
     0
  0
CLASS
  1
AEC_AECDBDISPREPCURTAINWALLLAYOUTPLAN100
  2
AecDbDispRepCurtainWallLayoutPlan100
  3
AecBase60
 90
      129
 91
        4
280
     0
281
     0
  0
CLASS
  1
AEC_AECDBDISPREPCURTAINWALLLAYOUTPLAN50
  2
AecDbDispRepCurtainWallLayoutPlan50
  3
AecBase60
 90
      129
 91
        4
280
     0
281
     0
  0
CLASS
  1
AEC_DISP_REP_CURTAIN_WALL_UNIT_MODEL
  2
AecDbDispRepCurtainWallUnitModel
  3
AecArchBase60
 90
      129
 91
        4
280
     0
281
     0
  0
CLASS
  1
AEC_DISP_REP_CURTAIN_WALL_UNIT_PLAN
  2
AecDbDispRepCurtainWallUnitPlan
  3
AecArchBase60
 90
      129
 91
        6
280
     0
281
     0
  0
CLASS
  1
AEC_AECDBDISPREPCURTAINWALLUNITPLAN100
  2
AecDbDispRepCurtainWallUnitPlan100
  3
AecBase60
 90
      129
 91
        4
280
     0
281
     0
  0
CLASS
  1
AEC_AECDBDISPREPCURTAINWALLUNITPLAN50
  2
AecDbDispRepCurtainWallUnitPlan50
  3
AecBase60
 90
      129
 91
        4
280
     0
281
     0
  0
CLASS
  1
AEC_DISP_REP_DOOR_MODEL
  2
AecDbDispRepDoorModel
  3
AecArchBase60
 90
      129
 91
        5
280
     0
281
     0
  0
CLASS
  1
AEC_DISP_PROPS_DOOR
  2
AecDbDispPropsDoor
  3
AecArchBase60
 90
      129
 91
        5
280
     0
281
     0
  0
CLASS
  1
AEC_DISP_REP_DOOR_ELEV
  2
AecDbDispRepDoorElev
  3
AecArchBase60
 90
      129
 91
        4
280
     0
281
     0
  0
CLASS
  1
AEC_DISP_REP_DOOR_PLAN
  2
AecDbDispRepDoorPlan
  3
AecArchBase60
 90
      129
 91
        8
280
     0
281
     0
  0
CLASS
  1
AEC_DISP_REP_DOOR_NOMINAL
  2
AecDbDispRepDoorNominal
  3
AecArchBase60
 90
      129
 91
        4
280
     0
281
     0
  0
CLASS
  1
AEC_DISP_PROPS_DOOR_NOMINAL
  2
AecDbDispPropsDoorNominal
  3
AecArchBase60
 90
      129
 91
        4
280
     0
281
     0
  0
CLASS
  1
AEC_DISP_REP_DOOR_THRESHOLD_PLAN
  2
AecDbDispRepDoorThresholdPlan
  3
AecArchBase60
 90
      129
 91
        4
280
     0
281
     0
  0
CLASS
  1
AEC_DISP_PROPS_DOOR_THRESHOLD_PLAN
  2
AecDbDispPropsDoorThresholdPlan
  3
AecArchBase60
 90
      129
 91
        4
280
     0
281
     0
  0
CLASS
  1
AEC_DISP_REP_DOOR_PLAN_50
  2
AecDbDispRepDoorPlan50
  3
AecArchDACHBase60
 90
      129
 91
        4
280
     0
281
     0
  0
CLASS
  1
AEC_DISP_PROPS_DOOR_PLAN_50
  2
AecDbDispPropsDoorPlan50
  3
AecArchDACHBase60
 90
      129
 91
        4
280
     0
281
     0
  0
CLASS
  1
AEC_DISP_REP_DOOR_PLAN_HEKTO
  2
AecDbDispRepDoorPlanHekto
  3
AecArchDACHBase60
 90
      129
 91
        4
280
     0
281
     0
  0
CLASS
  1
AEC_DISP_PROPS_DOOR_PLAN_100
  2
AecDbDispPropsDoorPlan100
  3
AecArchDACHBase60
 90
      129
 91
        4
280
     0
281
     0
  0
CLASS
  1
AEC_DISP_REP_DOOR_RCP
  2
AecDbDispRepDoorRcp
  3
AecArchBase60
 90
      129
 91
        4
280
     0
281
     0
  0
CLASS
  1
AEC_DISP_REP_DOOR_THRESHOLD_SYMBOL_PLAN
  2
AecDbDispRepDoorThresholdSymbolPlan
  3
AecArchDACHBase60
 90
      129
 91
        4
280
     0
281
     0
  0
CLASS
  1
AEC_DISP_PROPS_DOOR_THRESHOLD_SYMBOL_PLAN
  2
AecDbDispPropsDoorThresholdSymbolPlan
  3
AecArchDACHBase60
 90
      129
 91
        4
280
     0
281
     0
  0
CLASS
  1
AEC_DISP_REP_OPENING
  2
AecDbDispRepOpening
  3
AecArchBase60
 90
      129
 91
        6
280
     0
281
     0
  0
CLASS
  1
AEC_DISP_PROPS_OPENING
  2
AecDbDispPropsOpening
  3
AecArchBase60
 90
      129
 91
        5
280
     0
281
     0
  0
CLASS
  1
AEC_DISP_REP_OPENING_MODEL
  2
AecDbDispRepOpeningModel
  3
AecArchBase60
 90
      129
 91
        4
280
     0
281
     0
  0
CLASS
  1
AEC_DISPREPAECDBDISPREPOPENINGPLAN100
  2
AecDbDispRepOpeningPlan100
  3
AecArchDACHBase60
 90
      129
 91
        4
280
     0
281
     0
  0
CLASS
  1
AEC_DISPROPSOPENINGPLANCOMMONHATCHED
  2
AecDbDispPropsOpeningPlanCommonHatched
  3
AecArchDACHBase60
 90
      129
 91
        4
280
     0
281
     0
  0
CLASS
  1
AEC_DISPREPAECDBDISPREPOPENINGPLAN50
  2
AecDbDispRepOpeningPlan50
  3
AecArchDACHBase60
 90
      129
 91
        4
280
     0
281
     0
  0
CLASS
  1
AEC_DISPREPAECDBDISPREPOPENINGPLANREFLECTED
  2
AecDbDispRepOpeningPlanReflected
  3
AecArchDACHBase60
 90
      129
 91
        4
280
     0
281
     0
  0
CLASS
  1
AEC_DISPROPSOPENINGPLANCOMMON
  2
AecDbDispPropsOpeningPlanCommon
  3
AecArchDACHBase60
 90
      129
 91
        5
280
     0
281
     0
  0
CLASS
  1
AEC_DISPREPAECDBDISPREPOPENINGSILLPLAN
  2
AecDbDispRepOpeningSillPlan
  3
AecArchDACHBase60
 90
      129
 91
        4
280
     0
281
     0
  0
CLASS
  1
AEC_DISPROPSOPENINGSILLPLAN
  2
AecDbDispPropsOpeningSillPlan
  3
AecArchDACHBase60
 90
      129
 91
        4
280
     0
281
     0
  0
CLASS
  1
AEC_DISP_REP_RAILING_MODEL
  2
AecDbDispRepRailingModel
  3
AecArchBase60
 90
      129
 91
        4
280
     0
281
     0
  0
CLASS
  1
AEC_DISP_PROPS_RAILING_MODEL
  2
AecDbDispPropsRailingModel
  3
AecArchBase60
 90
      129
 91
        4
280
     0
281
     0
  0
CLASS
  1
AEC_DISP_REP_RAILING_PLAN
  2
AecDbDispRepRailingPlan
  3
AecArchBase60
 90
      129
 91
        5
280
     0
281
     0
  0
CLASS
  1
AEC_DISP_PROPS_RAILING_PLAN
  2
AecDbDispPropsRailingPlan
  3
AecArchBase60
 90
      129
 91
        5
280
     0
281
     0
  0
CLASS
  1
AEC_DISP_REP_RAILING_PLAN_100
  2
AecDbDispRepRailingPlan100
  3
AecArchDACHBase60
 90
      129
 91
        4
280
     0
281
     0
  0
CLASS
  1
AEC_DISP_ROPS_RAILING_PLAN_100
  2
AecDbDispPropsRailingPlan100
  3
AecArchDACHBase60
 90
      129
 91
        4
280
     0
281
     0
  0
CLASS
  1
AEC_DISP_REP_RAILING_PLAN_50
  2
AecDbDispRepRailingPlan50
  3
AecArchDACHBase60
 90
      129
 91
        4
280
     0
281
     0
  0
CLASS
  1
AEC_DISP_ROPS_RAILING_PLAN_50
  2
AecDbDispPropsRailingPlan50
  3
AecArchDACHBase60
 90
      129
 91
        4
280
     0
281
     0
  0
CLASS
  1
AEC_DISP_REP_ROOF_MODEL
  2
AecDbDispRepRoofModel
  3
AecArchBase60
 90
      129
 91
        4
280
     0
281
     0
  0
CLASS
  1
AEC_DISP_PROPS_ROOF
  2
AecDbDispPropsRoof
  3
AecArchBase60
 90
      129
 91
        4
280
     0
281
     0
  0
CLASS
  1
AEC_DISP_REP_ROOF_PLAN
  2
AecDbDispRepRoofPlan
  3
AecArchBase60
 90
      129
 91
        8
280
     0
281
     0
  0
CLASS
  1
AEC_DISP_REP_ROOF_RCP
  2
AecDbDispRepRoofRcp
  3
AecArchBase60
 90
      129
 91
        4
280
     0
281
     0
  0
CLASS
  1
AEC_AECDBDISPREPROOFPLAN100
  2
AecDbDispRepRoofPlan100
  3
AecBase60
 90
      129
 91
        4
280
     0
281
     0
  0
CLASS
  1
AEC_AECDBDISPREPROOFPLAN50
  2
AecDbDispRepRoofPlan50
  3
AecBase60
 90
      129
 91
        4
280
     0
281
     0
  0
CLASS
  1
AEC_DISP_REP_ROOFSLAB_MODEL
  2
AecDbDispRepRoofSlabModel
  3
AecArchBase60
 90
      129
 91
        4
280
     0
281
     0
  0
CLASS
  1
AEC_DISP_PROPS_ROOFSLAB
  2
AecDbDispPropsRoofSlab
  3
AecArchBase60
 90
      129
 91
        4
280
     0
281
     0
  0
CLASS
  1
AEC_DISP_REP_ROOFSLAB_PLAN
  2
AecDbDispRepRoofSlabPlan
  3
AecArchBase60
 90
      129
 91
        6
280
     0
281
     0
  0
CLASS
  1
AEC_DISP_PROPS_ROOFSLAB_PLAN
  2
AecDbDispPropsRoofSlabPlan
  3
AecArchBase60
 90
      129
 91
        4
280
     0
281
     0
  0
CLASS
  1
AEC_AECDBDISPREPROOFSLABPLAN100
  2
AecDbDispRepRoofSlabPlan100
  3
AecBase60
 90
      129
 91
        4
280
     0
281
     0
  0
CLASS
  1
AEC_AECDBDISPREPROOFSLABPLAN50
  2
AecDbDispRepRoofSlabPlan50
  3
AecBase60
 90
      129
 91
        4
280
     0
281
     0
  0
CLASS
  1
AEC_DISP_REP_SLAB_MODEL
  2
AecDbDispRepSlabModel
  3
AecArchBase60
 90
      129
 91
        5
280
     0
281
     0
  0
CLASS
  1
AEC_DISP_PROPS_SLAB
  2
AecDbDispPropsSlab
  3
AecArchBase60
 90
      129
 91
        6
280
     0
281
     0
  0
CLASS
  1
AEC_DISP_REP_SLAB_PLAN
  2
AecDbDispRepSlabPlan
  3
AecArchBase60
 90
      129
 91
        7
280
     0
281
     0
  0
CLASS
  1
AEC_DISP_PROPS_SLAB_PLAN
  2
AecDbDispPropsSlabPlan
  3
AecArchBase60
 90
      129
 91
        5
280
     0
281
     0
  0
CLASS
  1
AEC_AECDBDISPREPSLABPLAN100
  2
AecDbDispRepSlabPlan100
  3
AecBase60
 90
      129
 91
        4
280
     0
281
     0
  0
CLASS
  1
AEC_AECDBDISPREPSLABPLAN50
  2
AecDbDispRepSlabPlan50
  3
AecBase60
 90
      129
 91
        4
280
     0
281
     0
  0
CLASS
  1
AEC_DISP_REP_SPACE_MODEL
  2
AecDbDispRepSpaceModel
  3
AecArchBase60
 90
      129
 91
        4
280
     0
281
     0
  0
CLASS
  1
AEC_DISP_PROPS_SPACE_MODEL
  2
AecDbDispPropsSpaceModel
  3
AecArchBase60
 90
      129
 91
        4
280
     0
281
     0
  0
CLASS
  1
AEC_DISP_REP_SPACE_PLAN
  2
AecDbDispRepSpacePlan
  3
AecArchBase60
 90
      129
 91
        7
280
     0
281
     0
  0
CLASS
  1
AEC_DISP_PROPS_SPACE_PLAN
  2
AecDbDispPropsSpacePlan
  3
AecArchBase60
 90
      129
 91
        4
280
     0
281
     0
  0
CLASS
  1
AEC_DISP_REP_SPACE_RCP
  2
AecDbDispRepSpaceRcp
  3
AecArchBase60
 90
      129
 91
        4
280
     0
281
     0
  0
CLASS
  1
AEC_DISP_REP_SPACE_VOLUME
  2
AecDbDispRepSpaceVolume
  3
AecArchBase60
 90
      129
 91
        4
280
     0
281
     0
  0
CLASS
  1
AEC_DISP_REP_SPACE_DECOMPOSED
  2
AecDbDispRepSpaceDecomposed
  3
AecArchBase60
 90
      129
 91
        4
280
     0
281
     0
  0
CLASS
  1
AEC_DISP_PROPS_SPACE_DECOMPOSED
  2
AecDbDispPropsSpaceDecomposed
  3
AecArchBase60
 90
      129
 91
        4
280
     0
281
     0
  0
CLASS
  1
AEC_AECDBDISPREPSPACEPLAN100
  2
AecDbDispRepSpacePlan100
  3
AecBase60
 90
      129
 91
        4
280
     0
281
     0
  0
CLASS
  1
AEC_AECDBDISPREPSPACEPLAN50
  2
AecDbDispRepSpacePlan50
  3
AecBase60
 90
      129
 91
        4
280
     0
281
     0
  0
CLASS
  1
AEC_DISP_REP_STAIR_MODEL
  2
AecDbDispRepStairModel
  3
AecArchBase60
 90
      129
 91
        4
280
     0
281
     0
  0
CLASS
  1
AEC_DISP_PROPS_STAIR_MODEL
  2
AecDbDispPropsStairModel
  3
AecArchBase60
 90
      129
 91
        4
280
     0
281
     0
  0
CLASS
  1
AEC_DISP_REP_STAIR_PLAN
  2
AecDbDispRepStairPlan
  3
AecArchBase60
 90
      129
 91
        7
280
     0
281
     0
  0
CLASS
  1
AEC_DISP_PROPS_STAIR_PLAN
  2
AecDbDispPropsStairPlan
  3
AecArchBase60
 90
      129
 91
        6
280
     0
281
     0
  0
CLASS
  1
AEC_DISP_REP_STAIR_RCP
  2
AecDbDispRepStairRcp
  3
AecArchBase60
 90
      129
 91
        4
280
     0
281
     0
  0
CLASS
  1
AEC_DISP_REP_STAIR_PLAN_100
  2
AecDbDispRepStairPlan100
  3
AecArchDACHBase60
 90
      129
 91
        4
280
     0
281
     0
  0
CLASS
  1
AEC_DISP_ROPS_STAIR_PLAN_100
  2
AecDbDispPropsStairPlan100
  3
AecArchDACHBase60
 90
      129
 91
        4
280
     0
281
     0
  0
CLASS
  1
AEC_DISP_REP_STAIR_PLAN_50
  2
AecDbDispRepStairPlan50
  3
AecArchDACHBase60
 90
      129
 91
        4
280
     0
281
     0
  0
CLASS
  1
AEC_DISP_ROPS_STAIR_PLAN_50
  2
AecDbDispPropsStairPlan50
  3
AecArchDACHBase60
 90
      129
 91
        4
280
     0
281
     0
  0
CLASS
  1
AEC_DISP_REP_STAIR_PLAN_OVERLAPPING
  2
AecDbDispRepStairPlanOverlapping
  3
AecArchBase60
 90
      129
 91
        4
280
     0
281
     0
  0
CLASS
  1
AEC_DISP_PROPS_STAIR_PLAN_OVERLAPPING
  2
AecDbDispPropsStairPlanOverlapping
  3
AecArchBase60
 90
      129
 91
        4
280
     0
281
     0
  0
CLASS
  1
AEC_DISP_REP_WALL_GRAPH
  2
AecDbDispRepWallGraph
  3
AecArchBase60
 90
      129
 91
        4
280
     0
281
     0
  0
CLASS
  1
AEC_DISP_PROPS_WALL_GRAPH
  2
AecDbDispPropsWallGraph
  3
AecArchBase60
 90
      129
 91
        4
280
     0
281
     0
  0
CLASS
  1
AEC_DISP_REP_WALL_MODEL
  2
AecDbDispRepWallModel
  3
AecArchBase60
 90
      129
 91
        4
280
     0
281
     0
  0
CLASS
  1
AEC_DISP_PROPS_WALL_MODEL
  2
AecDbDispPropsWallModel
  3
AecArchBase60
 90
      129
 91
        4
280
     0
281
     0
  0
CLASS
  1
AEC_DISP_REP_WALL_PLAN
  2
AecDbDispRepWallPlan
  3
AecArchBase60
 90
      129
 91
        7
280
     0
281
     0
  0
CLASS
  1
AEC_DISP_PROPS_WALL_PLAN
  2
AecDbDispPropsWallPlan
  3
AecArchBase60
 90
      129
 91
        4
280
     0
281
     0
  0
CLASS
  1
AEC_DISP_REP_WALL_RCP
  2
AecDbDispRepWallRcp
  3
AecArchBase60
 90
      129
 91
        4
280
     0
281
     0
  0
CLASS
  1
AEC_DISP_REP_WALL_SCHEM
  2
AecDbDispRepWallSchem
  3
AecArchBase60
 90
      129
 91
        4
280
     0
281
     0
  0
CLASS
  1
AEC_DISP_PROPS_WALL_SCHEM
  2
AecDbDispPropsWallSchem
  3
AecArchBase60
 90
      129
 91
        4
280
     0
281
     0
  0
CLASS
  1
AEC_AECDBDISPREPWALLPLAN100
  2
AecDbDispRepWallPlan100
  3
AecBase60
 90
      129
 91
        4
280
     0
281
     0
  0
CLASS
  1
AEC_AECDBDISPREPWALLPLAN50
  2
AecDbDispRepWallPlan50
  3
AecBase60
 90
      129
 91
        4
280
     0
281
     0
  0
CLASS
  1
AEC_DISP_REP_WINDOW_MODEL
  2
AecDbDispRepWindowModel
  3
AecArchBase60
 90
      129
 91
        5
280
     0
281
     0
  0
CLASS
  1
AEC_DISP_PROPS_WINDOW
  2
AecDbDispPropsWindow
  3
AecArchBase60
 90
      129
 91
        6
280
     0
281
     0
  0
CLASS
  1
AEC_DISP_REP_WINDOW_ELEV
  2
AecDbDispRepWindowElev
  3
AecArchBase60
 90
      129
 91
        4
280
     0
281
     0
  0
CLASS
  1
AEC_DISP_REP_WINDOW_PLAN
  2
AecDbDispRepWindowPlan
  3
AecArchBase60
 90
      129
 91
        8
280
     0
281
     0
  0
CLASS
  1
AEC_DISP_REP_WINDOW_NOMINAL
  2
AecDbDispRepWindowNominal
  3
AecArchBase60
 90
      129
 91
        4
280
     0
281
     0
  0
CLASS
  1
AEC_DISP_PROPS_WINDOW_NOMINAL
  2
AecDbDispPropsWindowNominal
  3
AecArchBase60
 90
      129
 91
        4
280
     0
281
     0
  0
CLASS
  1
AEC_DISP_REP_WINDOW_RCP
  2
AecDbDispRepWindowRcp
  3
AecArchBase60
 90
      129
 91
        4
280
     0
281
     0
  0
CLASS
  1
AEC_DISP_REP_WINDOW_SILL_PLAN
  2
AecDbDispRepWindowSillPlan
  3
AecArchBase60
 90
      129
 91
        4
280
     0
281
     0
  0
CLASS
  1
AEC_DISP_PROPS_WINDOW_SILL_PLAN
  2
AecDbDispPropsWindowSillPlan
  3
AecArchBase60
 90
      129
 91
        4
280
     0
281
     0
  0
CLASS
  1
AEC_DISP_REP_WINDOW_PLAN_100
  2
AecDbDispRepWindowPlan100
  3
AecArchDACHBase60
 90
      129
 91
        4
280
     0
281
     0
  0
CLASS
  1
AEC_DISP_PROPS_WINDOW_PLAN_100
  2
AecDbDispPropsWindowPlan100
  3
AecArchDACHBase60
 90
      129
 91
        4
280
     0
281
     0
  0
CLASS
  1
AEC_DISP_REP_WINDOW_PLAN_50
  2
AecDbDispRepWindowPlan50
  3
AecArchDACHBase60
 90
      129
 91
        4
280
     0
281
     0
  0
CLASS
  1
AEC_DISP_PROPS_WINDOW_PLAN_50
  2
AecDbDispPropsWindowPlan50
  3
AecArchDACHBase60
 90
      129
 91
        4
280
     0
281
     0
  0
CLASS
  1
AEC_DISP_REP_WINDOW_ASSEMBLY_MODEL
  2
AecDbDispRepWindowAssemblyModel
  3
AecArchBase60
 90
      129
 91
        4
280
     0
281
     0
  0
CLASS
  1
AEC_DISP_REP_WINDOW_ASSEMBLY_PLAN
  2
AecDbDispRepWindowAssemblyPlan
  3
AecArchBase60
 90
      129
 91
        6
280
     0
281
     0
  0
CLASS
  1
AEC_DISP_REP_WINDOWASSEMBLY_SILL_PLAN
  2
AecDbDispRepWindowAssemblySillPlan
  3
AecArchBase60
 90
      129
 91
        4
280
     0
281
     0
  0
CLASS
  1
AEC_DISP_PROPS_WINDOW_ASSEMBLY_SILL_PLAN
  2
AecDbDispPropsWindowAssemblySillPlan
  3
AecArchBase60
 90
      129
 91
        4
280
     0
281
     0
  0
CLASS
  1
AEC_AECDBDISPREPWINDOWASSEMBLYPLAN100
  2
AecDbDispRepWindowAssemblyPlan100
  3
AecBase60
 90
      129
 91
        4
280
     0
281
     0
  0
CLASS
  1
AEC_AECDBDISPREPWINDOWASSEMBLYPLAN50
  2
AecDbDispRepWindowAssemblyPlan50
  3
AecBase60
 90
      129
 91
        4
280
     0
281
     0
  0
CLASS
  1
AEC_DB_DISP_REP_DIM_GROUP_PLAN
  2
AecDbDispRepDimGroupPlan
  3
AecArchDACHBase60
 90
      129
 91
        4
280
     0
281
     0
  0
CLASS
  1
AEC_DISP_PROPS_DIM
  2
AecDbDispPropsDimGroup
  3
AecArchDACHBase60
 90
      129
 91
        4
280
     0
281
     0
  0
CLASS
  1
AEC_DB_DISP_REP_DIM_GROUP_PLAN100
  2
AecDbDispRepDimGroupPlan100
  3
AecArchDACHBase60
 90
      129
 91
        4
280
     0
281
     0
  0
CLASS
  1
AEC_DB_DISP_REP_DIM_GROUP_PLAN50
  2
AecDbDispRepDimGroupPlan50
  3
AecArchDACHBase60
 90
      129
 91
        4
280
     0
281
     0
  0
CLASS
  1
AEC_DISP_REP_SCHEDULE_TABLE
  2
AecDbDispRepScheduleTable
  3
AecSchedule50
 90
      129
 91
        4
280
     0
281
     0
  0
CLASS
  1
AEC_DISP_PROPS_SCHEDULE_TABLE
  2
AecDbDispPropsScheduleTable
  3
AecSchedule50
 90
      129
 91
        4
280
     0
281
     0
  0
CLASS
  1
AEC_DISP_REP_ANCHOR_TAG_TO_ENT
  2
AecDbDispRepAnchorTagToEnt
  3
AecScheduleData60
 90
      129
 91
        5
280
     0
281
     0
  0
CLASS
  1
AEC_DISP_REP_ANCHOR_EXT_TAG_TO_ENT
  2
AecDbDispRepAnchorExtendedTagToEnt
  3
AecScheduleData60
 90
      129
 91
        4
280
     0
281
     0
  0
CLASS
  1
AEC_DISP_REP_SET
  2
AecDbDispRepSet
  3
AecBase60
 90
      129
 91
        4
280
     0
281
     0
  0
CLASS
  1
AECS_DISP_REP_MEMBER_MODEL_DESIGN
  2
AecsDbDispRepMemberModelDesign
  3
AecStructureBase60
 90
      129
 91
        4
280
     0
281
     0
  0
CLASS
  1
AECS_DISP_PROPS_MEMBER
  2
AecsDbDispPropsMember
  3
AecStructureBase60
 90
      129
 91
        6
280
     0
281
     0
  0
CLASS
  1
AECS_DISP_REP_MEMBER_PLAN_DESIGN
  2
AecsDbDispRepMemberPlanDesign
  3
AecStructureBase60
 90
      129
 91
        4
280
     0
281
     0
  0
CLASS
  1
AECS_DISP_PROPS_MEMBER_PLAN
  2
AecsDbDispPropsMemberPlan
  3
AecStructureBase60
 90
      129
 91
        5
280
     0
281
     0
  0
CLASS
  1
AEC_DISP_REP_CONFIG
  2
AecDbDispRepConfig
  3
AecBase60
 90
      129
 91
        4
280
     0
281
     0
  0
CLASS
  1
MLEADERSTYLE
  2
AcDbMLeaderStyle
  3
ACDB_MLEADERSTYLE_CLASS
 90
     4095
 91
        4
280
     0
281
     0
  0
CLASS
  1
AEC_WALL_STYLE
  2
AecDbWallStyle
  3
AecArchBase60
 90
      129
 91
        4
280
     0
281
     0
  0
CLASS
  1
AEC_CLEANUP_GROUP_DEF
  2
AecDbCleanupGroupDef
  3
AecArchBase60
 90
      129
 91
        4
280
     0
281
     0
  0
CLASS
  1
AEC_ENDCAP_STYLE
  2
AecDbEndcapStyle
  3
AecArchBase60
 90
      129
 91
        4
280
     0
281
     0
  0
CLASS
  1
AEC_FRAME_DEF
  2
AecDbOpeningEndcapStyle
  3
AecArchBase60
 90
      129
 91
        4
280
     0
281
     0
  0
CLASS
  1
AEC_MATERIAL_DEF
  2
AecDbMaterialDef
  3
AecBase60
 90
      129
 91
        4
280
     0
281
     0
  0
CLASS
  1
TABLESTYLE
  2
AcDbTableStyle
  3
ObjectDBX Classes
 90
     4095
 91
        4
280
     0
281
     0
  0
CLASS
  1
TCOPTIONALDATA
  2
TcOptionalData
  3
ExTcadCustObjs|Description: TurboCAD extension data object
 90
     4095
 91
        4
280
     0
281
     0
  0
CLASS
  1
SCALE
  2
AcDbScale
  3
ObjectDBX Classes
 90
     1153
 91
        4
280
     0
281
     0
  0
CLASS
  1
DICTIONARYVAR
  2
AcDbDictionaryVar
  3
ObjectDBX Classes
 90
        0
 91
        4
280
     0
281
     0
  0
CLASS
  1
CELLSTYLEMAP
  2
AcDbCellStyleMap
  3
ObjectDBX Classes
 90
     1152
 91
        4
280
     0
281
     0
  0
ENDSEC
  0
SECTION
  2
TABLES
  0
TABLE
  2
VPORT
  5
8
330
0
100
AcDbSymbolTable
 70
     1
  0
VPORT
  5
29
330
8
100
AcDbSymbolTableRecord
100
AcDbViewportTableRecord
  2
*Active
 70
     0
 10
0.0
 20
0.0
 11
1.0
 21
1.0
 12
0.0
 22
0.0
 13
0.0
 23
0.0
 14
50.0
 24
50.0
 15
50.0
 25
50.0
 16
0.0
 26
0.0
 36
1.0
 17
775.5321847348068
 27
32.27101149211921
 37
2.10405147075653
 40
1561.58781715954
 41
2.129587155963303
 42
50.0
 43
0.0
 44
0.0
 50
0.0
 51
0.0
 71
     0
 72
   100
 73
     1
 74
     3
 75
     0
 76
     1
 77
     0
 78
     0
281
     0
 65
     1
110
0.0
120
0.0
130
0.0
111
1.0
121
0.0
131
0.0
112
0.0
122
1.0
132
0.0
 79
     0
146
0.0
 60
     3
 61
     5
292
     1
282
     1
141
0.0
142
0.0
 63
   250
  0
ENDTAB
  0
TABLE
  2
LTYPE
  5
5
330
0
100
AcDbSymbolTable
 70
    14
  0
LTYPE
  5
14
330
5
100
AcDbSymbolTableRecord
100
AcDbLinetypeTableRecord
  2
ByBlock
 70
     0
  3

 72
    65
 73
     0
 40
0.0
  0
LTYPE
  5
15
330
5
100
AcDbSymbolTableRecord
100
AcDbLinetypeTableRecord
  2
ByLayer
 70
     0
  3

 72
    65
 73
     0
 40
0.0
  0
LTYPE
  5
16
330
5
100
AcDbSymbolTableRecord
100
AcDbLinetypeTableRecord
  2
Continuous
 70
     0
  3
Solid line
 72
    65
 73
     0
 40
0.0
  0
LTYPE
  5
14F
330
5
100
AcDbSymbolTableRecord
100
AcDbLinetypeTableRecord
  2
BORDER
 70
     0
  3
BORDER
 72
    65
 73
     6
 40
1.75
 49
0.5
 74
     0
 49
-0.25
 74
     0
 49
0.5
 74
     0
 49
-0.25
 74
     0
 49
0.0
 74
     0
 49
-0.25
 74
     0
  0
LTYPE
  5
150
330
5
100
AcDbSymbolTableRecord
100
AcDbLinetypeTableRecord
  2
CENTER
 70
     0
  3
CENTER
 72
    65
 73
     4
 40
2.0
 49
1.25
 74
     0
 49
-0.25
 74
     0
 49
0.25
 74
     0
 49
-0.25
 74
     0
  0
LTYPE
  5
151
330
5
100
AcDbSymbolTableRecord
100
AcDbLinetypeTableRecord
  2
DASHDOT
 70
     0
  3
DASHDOT
 72
    65
 73
     4
 40
1.0
 49
0.5
 74
     0
 49
-0.25
 74
     0
 49
0.0
 74
     0
 49
-0.25
 74
     0
  0
LTYPE
  5
152
330
5
100
AcDbSymbolTableRecord
100
AcDbLinetypeTableRecord
  2
DASHED
 70
     0
  3
DASHED
 72
    65
 73
     2
 40
0.75
 49
0.5
 74
     0
 49
-0.25
 74
     0
  0
LTYPE
  5
153
330
5
100
AcDbSymbolTableRecord
100
AcDbLinetypeTableRecord
  2
DIVIDE
 70
     0
  3
DIVIDE
 72
    65
 73
     6
 40
1.25
 49
0.5
 74
     0
 49
-0.25
 74
     0
 49
0.0
 74
     0
 49
-0.25
 74
     0
 49
0.0
 74
     0
 49
-0.25
 74
     0
  0
LTYPE
  5
154
330
5
100
AcDbSymbolTableRecord
100
AcDbLinetypeTableRecord
  2
DOT
 70
     0
  3
DOT
 72
    65
 73
     2
 40
0.25
 49
0.0
 74
     0
 49
-0.25
 74
     0
  0
LTYPE
  5
155
330
5
100
AcDbSymbolTableRecord
100
AcDbLinetypeTableRecord
  2
HIDDEN
 70
     0
  3
HIDDEN
 72
    65
 73
     2
 40
0.375
 49
0.25
 74
     0
 49
-0.125
 74
     0
  0
LTYPE
  5
156
330
5
100
AcDbSymbolTableRecord
100
AcDbLinetypeTableRecord
  2
PHANTOM
 70
     0
  3
PHANTOM
 72
    65
 73
     6
 40
2.5
 49
1.25
 74
     0
 49
-0.25
 74
     0
 49
0.25
 74
     0
 49
-0.25
 74
     0
 49
0.25
 74
     0
 49
-0.25
 74
     0
  0
LTYPE
  5
157
330
5
100
AcDbSymbolTableRecord
100
AcDbLinetypeTableRecord
  2
$INVISIBLE
 70
     0
  3
$INVISIBLE
 72
    65
 73
     2
 40
200.0
 49
-100.0
 74
     0
 49
-100.0
 74
     0
  0
LTYPE
  5
158
330
5
100
AcDbSymbolTableRecord
100
AcDbLinetypeTableRecord
  2
$MARGINS
 70
     0
  3
$MARGINS
 72
    65
 73
     2
 40
0.075
 49
0.05
 74
     0
 49
-0.025
 74
     0
  0
LTYPE
  5
159
330
5
100
AcDbSymbolTableRecord
100
AcDbLinetypeTableRecord
  2
$AUXILIARY
 70
     0
  3
$AUXILIARY
 72
    65
 73
     2
 40
0.1000000014901161
 49
0.0500000007450581
 74
     0
 49
-0.0500000007450581
 74
     0
  0
LTYPE
  5
15A
330
5
100
AcDbSymbolTableRecord
100
AcDbLinetypeTableRecord
  2
$CONSTRUCTION
 70
     0
  3
$CONSTRUCTION
 72
    65
 73
     4
 40
0.3
 49
0.2
 74
     0
 49
-0.05
 74
     0
 49
0.0
 74
     0
 49
-0.05
 74
     0
  0
LTYPE
  5
15B
330
5
100
AcDbSymbolTableRecord
100
AcDbLinetypeTableRecord
  2
$SNAPEXT
 70
     0
  3
$SNAPEXT
 72
    65
 73
     2
 40
0.04
 49
0.02
 74
     0
 49
-0.02
 74
     0
  0
ENDTAB
  0
TABLE
  2
LAYER
  5
2
330
0
100
AcDbSymbolTable
 70
     5
  0
LAYER
  5
10
330
2
100
AcDbSymbolTableRecord
100
AcDbLayerTableRecord
  2
0
 70
     0
 62
    18
420
        0
  6
Continuous
370
     0
390
F
347
3E
  0
LAYER
  5
15C
330
2
100
AcDbSymbolTableRecord
100
AcDbLayerTableRecord
  2
$CONSTRUCTION
 70
     0
 62
   254
420
 12572888
  6
$CONSTRUCTION
370
     0
390
F
347
3E
  0
LAYER
  5
15D
330
2
100
AcDbSymbolTableRecord
100
AcDbLayerTableRecord
  2
LAYER_0
 70
     0
 62
    18
420
        0
  6
Continuous
370
     0
390
F
347
3E
  0
LAYER
  5
15E
330
2
100
AcDbSymbolTableRecord
100
AcDbLayerTableRecord
  2
LAYER_100
 70
     0
 62
    18
420
        0
  6
Continuous
370
     0
390
F
347
3E
  0
LAYER
  5
25E
330
2
100
AcDbSymbolTableRecord
100
AcDbLayerTableRecord
  2
Defpoints
 70
     0
 62
     7
  6
Continuous
290
     0
370
    -3
390
F
347
3E
  0
ENDTAB
  0
TABLE
  2
STYLE
  5
3
330
0
100
AcDbSymbolTable
 70
     9
  0
STYLE
  5
11
330
3
100
AcDbSymbolTableRecord
100
AcDbTextStyleTableRecord
  2
Standard
 70
     0
 40
0.0
 41
1.0
 50
0.0
 71
     0
 42
0.1500000059604645
  3
times.ttf
  4

1001
ACAD
1000
Times New Roman
1071
      290
  0
STYLE
  5
162
330
3
100
AcDbSymbolTableRecord
100
AcDbTextStyleTableRecord
  2
Text Style 1
 70
     0
 40
0.0
 41
1.0
 50
0.0
 71
     0
 42
0.1500000059604645
  3

  4

1001
ACAD
1000
Times New Roman
1071
      290
  0
STYLE
  5
1AC
330
3
100
AcDbSymbolTableRecord
100
AcDbTextStyleTableRecord
  2
_TCW_TXTSTY_1
 70
     0
 40
15.33333396911621
 41
1.0
 50
0.0
 71
     0
 42
15.33333396911621
  3
arial.ttf
  4

1001
ACAD
1000
Arial
1071
       34
  0
STYLE
  5
243
330
3
100
AcDbSymbolTableRecord
100
AcDbTextStyleTableRecord
  2
_TCW_TXTSTY_2
 70
     0
 40
15.33333396911621
 41
1.0
 50
0.0
 71
     0
 42
15.33333396911621
  3

  4

1001
ACAD
1000
Arial
1071
       34
  0
STYLE
  5
247
330
3
100
AcDbSymbolTableRecord
100
AcDbTextStyleTableRecord
  2
_TCW_TXTSTY_3
 70
     0
 40
18.2957706451416
 41
1.0
 50
0.0
 71
     0
 42
18.2957706451416
  3

  4

1001
ACAD
1000
Arial
1071
       34
  0
STYLE
  5
30D
330
3
100
AcDbSymbolTableRecord
100
AcDbTextStyleTableRecord
  2
_TCW_TXTSTY_4
 70
     0
 40
23.0
 41
1.0
 50
0.0
 71
     0
 42
23.0
  3

  4

1001
ACAD
1000
Arial
1071
 33554466
  0
STYLE
  5
311
330
3
100
AcDbSymbolTableRecord
100
AcDbTextStyleTableRecord
  2
_TCW_TXTSTY_5
 70
     0
 40
19.16666603088379
 41
1.0
 50
0.0
 71
     0
 42
19.16666603088379
  3

  4

1001
ACAD
1000
Arial
1071
       34
  0
STYLE
  5
315
330
3
100
AcDbSymbolTableRecord
100
AcDbTextStyleTableRecord
  2
_TCW_TXTSTY_6
 70
     0
 40
19.16666603088379
 41
1.09
 50
0.0
 71
     0
 42
19.16666603088379
  3

  4

1001
ACAD
1000
Arial
1071
       34
  0
STYLE
  5
322
330
3
100
AcDbSymbolTableRecord
100
AcDbTextStyleTableRecord
  2
_TCW_TXTSTY_7
 70
     0
 40
26.83333396911621
 41
1.0
 50
0.0
 71
     0
 42
26.83333396911621
  3

  4

1001
ACAD
1000
Arial
1071
       34
  0
ENDTAB
  0
TABLE
  2
VIEW
  5
6
330
0
100
AcDbSymbolTable
 70
     3
  0
VIEW
  5
15F
330
6
100
AcDbSymbolTableRecord
100
AcDbViewTableRecord
  2
View_0
 70
     0
 40
816.0
 10
504.0
 20
384.0
 41
1056.0
 11
0.0
 21
0.0
 31
1.0
 12
0.0
 22
0.0
 32
0.0
 42
50.0
 43
0.0
 44
0.0
 50
0.0
 71
     0
281
     0
 72
     0
 73
     0
  0
VIEW
  5
160
330
6
100
AcDbSymbolTableRecord
100
AcDbViewTableRecord
  2
Margin width bottom
 70
     0
 40
5.712264649569988
 10
5.251354204490781
 20
2.814647857099771
 41
10.58552744612098
 11
0.0
 21
0.0
 31
1.0
 12
0.0
 22
0.0
 32
0.0
 42
50.0
 43
0.0
 44
0.0
 50
0.0
 71
     0
281
     0
 72
     0
 73
     0
  0
VIEW
  5
161
330
6
100
AcDbSymbolTableRecord
100
AcDbViewTableRecord
  2
Margin width top
 70
     0
 40
5.711362838745117
 10
5.248193185776472
 20
5.180384635925293
 41
10.58281818777323
 11
0.0
 21
0.0
 31
1.0
 12
0.0
 22
0.0
 32
0.0
 42
50.0
 43
0.0
 44
0.0
 50
0.0
 71
     0
281
     0
 72
     0
 73
     0
  0
ENDTAB
  0
TABLE
  2
UCS
  5
7
330
0
100
AcDbSymbolTable
 70
     0
  0
ENDTAB
  0
TABLE
  2
APPID
  5
9
330
0
100
AcDbSymbolTable
 70
     6
  0
APPID
  5
12
330
9
100
AcDbSymbolTableRecord
100
AcDbRegAppTableRecord
  2
ACAD
 70
     0
  0
APPID
  5
3F
330
9
100
AcDbSymbolTableRecord
100
AcDbRegAppTableRecord
  2
TCAD
 70
     0
  0
APPID
  5
40
330
9
100
AcDbSymbolTableRecord
100
AcDbRegAppTableRecord
  2
AECBASE
 70
     0
  0
APPID
  5
41
330
9
100
AcDbSymbolTableRecord
100
AcDbRegAppTableRecord
  2
AEC_2DSECTION_XDATA
 70
     0
  0
APPID
  5
42
330
9
100
AcDbSymbolTableRecord
100
AcDbRegAppTableRecord
  2
AEC_MASSGROUP_XDADA
 70
     0
  0
APPID
  5
166
330
9
100
AcDbSymbolTableRecord
100
AcDbRegAppTableRecord
  2
ACAD_MLEADERVER
 70
     0
  0
ENDTAB
  0
TABLE
  2
DIMSTYLE
  5
A
330
0
100
AcDbSymbolTable
 70
     1
100
AcDbDimStyleTable
  0
DIMSTYLE
105
27
102
{ACAD_REACTORS
330
25D
330
26D
330
27C
330
28B
330
29A
330
2AA
330
2BA
330
2F0
330
300
102
}
330
A
100
AcDbSymbolTableRecord
100
AcDbDimStyleTableRecord
  2
Standard
 70
     0
  3
 "
  4
 "
 41
0.25
 43
0.375
 44
0.125
 45
0.01
 74
     0
 77
     1
 78
     1
140
0.15
141
0.0
143
1.0
147
0.0625
148
0.01
172
     1
179
     2
271
     2
272
     3
276
     2
278
     0
340
11
345
14
346
14
347
14
  0
ENDTAB
  0
TABLE
  2
BLOCK_RECORD
  5
1
330
0
100
AcDbSymbolTable
 70
    12
  0
BLOCK_RECORD
  5
1F
330
1
100
AcDbSymbolTableRecord
100
AcDbBlockTableRecord
  2
*Model_Space
340
22
 70
     0
280
     1
281
     0
  0
BLOCK_RECORD
  5
1B
330
1
100
AcDbSymbolTableRecord
100
AcDbBlockTableRecord
  2
*Paper_Space
340
1E
 70
     0
280
     1
281
     0
  0
BLOCK_RECORD
  5
259
330
1
100
AcDbSymbolTableRecord
100
AcDbBlockTableRecord
  2
TC_DIMARROW_FILLED30
340
0
102
{BLKREFS
331
263
331
264
331
272
331
273
331
281
331
282
331
290
331
291
331
2A0
331
2A1
331
2B0
331
2B1
331
2C0
331
2C1
331
2F6
331
2F7
331
305
331
306
102
}
 70
     0
280
     1
281
     0
  0
BLOCK_RECORD
  5
25F
330
1
100
AcDbSymbolTableRecord
100
AcDbBlockTableRecord
  2
*D3
340
0
 70
     0
280
     1
281
     0
  0
BLOCK_RECORD
  5
26E
330
1
100
AcDbSymbolTableRecord
100
AcDbBlockTableRecord
  2
*D4
340
0
 70
     0
280
     1
281
     0
  0
BLOCK_RECORD
  5
27D
330
1
100
AcDbSymbolTableRecord
100
AcDbBlockTableRecord
  2
*D5
340
0
 70
     0
280
     1
281
     0
  0
BLOCK_RECORD
  5
28C
330
1
100
AcDbSymbolTableRecord
100
AcDbBlockTableRecord
  2
*D6
340
0
 70
     0
280
     1
281
     0
  0
BLOCK_RECORD
  5
29B
330
1
100
AcDbSymbolTableRecord
100
AcDbBlockTableRecord
  2
*D7
340
0
 70
     0
280
     1
281
     0
  0
BLOCK_RECORD
  5
2AB
330
1
100
AcDbSymbolTableRecord
100
AcDbBlockTableRecord
  2
*D8
340
0
 70
     0
280
     1
281
     0
  0
BLOCK_RECORD
  5
2BB
330
1
100
AcDbSymbolTableRecord
100
AcDbBlockTableRecord
  2
*D9
340
0
 70
     0
280
     1
281
     0
  0
BLOCK_RECORD
  5
2F1
330
1
100
AcDbSymbolTableRecord
100
AcDbBlockTableRecord
  2
*D10
340
0
 70
     0
280
     1
281
     0
  0
BLOCK_RECORD
  5
301
330
1
100
AcDbSymbolTableRecord
100
AcDbBlockTableRecord
  2
*D11
340
0
 70
     0
280
     1
281
     0
  0
ENDTAB
  0
ENDSEC
  0
SECTION
  2
BLOCKS
  0
BLOCK
  5
20
330
1F
100
AcDbEntity
  8
0
100
AcDbBlockBegin
  2
*Model_Space
 70
     0
 10
0.0
 20
0.0
 30
0.0
  3
*Model_Space
  1

  0
ENDBLK
  5
21
330
1F
100
AcDbEntity
  8
0
100
AcDbBlockEnd
  0
BLOCK
  5
1C
330
1B
100
AcDbEntity
 67
     1
  8
0
100
AcDbBlockBegin
  2
*Paper_Space
 70
     0
 10
0.0
 20
0.0
 30
0.0
  3
*Paper_Space
  1

  0
ENDBLK
  5
1D
330
1B
100
AcDbEntity
 67
     1
  8
0
100
AcDbBlockEnd
  0
BLOCK
  5
25B
330
259
100
AcDbEntity
  8
0
100
AcDbBlockBegin
  2
TC_DIMARROW_FILLED30
 70
     0
 10
0.0
 20
0.0
 30
0.0
  3
TC_DIMARROW_FILLED30
  1

  0
SOLID
  5
25A
330
259
100
AcDbEntity
  8
0
  6
ByBlock
 62
     0
100
AcDbTrace
 10
0.0
 20
0.0
 30
0.0
 11
-1.0
 21
0.267949
 31
0.0
 12
-1.0
 22
-0.267949
 32
0.0
 13
-1.0
 23
-0.267949
 33
0.0
  0
ENDBLK
  5
25C
330
259
100
AcDbEntity
  8
0
100
AcDbBlockEnd
  0
BLOCK
  5
269
330
25F
100
AcDbEntity
  8
0
100
AcDbBlockBegin
  2
*D3
 70
     1
 10
0.0
 20
0.0
 30
0.0
  3
*D3
  1

  0
LINE
  5
260
330
25F
100
AcDbEntity
  8
0
  6
ByBlock
 62
     7
370
    -2
100
AcDbLine
 10
350.8859563632341
 20
1393.978273802844
 30
0.0
 11
350.8859563632341
 21
1402.347977897052
 31
0.0
  0
LINE
  5
261
330
25F
100
AcDbEntity
  8
0
  6
ByBlock
 62
     7
370
    -2
100
AcDbLine
 10
919.8044536978306
 20
1393.978273802844
 30
0.0
 11
919.8044536978306
 21
1402.347977897052
 31
0.0
  0
LINE
  5
262
330
25F
100
AcDbEntity
  8
0
  6
ByBlock
 62
     7
370
    -2
100
AcDbLine
 10
362.8859563632341
 20
1390.347977897052
 30
0.0
 11
907.8044536978306
 21
1390.347977897052
 31
0.0
  0
INSERT
  5
263
330
25F
100
AcDbEntity
  8
0
 62
     7
370
    -2
100
AcDbBlockReference
  2
TC_DIMARROW_FILLED30
 10
350.8859563632341
 20
1390.347977897052
 30
0.0
 41
12.0
 42
12.0
 43
12.0
 50
180.0
  0
INSERT
  5
264
330
25F
100
AcDbEntity
  8
0
 62
     7
370
    -2
100
AcDbBlockReference
  2
TC_DIMARROW_FILLED30
 10
919.8044536978306
 20
1390.347977897052
 30
0.0
 41
12.0
 42
12.0
 43
12.0
  0
MTEXT
  5
265
330
25F
100
AcDbEntity
  8
0
 62
     7
370
     0
100
AcDbMText
 10
635.3452050305323
 20
1410.033246498988
 30
0.0
 40
26.83333333333334
 41
0.0
 46
0.0
 71
     5
 72
     1
  1
\A1;47'-4"
 73
     1
 44
1.0
  0
POINT
  5
266
330
25F
100
AcDbEntity
  8
Defpoints
 62
     0
100
AcDbPoint
 10
350.8859563632341
 20
1387.978273802844
 30
0.0
  0
POINT
  5
267
330
25F
100
AcDbEntity
  8
Defpoints
 62
     0
100
AcDbPoint
 10
919.8044536978306
 20
1387.978273802844
 30
0.0
  0
POINT
  5
268
330
25F
100
AcDbEntity
  8
Defpoints
 62
     0
100
AcDbPoint
 10
919.8044536978306
 20
1390.347977897052
 30
0.0
  0
ENDBLK
  5
26A
330
25F
100
AcDbEntity
  8
0
100
AcDbBlockEnd
  0
BLOCK
  5
278
330
26E
100
AcDbEntity
  8
0
100
AcDbBlockBegin
  2
*D4
 70
     1
 10
0.0
 20
0.0
 30
0.0
  3
*D4
  1

  0
LINE
  5
26F
330
26E
100
AcDbEntity
  8
0
  6
ByBlock
 62
     7
370
    -2
100
AcDbLine
 10
932.3119531250768
 20
1386.155588790306
 30
0.0
 11
932.3119531250768
 21
1380.155588790306
 31
0.0
  0
LINE
  5
270
330
26E
100
AcDbEntity
  8
0
  6
ByBlock
 62
     7
370
    -2
100
AcDbLine
 10
1500.699004393436
 20
1386.155588790306
 30
0.0
 11
1500.699004393436
 21
1380.155588790306
 31
0.0
  0
LINE
  5
271
330
26E
100
AcDbEntity
  8
0
  6
ByBlock
 62
     7
370
    -2
100
AcDbLine
 10
944.3119531250768
 20
1392.155588790306
 30
0.0
 11
1488.699004393436
 21
1392.155588790306
 31
0.0
  0
INSERT
  5
272
330
26E
100
AcDbEntity
  8
0
 62
     7
370
    -2
100
AcDbBlockReference
  2
TC_DIMARROW_FILLED30
 10
932.3119531250768
 20
1392.155588790306
 30
0.0
 41
12.0
 42
12.0
 43
12.0
 50
180.0
  0
INSERT
  5
273
330
26E
100
AcDbEntity
  8
0
 62
     7
370
    -2
100
AcDbBlockReference
  2
TC_DIMARROW_FILLED30
 10
1500.699004393436
 20
1392.155588790306
 30
0.0
 41
12.0
 42
12.0
 43
12.0
  0
MTEXT
  5
274
330
26E
100
AcDbEntity
  8
0
 62
     7
370
     0
100
AcDbMText
 10
1216.505478759256
 20
1411.840857392241
 30
0.0
 40
26.83333333333334
 41
0.0
 46
0.0
 71
     5
 72
     1
  1
\A1;47'-4"
 73
     1
 44
1.0
  0
POINT
  5
275
330
26E
100
AcDbEntity
  8
Defpoints
 62
     0
100
AcDbPoint
 10
932.3119531250768
 20
1392.155588790306
 30
0.0
  0
POINT
  5
276
330
26E
100
AcDbEntity
  8
Defpoints
 62
     0
100
AcDbPoint
 10
1500.699004393436
 20
1392.155588790306
 30
0.0
  0
POINT
  5
277
330
26E
100
AcDbEntity
  8
Defpoints
 62
     0
100
AcDbPoint
 10
1500.699004393436
 20
1392.155588790306
 30
0.0
  0
ENDBLK
  5
279
330
26E
100
AcDbEntity
  8
0
100
AcDbBlockEnd
  0
BLOCK
  5
287
330
27D
100
AcDbEntity
  8
0
100
AcDbBlockBegin
  2
*D5
 70
     1
 10
0.0
 20
0.0
 30
0.0
  3
*D5
  1

  0
LINE
  5
27E
330
27D
100
AcDbEntity
  8
0
  6
ByBlock
 62
     7
370
    -2
100
AcDbLine
 10
1511.359930364042
 20
1394.935236020158
 30
0.0
 11
1511.359930364041
 21
1404.251905240624
 31
0.0
  0
LINE
  5
27F
330
27D
100
AcDbEntity
  8
0
  6
ByBlock
 62
     7
370
    -2
100
AcDbLine
 10
2068.302374341557
 20
1394.935236020158
 30
0.0
 11
2068.302374341557
 21
1404.251905240624
 31
0.0
  0
LINE
  5
280
330
27D
100
AcDbEntity
  8
0
  6
ByBlock
 62
     7
370
    -2
100
AcDbLine
 10
1523.359930364042
 20
1392.251905240624
 30
0.0
 11
2056.302374341557
 21
1392.251905240624
 31
0.0
  0
INSERT
  5
281
330
27D
100
AcDbEntity
  8
0
 62
     7
370
    -2
100
AcDbBlockReference
  2
TC_DIMARROW_FILLED30
 10
1511.359930364042
 20
1392.251905240624
 30
0.0
 41
12.0
 42
12.0
 43
12.0
 50
180.0
  0
INSERT
  5
282
330
27D
100
AcDbEntity
  8
0
 62
     7
370
    -2
100
AcDbBlockReference
  2
TC_DIMARROW_FILLED30
 10
2068.302374341557
 20
1392.251905240624
 30
0.0
 41
12.0
 42
12.0
 43
12.0
  0
MTEXT
  5
283
330
27D
100
AcDbEntity
  8
0
 62
     7
370
     0
100
AcDbMText
 10
1789.831152352799
 20
1398.328181516901
 30
0.0
 40
0.15
 41
0.0
 46
0.0
 71
     5
 72
     1
  1
\A1;46'-4"
 73
     1
 44
1.0
  0
POINT
  5
284
330
27D
100
AcDbEntity
  8
Defpoints
 62
     0
100
AcDbPoint
 10
1511.359930364042
 20
1388.935236020158
 30
0.0
  0
POINT
  5
285
330
27D
100
AcDbEntity
  8
Defpoints
 62
     0
100
AcDbPoint
 10
2068.302374341557
 20
1388.935236020158
 30
0.0
  0
POINT
  5
286
330
27D
100
AcDbEntity
  8
Defpoints
 62
     0
100
AcDbPoint
 10
2068.302374341557
 20
1392.251905240624
 30
0.0
  0
ENDBLK
  5
288
330
27D
100
AcDbEntity
  8
0
100
AcDbBlockEnd
  0
BLOCK
  5
296
330
28C
100
AcDbEntity
  8
0
100
AcDbBlockBegin
  2
*D6
 70
     1
 10
0.0
 20
0.0
 30
0.0
  3
*D6
  1

  0
LINE
  5
28D
330
28C
100
AcDbEntity
  8
0
  6
ByBlock
 62
     7
370
    -2
100
AcDbLine
 10
339.8053088752978
 20
1394.762914616866
 30
0.0
 11
339.8053088752978
 21
1401.406446962224
 31
0.0
  0
LINE
  5
28E
330
28C
100
AcDbEntity
  8
0
  6
ByBlock
 62
     7
370
    -2
100
AcDbLine
 10
189.9927161670532
 20
1394.762914616866
 30
0.0
 11
189.9927161670532
 21
1401.406446962224
 31
0.0
  0
LINE
  5
28F
330
28C
100
AcDbEntity
  8
0
  6
ByBlock
 62
     7
370
    -2
100
AcDbLine
 10
327.8053088752978
 20
1389.406446962224
 30
0.0
 11
201.9927161670532
 21
1389.406446962224
 31
0.0
  0
INSERT
  5
290
330
28C
100
AcDbEntity
  8
0
 62
     7
370
    -2
100
AcDbBlockReference
  2
TC_DIMARROW_FILLED30
 10
339.8053088752978
 20
1389.406446962224
 30
0.0
 41
12.0
 42
12.0
 43
12.0
  0
INSERT
  5
291
330
28C
100
AcDbEntity
  8
0
 62
     7
370
    -2
100
AcDbBlockReference
  2
TC_DIMARROW_FILLED30
 10
189.9927161670532
 20
1389.406446962224
 30
0.0
 41
12.0
 42
12.0
 43
12.0
 50
180.0
  0
MTEXT
  5
292
330
28C
100
AcDbEntity
  8
0
 62
     7
370
     0
100
AcDbMText
 10
264.8990125211756
 20
1409.051425273869
 30
0.0
 40
26.83333333333334
 41
0.0
 46
0.0
 71
     5
 72
     1
  1
\A1;12'-6"
 73
     1
 44
1.0
  0
POINT
  5
293
330
28C
100
AcDbEntity
  8
Defpoints
 62
     0
100
AcDbPoint
 10
339.8053088752978
 20
1388.762914616866
 30
0.0
  0
POINT
  5
294
330
28C
100
AcDbEntity
  8
Defpoints
 62
     0
100
AcDbPoint
 10
189.9927161670532
 20
1388.762914616866
 30
0.0
  0
POINT
  5
295
330
28C
100
AcDbEntity
  8
Defpoints
 62
     0
100
AcDbPoint
 10
189.9927161670532
 20
1389.406446962224
 30
0.0
  0
ENDBLK
  5
297
330
28C
100
AcDbEntity
  8
0
100
AcDbBlockEnd
  0
BLOCK
  5
2A6
330
29B
100
AcDbEntity
  8
0
100
AcDbBlockBegin
  2
*D7
 70
     1
 10
0.0
 20
0.0
 30
0.0
  3
*D7
  1

  0
LINE
  5
29C
330
29B
100
AcDbEntity
  8
0
  6
ByBlock
 62
     7
370
    -2
100
AcDbLine
 10
933.2379838829163
 20
1395.862208194371
 30
0.0
 11
941.607688038815
 21
1395.862208194371
 31
0.0
  0
LINE
  5
29D
330
29B
100
AcDbEntity
  8
0
  6
ByBlock
 62
     7
370
    -2
100
AcDbLine
 10
934.0278853093434
 20
1830.581752465944
 30
0.0
 11
941.607688038815
 21
1830.581752465944
 31
0.0
  0
LINE
  5
29E
330
29B
100
AcDbEntity
  8
0
  6
ByBlock
 62
     7
370
    -2
100
AcDbLine
 10
929.607688038815
 20
1396.112208194371
 30
0.0
 11
929.607688038815
 21
1607.145704053881
 31
0.0
  0
LINE
  5
29F
330
29B
100
AcDbEntity
  8
0
  6
ByBlock
 62
     7
370
    -2
100
AcDbLine
 10
929.607688038815
 20
1830.331752465944
 30
0.0
 11
929.607688038815
 21
1619.298256606434
 31
0.0
  0
INSERT
  5
2A0
330
29B
100
AcDbEntity
  8
0
 62
     7
370
    -2
100
AcDbBlockReference
  2
TC_DIMARROW_FILLED30
 10
929.607688038815
 20
1395.862208194371
 30
0.0
 41
0.25
 42
0.25
 43
0.25
 50
270.0
  0
INSERT
  5
2A1
330
29B
100
AcDbEntity
  8
0
 62
     7
370
    -2
100
AcDbBlockReference
  2
TC_DIMARROW_FILLED30
 10
929.607688038815
 20
1830.581752465944
 30
0.0
 41
0.25
 42
0.25
 43
0.25
 50
90.0
  0
MTEXT
  5
2A2
330
29B
100
AcDbEntity
  8
0
 62
     7
370
     0
100
AcDbMText
 10
929.607688038815
 20
1613.221980330157
 30
0.0
 40
0.15
 41
0.0
 46
0.0
 71
     5
 72
     1
  1
\A1;36'-0"
 73
     1
 44
1.0
  0
POINT
  5
2A3
330
29B
100
AcDbEntity
  8
Defpoints
 62
     0
100
AcDbPoint
 10
927.2379838829163
 20
1395.862208194371
 30
0.0
  0
POINT
  5
2A4
330
29B
100
AcDbEntity
  8
Defpoints
 62
     0
100
AcDbPoint
 10
928.0278853093434
 20
1830.581752465944
 30
0.0
  0
POINT
  5
2A5
330
29B
100
AcDbEntity
  8
Defpoints
 62
     0
100
AcDbPoint
 10
929.607688038815
 20
1830.581752465944
 30
0.0
  0
ENDBLK
  5
2A7
330
29B
100
AcDbEntity
  8
0
100
AcDbBlockEnd
  0
BLOCK
  5
2B6
330
2AB
100
AcDbEntity
  8
0
100
AcDbBlockBegin
  2
*D8
 70
     1
 10
0.0
 20
0.0
 30
0.0
  3
*D8
  1

  0
LINE
  5
2AC
330
2AB
100
AcDbEntity
  8
0
  6
ByBlock
 62
     7
370
    -2
100
AcDbLine
 10
932.553414230379
 20
802.9636227258113
 30
0.0
 11
940.1332169470544
 21
802.9636227258113
 31
0.0
  0
LINE
  5
2AD
330
2AB
100
AcDbEntity
  8
0
  6
ByBlock
 62
     7
370
    -2
100
AcDbLine
 10
932.553414217583
 20
261.8926946267943
 30
0.0
 11
940.1332169470544
 21
261.8926946267943
 31
0.0
  0
LINE
  5
2AE
330
2AB
100
AcDbEntity
  8
0
  6
ByBlock
 62
     7
370
    -2
100
AcDbLine
 10
928.1332169470544
 20
790.9636227258113
 30
0.0
 11
928.1332169470544
 21
552.0731369879478
 31
0.0
  0
LINE
  5
2AF
330
2AB
100
AcDbEntity
  8
0
  6
ByBlock
 62
     7
370
    -2
100
AcDbLine
 10
928.1332169470544
 20
273.8926946267943
 30
0.0
 11
928.1332169470544
 21
512.7831803646578
 31
0.0
  0
INSERT
  5
2B0
330
2AB
100
AcDbEntity
  8
0
 62
     7
370
    -2
100
AcDbBlockReference
  2
TC_DIMARROW_FILLED30
 10
928.1332169470544
 20
802.9636227258113
 30
0.0
 41
12.0
 42
12.0
 43
12.0
 50
90.0
  0
INSERT
  5
2B1
330
2AB
100
AcDbEntity
  8
0
 62
     7
370
    -2
100
AcDbBlockReference
  2
TC_DIMARROW_FILLED30
 10
928.1332169470544
 20
261.8926946267943
 30
0.0
 41
12.0
 42
12.0
 43
12.0
 50
270.0
  0
MTEXT
  5
2B2
330
2AB
100
AcDbEntity
  8
0
 62
     7
370
     0
100
AcDbMText
 10
928.1332169470544
 20
532.4281586763028
 30
0.0
 40
26.83333333333334
 41
0.0
 46
0.0
 71
     5
 72
     1
  1
\A1;45'-0"
 73
     1
 44
1.0
  0
POINT
  5
2B3
330
2AB
100
AcDbEntity
  8
Defpoints
 62
     0
100
AcDbPoint
 10
926.553414230379
 20
802.9636227258113
 30
0.0
  0
POINT
  5
2B4
330
2AB
100
AcDbEntity
  8
Defpoints
 62
     0
100
AcDbPoint
 10
926.553414217583
 20
261.8926946267943
 30
0.0
  0
POINT
  5
2B5
330
2AB
100
AcDbEntity
  8
Defpoints
 62
     0
100
AcDbPoint
 10
928.1332169470544
 20
261.8926946267943
 30
0.0
  0
ENDBLK
  5
2B7
330
2AB
100
AcDbEntity
  8
0
100
AcDbBlockEnd
  0
BLOCK
  5
2C6
330
2BB
100
AcDbEntity
  8
0
100
AcDbBlockBegin
  2
*D9
 70
     1
 10
0.0
 20
0.0
 30
0.0
  3
*D9
  1

  0
LINE
  5
2BC
330
2BB
100
AcDbEntity
  8
0
  6
ByBlock
 62
     7
370
    -2
100
AcDbLine
 10
922.793102146971
 20
1383.578359042678
 30
0.0
 11
916.69436458583
 21
1383.578359042678
 31
0.0
  0
LINE
  5
2BD
330
2BB
100
AcDbEntity
  8
0
  6
ByBlock
 62
     7
370
    -2
100
AcDbLine
 10
922.69436458583
 20
815.7791190795248
 30
0.0
 11
916.69436458583
 21
815.7791190795248
 31
0.0
  0
LINE
  5
2BE
330
2BB
100
AcDbEntity
  8
0
  6
ByBlock
 62
     7
370
    -2
100
AcDbLine
 10
928.69436458583
 20
1371.578359042678
 30
0.0
 11
928.69436458583
 21
1119.364007663037
 31
0.0
  0
LINE
  5
2BF
330
2BB
100
AcDbEntity
  8
0
  6
ByBlock
 62
     7
370
    -2
100
AcDbLine
 10
928.69436458583
 20
827.7791190795248
 30
0.0
 11
928.69436458583
 21
1079.993470459166
 31
0.0
  0
INSERT
  5
2C0
330
2BB
100
AcDbEntity
  8
0
 62
     7
370
    -2
100
AcDbBlockReference
  2
TC_DIMARROW_FILLED30
 10
928.69436458583
 20
1383.578359042678
 30
0.0
 41
12.0
 42
12.0
 43
12.0
 50
90.0
  0
INSERT
  5
2C1
330
2BB
100
AcDbEntity
  8
0
 62
     7
370
    -2
100
AcDbBlockReference
  2
TC_DIMARROW_FILLED30
 10
928.69436458583
 20
815.7791190795248
 30
0.0
 41
12.0
 42
12.0
 43
12.0
 50
270.0
  0
MTEXT
  5
2C2
330
2BB
100
AcDbEntity
  8
0
 62
     7
370
     0
100
AcDbMText
 10
928.69436458583
 20
1099.678739061101
 30
0.0
 40
26.83333333333334
 41
0.0
 46
0.0
 71
     5
 72
     1
  1
\A1;47'-4"
 73
     1
 44
1.0
  0
POINT
  5
2C3
330
2BB
100
AcDbEntity
  8
Defpoints
 62
     0
100
AcDbPoint
 10
928.793102146971
 20
1383.578359042678
 30
0.0
  0
POINT
  5
2C4
330
2BB
100
AcDbEntity
  8
Defpoints
 62
     0
100
AcDbPoint
 10
928.69436458583
 20
815.7791190795248
 30
0.0
  0
POINT
  5
2C5
330
2BB
100
AcDbEntity
  8
Defpoints
 62
     0
100
AcDbPoint
 10
928.69436458583
 20
815.7791190795248
 30
0.0
  0
ENDBLK
  5
2C7
330
2BB
100
AcDbEntity
  8
0
100
AcDbBlockEnd
  0
BLOCK
  5
2FC
330
2F1
100
AcDbEntity
  8
0
100
AcDbBlockBegin
  2
*D10
 70
     1
 10
0.0
 20
0.0
 30
0.0
  3
*D10
  1

  0
LINE
  5
2F2
330
2F1
100
AcDbEntity
  8
0
  6
ByBlock
 62
     7
370
    -2
100
AcDbLine
 10
2105.817991145571
 20
1659.472851773288
 30
0.0
 11
2156.449152666423
 21
1659.472851773288
 31
0.0
  0
LINE
  5
2F3
330
2F1
100
AcDbEntity
  8
0
  6
ByBlock
 62
     7
370
    -2
100
AcDbLine
 10
2105.817991145571
 20
1421.133246950595
 30
0.0
 11
2156.449152666423
 21
1421.133246950595
 31
0.0
  0
LINE
  5
2F4
330
2F1
100
AcDbEntity
  8
0
  6
ByBlock
 62
     7
370
    -2
100
AcDbLine
 10
2144.449152666423
 20
1647.472851773288
 30
0.0
 11
2144.449152666423
 21
1559.948027673587
 31
0.0
  0
LINE
  5
2F5
330
2F1
100
AcDbEntity
  8
0
  6
ByBlock
 62
     7
370
    -2
100
AcDbLine
 10
2144.449152666423
 20
1433.133246950595
 30
0.0
 11
2144.449152666423
 21
1520.658071050297
 31
0.0
  0
INSERT
  5
2F6
330
2F1
100
AcDbEntity
  8
0
 62
     7
370
    -2
100
AcDbBlockReference
  2
TC_DIMARROW_FILLED30
 10
2144.449152666423
 20
1659.472851773288
 30
0.0
 41
12.0
 42
12.0
 43
12.0
 50
90.0
  0
INSERT
  5
2F7
330
2F1
100
AcDbEntity
  8
0
 62
     7
370
    -2
100
AcDbBlockReference
  2
TC_DIMARROW_FILLED30
 10
2144.449152666423
 20
1421.133246950595
 30
0.0
 41
12.0
 42
12.0
 43
12.0
 50
270.0
  0
MTEXT
  5
2F8
330
2F1
100
AcDbEntity
  8
0
 62
     7
370
     0
100
AcDbMText
 10
2144.449152666423
 20
1540.303049361942
 30
0.0
 40
26.83333333333334
 41
0.0
 46
0.0
 71
     5
 72
     1
  1
\A1;20'-0"
 73
     1
 44
1.0
  0
POINT
  5
2F9
330
2F1
100
AcDbEntity
  8
Defpoints
 62
     0
100
AcDbPoint
 10
2099.817991145571
 20
1659.472851773288
 30
0.0
  0
POINT
  5
2FA
330
2F1
100
AcDbEntity
  8
Defpoints
 62
     0
100
AcDbPoint
 10
2099.817991145571
 20
1421.133246950595
 30
0.0
  0
POINT
  5
2FB
330
2F1
100
AcDbEntity
  8
Defpoints
 62
     0
100
AcDbPoint
 10
2144.449152666423
 20
1421.133246950595
 30
0.0
  0
ENDBLK
  5
2FD
330
2F1
100
AcDbEntity
  8
0
100
AcDbBlockEnd
  0
BLOCK
  5
30B
330
301
100
AcDbEntity
  8
0
100
AcDbBlockBegin
  2
*D11
 70
     1
 10
0.0
 20
0.0
 30
0.0
  3
*D11
  1

  0
LINE
  5
302
330
301
100
AcDbEntity
  8
0
  6
ByBlock
 62
     7
370
    -2
100
AcDbLine
 10
499.9979025873736
 20
232.6375243076573
 30
0.0
 11
499.9979025873736
 21
174.1844066439762
 31
0.0
  0
LINE
  5
303
330
301
100
AcDbEntity
  8
0
  6
ByBlock
 62
     7
370
    -2
100
AcDbLine
 10
737.4172772756165
 20
232.6375243076573
 30
0.0
 11
737.4172772756165
 21
174.1844066439762
 31
0.0
  0
LINE
  5
304
330
301
100
AcDbEntity
  8
0
  6
ByBlock
 62
     7
370
    -2
100
AcDbLine
 10
511.9979025873736
 20
186.1844066439762
 30
0.0
 11
725.4172772756165
 21
186.1844066439762
 31
0.0
  0
INSERT
  5
305
330
301
100
AcDbEntity
  8
0
 62
     7
370
    -2
100
AcDbBlockReference
  2
TC_DIMARROW_FILLED30
 10
499.9979025873736
 20
186.1844066439762
 30
0.0
 41
12.0
 42
12.0
 43
12.0
 50
180.0
  0
INSERT
  5
306
330
301
100
AcDbEntity
  8
0
 62
     7
370
    -2
100
AcDbBlockReference
  2
TC_DIMARROW_FILLED30
 10
737.4172772756165
 20
186.1844066439762
 30
0.0
 41
12.0
 42
12.0
 43
12.0
  0
MTEXT
  5
307
330
301
100
AcDbEntity
  8
0
 62
     7
370
     0
100
AcDbMText
 10
618.707589931495
 20
205.8293849556212
 30
0.0
 40
26.83333333333334
 41
0.0
 46
0.0
 71
     5
 72
     1
  1
\A1;20'-0"
 73
     1
 44
1.0
  0
POINT
  5
308
330
301
100
AcDbEntity
  8
Defpoints
 62
     0
100
AcDbPoint
 10
499.9979025873736
 20
238.6375243076573
 30
0.0
  0
POINT
  5
309
330
301
100
AcDbEntity
  8
Defpoints
 62
     0
100
AcDbPoint
 10
737.4172772756165
 20
238.6375243076573
 30
0.0
  0
POINT
  5
30A
330
301
100
AcDbEntity
  8
Defpoints
 62
     0
100
AcDbPoint
 10
737.4172772756165
 20
186.1844066439762
 30
0.0
  0
ENDBLK
  5
30C
330
301
100
AcDbEntity
  8
0
100
AcDbBlockEnd
  0
ENDSEC
  0
SECTION
  2
ENTITIES
  0
LWPOLYLINE
  5
178
330
1F
100
AcDbEntity
  8
0
  6
Continuous
 62
     7
370
     0
100
AcDbPolyline
 90
        2
 70
   128
 43
0.0
 10
843.6627031209141
 20
261.891231546766
 10
843.662703120916
 20
319.0081117455792
  0
LWPOLYLINE
  5
179
330
1F
100
AcDbEntity
  8
0
  6
Continuous
 62
     7
370
     0
100
AcDbPolyline
 90
        2
 70
   128
 43
0.0
 10
849.6627031209158
 20
313.0081117455812
 10
849.6627031209141
 20
261.891231546766
  0
LWPOLYLINE
  5
17A
330
1F
100
AcDbEntity
  8
0
  6
Continuous
 62
     7
370
     0
100
AcDbPolyline
 90
        4
 70
   128
 43
0.0
 10
897.8904171130931
 20
313.0081117455776
 10
892.2025263168839
 20
313.0081117455778
 10
892.2025263168875
 20
319.0081117455778
 10
903.8904171130929
 20
319.0081117455774
  0
LWPOLYLINE
  5
17B
330
1F
100
AcDbEntity
  8
0
  6
Continuous
 62
     7
370
     0
100
AcDbPolyline
 90
        2
 70
   128
 43
0.0
 10
855.541536572026
 20
313.008111745579
 10
849.6627031209179
 20
313.0081117455792
  0
LWPOLYLINE
  5
17C
330
1F
100
AcDbEntity
  8
0
  6
Continuous
 62
     7
370
     0
100
AcDbPolyline
 90
        2
 70
   129
 43
0.0
 10
843.6627031209158
 20
319.0081117455794
 10
855.5415365720296
 20
319.008111745579
  0
LWPOLYLINE
  5
17D
330
1F
100
AcDbEntity
  8
0
  6
Continuous
 62
     7
370
     0
100
AcDbPolyline
 90
        2
 70
   128
 43
0.0
 10
897.8904171130966
 20
261.891231546766
 10
897.8904171130966
 20
313.0081117455811
  0
LWPOLYLINE
  5
17E
330
1F
100
AcDbEntity
  8
0
  6
Continuous
 62
     7
370
     0
100
AcDbPolyline
 90
        2
 70
   128
 43
0.0
 10
903.8904171130966
 20
319.0081117455793
 10
903.8904171130966
 20
261.891231546766
  0
LWPOLYLINE
  5
181
102
{ACAD_XDICTIONARY
360
17F
102
}
330
1F
100
AcDbEntity
  8
0
  6
Continuous
 62
     7
370
     0
100
AcDbPolyline
 90
        4
 70
   129
 43
0.0
 10
892.4224246965537
 20
316.4407832081542
 10
891.1197009765424
 20
318.0883455599305
 10
862.3622490182574
 20
295.3498951743077
 10
863.6649727382651
 20
293.7023328225314
  0
ARC
  5
184
102
{ACAD_XDICTIONARY
360
182
102
}
330
1F
100
AcDbEntity
  8
0
  6
$MARGINS
 62
     7
370
     0
100
AcDbCircle
 10
892.0949212818637
 20
316.7790705384632
 30
0.0
 40
36.58234043459374
100
AcDbArc
 50
178.9904872173892
 51
223.9351453065412
  0
LWPOLYLINE
  5
185
330
1F
100
AcDbEntity
  8
0
  6
Continuous
 62
     7
370
     0
100
AcDbPolyline
 90
        2
 70
   128
 43
0.0
 10
1291.872327275164
 20
261.891231546766
 10
1291.872327275164
 20
318.8337111136116
  0
LWPOLYLINE
  5
186
330
1F
100
AcDbEntity
  8
0
  6
Continuous
 62
     7
370
     0
100
AcDbPolyline
 90
        2
 70
   128
 43
0.0
 10
1297.872327275164
 20
312.8337111136079
 10
1297.872327275164
 20
261.8912315467642
  0
LWPOLYLINE
  5
187
330
1F
100
AcDbEntity
  8
0
  6
Continuous
 62
     7
370
     0
100
AcDbPolyline
 90
        4
 70
   128
 43
0.0
 10
1346.100041267345
 20
312.8337111136099
 10
1340.412150471134
 20
312.83371111361
 10
1340.412150471138
 20
318.83371111361
 10
1352.100041267345
 20
318.8337111136096
  0
LWPOLYLINE
  5
188
330
1F
100
AcDbEntity
  8
0
  6
Continuous
 62
     7
370
     0
100
AcDbPolyline
 90
        2
 70
   128
 43
0.0
 10
1303.751160726276
 20
312.8337111136113
 10
1297.872327275163
 20
312.8337111136115
  0
LWPOLYLINE
  5
189
330
1F
100
AcDbEntity
  8
0
  6
Continuous
 62
     7
370
     0
100
AcDbPolyline
 90
        2
 70
   129
 43
0.0
 10
1291.872327275164
 20
318.8337111136117
 10
1303.751160726276
 20
318.8337111136113
  0
LWPOLYLINE
  5
18A
330
1F
100
AcDbEntity
  8
0
  6
Continuous
 62
     7
370
     0
100
AcDbPolyline
 90
        2
 70
   128
 43
0.0
 10
1346.100041267345
 20
261.891231546766
 10
1346.100041267343
 20
312.8337111136104
  0
LWPOLYLINE
  5
18B
330
1F
100
AcDbEntity
  8
0
  6
Continuous
 62
     7
370
     0
100
AcDbPolyline
 90
        2
 70
   128
 43
0.0
 10
1352.100041267343
 20
318.8337111136073
 10
1352.100041267345
 20
261.891231546766
  0
LWPOLYLINE
  5
18E
102
{ACAD_XDICTIONARY
360
18C
102
}
330
1F
100
AcDbEntity
  8
0
  6
Continuous
 62
     7
370
     0
100
AcDbPolyline
 90
        4
 70
   129
 43
0.0
 10
1340.632048850804
 20
316.2663825761865
 10
1339.329325130791
 20
317.9139449279628
 10
1310.571873172506
 20
295.1754945423418
 10
1311.874596892515
 20
293.5279321905637
  0
ARC
  5
191
102
{ACAD_XDICTIONARY
360
18F
102
}
330
1F
100
AcDbEntity
  8
0
  6
Continuous
 62
     7
370
     0
100
AcDbCircle
 10
1340.304545436116
 20
316.6046699064955
 30
0.0
 40
36.58234043459564
100
AcDbArc
 50
178.9904872173805
 51
223.9351453065444
  0
LWPOLYLINE
  5
192
330
1F
100
AcDbEntity
  8
0
  6
Continuous
 62
     7
370
     0
100
AcDbPolyline
 90
        2
 70
   128
 43
0.0
 10
2086.592971233054
 20
629.8812334456516
 10
2030.500694758098
 20
629.8812334456516
  0
LWPOLYLINE
  5
193
330
1F
100
AcDbEntity
  8
0
  6
Continuous
 62
     7
370
     0
100
AcDbPolyline
 90
        2
 70
   128
 43
0.0
 10
2036.500694758102
 20
635.8812334456516
 10
2086.592971233054
 20
635.8812334456516
  0
LWPOLYLINE
  5
194
330
1F
100
AcDbEntity
  8
0
  6
Continuous
 62
     7
370
     0
100
AcDbPolyline
 90
        4
 70
   128
 43
0.0
 10
2036.500694758096
 20
684.1089474378311
 10
2036.500694758096
 20
678.4210566416214
 10
2030.500694758096
 20
678.421056641625
 10
2030.500694758096
 20
690.1089474378261
  0
LWPOLYLINE
  5
195
330
1F
100
AcDbEntity
  8
0
  6
Continuous
 62
     7
370
     0
100
AcDbPolyline
 90
        2
 70
   128
 43
0.0
 10
2036.500694758095
 20
641.7600668967634
 10
2036.500694758095
 20
635.8812334456486
  0
LWPOLYLINE
  5
196
330
1F
100
AcDbEntity
  8
0
  6
Continuous
 62
     7
370
     0
100
AcDbPolyline
 90
        2
 70
   129
 43
0.0
 10
2030.500694758095
 20
629.8812334456472
 10
2030.500694758095
 20
641.7600668967634
  0
LWPOLYLINE
  5
197
330
1F
100
AcDbEntity
  8
0
  6
Continuous
 62
     7
370
     0
100
AcDbPolyline
 90
        2
 70
   128
 43
0.0
 10
2086.592971233054
 20
684.1089474378305
 10
2036.500694758096
 20
684.1089474378305
  0
LWPOLYLINE
  5
198
330
1F
100
AcDbEntity
  8
0
  6
Continuous
 62
     7
370
     0
100
AcDbPolyline
 90
        2
 70
   128
 43
0.0
 10
2030.500694758095
 20
690.1089474378305
 10
2086.592971233054
 20
690.1089474378305
  0
LWPOLYLINE
  5
19B
102
{ACAD_XDICTIONARY
360
199
102
}
330
1F
100
AcDbEntity
  8
0
  6
Continuous
 62
     7
370
     0
100
AcDbPolyline
 90
        4
 70
   129
 43
0.0
 10
2033.068023295521
 20
678.6409550212875
 10
2031.420460943745
 20
677.3382313012798
 10
2054.158911329366
 20
648.5807793429913
 10
2055.806473681144
 20
649.8835030629989
  0
ARC
  5
19E
102
{ACAD_XDICTIONARY
360
19C
102
}
330
1F
100
AcDbEntity
  8
0
  6
$MARGINS
 62
     7
370
     0
100
AcDbCircle
 10
2032.729735965213
 20
678.3134516066011
 30
0.0
 40
36.58234043459566
100
AcDbArc
 50
268.9904872173834
 51
313.9351453065423
  0
LWPOLYLINE
  5
19F
330
1F
100
AcDbEntity
  8
0
  6
Continuous
 62
     7
370
     0
100
AcDbPolyline
 90
        2
 70
   128
 43
0.0
 10
180.983807701658
 20
917.9038771385422
 10
125.2403324795875
 20
917.903877138546
  0
LWPOLYLINE
  5
1A0
330
1F
100
AcDbEntity
  8
0
  6
Continuous
 62
     7
370
     0
100
AcDbPolyline
 90
        2
 70
   128
 43
0.0
 10
131.2403324795745
 20
923.9038771385456
 10
180.9838077016598
 20
923.9038771385422
  0
LWPOLYLINE
  5
1A1
330
1F
100
AcDbEntity
  8
0
  6
Continuous
 62
     7
370
     0
100
AcDbPolyline
 90
        4
 70
   128
 43
0.0
 10
131.1538267583678
 20
972.1458032106348
 10
131.1538267583678
 20
966.4579124144257
 10
125.1538267583678
 20
966.4579124144257
 10
125.1538267583678
 20
978.1458032106348
  0
LWPOLYLINE
  5
1A2
330
1F
100
AcDbEntity
  8
0
  6
Continuous
 62
     7
370
     0
100
AcDbPolyline
 90
        2
 70
   128
 43
0.0
 10
131.1538267583678
 20
929.7969226695677
 10
131.1538267583678
 20
923.9180892184559
  0
LWPOLYLINE
  5
1A3
330
1F
100
AcDbEntity
  8
0
  6
Continuous
 62
     7
370
     0
100
AcDbPolyline
 90
        2
 70
   129
 43
0.0
 10
125.1538267583678
 20
917.9180892184595
 10
125.1538267583678
 20
929.7969226695677
  0
LWPOLYLINE
  5
1A4
330
1F
100
AcDbEntity
  8
0
  6
Continuous
 62
     7
370
     0
100
AcDbPolyline
 90
        2
 70
   128
 43
0.0
 10
180.983807701658
 20
972.1315911307247
 10
131.2403324795764
 20
972.1315911307213
  0
LWPOLYLINE
  5
1A5
330
1F
100
AcDbEntity
  8
0
  6
Continuous
 62
     7
370
     0
100
AcDbPolyline
 90
        2
 70
   128
 43
0.0
 10
125.2403324795911
 20
978.1315911307208
 10
180.9838077016598
 20
978.1315911307247
  0
LWPOLYLINE
  5
1A8
102
{ACAD_XDICTIONARY
360
1A6
102
}
330
1F
100
AcDbEntity
  8
0
  6
Continuous
 62
     7
370
     0
100
AcDbPolyline
 90
        4
 70
   129
 43
0.0
 10
127.8076610170069
 20
966.6635987141854
 10
126.1600986652288
 20
965.3608749941741
 10
148.8985490508499
 20
936.6034230358855
 10
150.5461114026261
 20
937.9061467558931
  0
ARC
  5
1AB
102
{ACAD_XDICTIONARY
360
1A9
102
}
330
1F
100
AcDbEntity
  8
0
  6
$MARGINS
 62
     7
370
     0
100
AcDbCircle
 10
127.469373686698
 20
966.3360952994954
 30
0.0
 40
36.58234043459636
100
AcDbArc
 50
268.9904872173808
 51
313.9351453065373
  0
TEXT
  5
1AF
102
{ACAD_XDICTIONARY
360
1AD
102
}
330
1F
100
AcDbEntity
  8
0
  6
Continuous
 62
     7
100
AcDbText
 10
103.9398239288577
 20
973.4698130977715
 30
0.0
 40
15.33333333333333
  1
EXIT
 50
-89.73981335406917
  7
_TCW_TXTSTY_1
 72
     2
 11
119.4890615797042
 21
925.960600517125
 31
0.0
100
AcDbText
 73
     3
  0
LWPOLYLINE
  5
1B0
330
1F
100
AcDbEntity
  8
0
  6
Continuous
 62
     7
370
     0
100
AcDbPolyline
 90
        4
 70
   128
 43
0.0
 10
189.9838077016577
 20
1830.415086292031
 10
189.9838077016577
 20
1818.800089519897
 10
180.9838077016577
 20
1818.8000895199
 10
180.9838077016577
 20
1830.415086292031
  0
LWPOLYLINE
  5
1B1
330
1F
100
AcDbEntity
  8
0
  6
Continuous
 62
     7
370
     0
100
AcDbPolyline
 90
        4
 70
   128
 43
0.0
 10
189.9838077016577
 20
1781.129553011335
 10
189.9838077016578
 20
966.9402027048963
 10
180.9838077016578
 20
966.9402027048927
 10
180.983807701658
 20
972.1315911307247
  0
LWPOLYLINE
  5
1B2
330
1F
100
AcDbEntity
  8
0
  6
Continuous
 62
     7
370
     0
100
AcDbPolyline
 90
        2
 70
   128
 43
0.0
 10
180.9838077016598
 20
978.1315911307211
 10
180.983807701658
 20
1122.997482696745
  0
LWPOLYLINE
  5
1B3
330
1F
100
AcDbEntity
  8
0
  6
Continuous
 62
     7
370
     0
100
AcDbPolyline
 90
        2
 70
   128
 43
0.0
 10
180.983807701658
 20
1200.997482696745
 10
180.983807701658
 20
1593.788707983405
  0
LWPOLYLINE
  5
1B4
330
1F
100
AcDbEntity
  8
0
  6
Continuous
 62
     7
370
     0
100
AcDbPolyline
 90
        2
 70
   128
 43
0.0
 10
180.983807701658
 20
1601.788707983405
 10
180.983807701658
 20
1763.358743890545
  0
LWPOLYLINE
  5
1B5
330
1F
100
AcDbEntity
  8
0
  6
Continuous
 62
     7
370
     0
100
AcDbPolyline
 90
        2
 70
   129
 43
0.0
 10
180.983807701658
 20
1769.358743890545
 10
180.9838077016577
 20
1781.129553011339
  0
LWPOLYLINE
  5
1B6
330
1F
100
AcDbEntity
  8
0
  6
Continuous
 62
     7
370
     0
100
AcDbPolyline
 90
        2
 70
   128
 43
0.0
 10
189.9838077016578
 20
929.2696661963382
 10
189.983807701658
 20
261.8912315467642
  0
LWPOLYLINE
  5
1B7
330
1F
100
AcDbEntity
  8
0
  6
Continuous
 62
     7
370
     0
100
AcDbPolyline
 90
        2
 70
   128
 43
0.0
 10
180.983807701658
 20
252.891231546766
 10
180.983807701658
 20
312.1514626252865
  0
LWPOLYLINE
  5
1B8
330
1F
100
AcDbEntity
  8
0
  6
Continuous
 62
     7
370
     0
100
AcDbPolyline
 90
        2
 70
   128
 43
0.0
 10
180.983807701658
 20
390.1514626252865
 10
180.983807701658
 20
917.9038771385422
  0
LWPOLYLINE
  5
1B9
330
1F
100
AcDbEntity
  8
0
  6
Continuous
 62
     7
370
     0
100
AcDbPolyline
 90
        2
 70
   129
 43
0.0
 10
180.9838077016598
 20
923.9038771385458
 10
180.9838077016578
 20
929.2696661963382
  0
LWPOLYLINE
  5
1BA
330
1F
100
AcDbEntity
  8
0
  6
Continuous
 62
     7
370
     0
100
AcDbPolyline
 90
        2
 70
   128
 43
0.0
 10
498.1175988098132
 20
252.8912315467643
 10
180.983807701658
 20
252.8912315467642
  0
LWPOLYLINE
  5
1BB
330
1F
100
AcDbEntity
  8
0
  6
Continuous
 62
     7
370
     0
100
AcDbPolyline
 90
        2
 70
   129
 43
0.0
 10
189.983807701658
 20
261.8912315467642
 10
498.1175988098116
 20
261.8912315467643
  0
LWPOLYLINE
  5
1BC
330
1F
100
AcDbEntity
  8
0
  6
Continuous
 62
     7
370
     0
100
AcDbPolyline
 90
        2
 70
   128
 43
0.0
 10
2095.592971233052
 20
252.8912315467651
 10
1931.119054795946
 20
252.8912315467633
  0
LWPOLYLINE
  5
1BD
330
1F
100
AcDbEntity
  8
0
  6
Continuous
 62
     7
370
     0
100
AcDbPolyline
 90
        2
 70
   128
 43
0.0
 10
1853.119054795948
 20
252.8912315467651
 10
1647.684188287077
 20
252.8912315467633
  0
LWPOLYLINE
  5
1BE
330
1F
100
AcDbEntity
  8
0
  6
Continuous
 62
     7
370
     0
100
AcDbPolyline
 90
        4
 70
   128
 43
0.0
 10
1569.684188287077
 20
252.891231546766
 10
1339.687848420477
 20
252.8912315467647
 10
1339.687848420477
 20
261.8912315467647
 10
1346.100041267347
 20
261.891231546766
  0
LWPOLYLINE
  5
1BF
330
1F
100
AcDbEntity
  8
0
  6
Continuous
 62
     7
370
     0
100
AcDbPolyline
 90
        2
 70
   128
 43
0.0
 10
1352.100041267345
 20
261.891231546766
 10
2086.592971233054
 20
261.8912315467651
  0
LWPOLYLINE
  5
1C0
330
1F
100
AcDbEntity
  8
0
  6
Continuous
 62
     7
370
     0
100
AcDbPolyline
 90
        2
 70
   128
 43
0.0
 10
1303.238116330241
 20
252.8912315467647
 10
1017.180548964891
 20
252.8912315467642
  0
LWPOLYLINE
  5
1C1
330
1F
100
AcDbEntity
  8
0
  6
Continuous
 62
     7
370
     0
100
AcDbPolyline
 90
        4
 70
   128
 43
0.0
 10
939.1805489648909
 20
252.8912315467642
 10
893.0478299539286
 20
252.8912315467645
 10
893.0478299539286
 20
261.8912315467645
 10
897.8904171130966
 20
261.891231546766
  0
LWPOLYLINE
  5
1C2
330
1F
100
AcDbEntity
  8
0
  6
Continuous
 62
     7
370
     0
100
AcDbPolyline
 90
        2
 70
   128
 43
0.0
 10
903.8904171130966
 20
261.891231546766
 10
1291.872327275164
 20
261.891231546766
  0
LWPOLYLINE
  5
1C3
330
1F
100
AcDbEntity
  8
0
  6
Continuous
 62
     7
370
     0
100
AcDbPolyline
 90
        2
 70
   129
 43
0.0
 10
1297.872327275164
 20
261.8912315467642
 10
1303.238116330241
 20
261.8912315467647
  0
LWPOLYLINE
  5
1C4
330
1F
100
AcDbEntity
  8
0
  6
Continuous
 62
     7
370
     0
100
AcDbPolyline
 90
        4
 70
   128
 43
0.0
 10
856.598097863693
 20
252.8912315467645
 10
736.6976633640265
 20
252.8912315467644
 10
736.6976633640265
 20
261.8912315467645
 10
843.6627031209141
 20
261.891231546766
  0
LWPOLYLINE
  5
1C5
330
1F
100
AcDbEntity
  8
0
  6
Continuous
 62
     7
370
     0
100
AcDbPolyline
 90
        2
 70
   129
 43
0.0
 10
849.6627031209141
 20
261.891231546766
 10
856.598097863693
 20
261.8912315467645
  0
LWPOLYLINE
  5
1C6
330
1F
100
AcDbEntity
  8
0
  6
Continuous
 62
     7
370
     0
100
AcDbPolyline
 90
        2
 70
   128
 43
0.0
 10
2095.592971233054
 20
1830.415086292031
 10
2095.592971233054
 20
1749.492252205607
  0
LWPOLYLINE
  5
1C7
330
1F
100
AcDbEntity
  8
0
  6
Continuous
 62
     7
370
     0
100
AcDbPolyline
 90
        4
 70
   128
 43
0.0
 10
2095.592971233054
 20
1740.492252205607
 10
2095.592971233054
 20
1659.572312570427
 10
2086.592971233054
 20
1659.572312570427
 10
2086.592971233052
 20
1702.160483135703
  0
LWPOLYLINE
  5
1C8
330
1F
100
AcDbEntity
  8
0
  6
Continuous
 62
     7
370
     0
100
AcDbPolyline
 90
        2
 70
   128
 43
0.0
 10
2086.592971233054
 20
1711.160483135703
 10
2086.592971233054
 20
1830.415086292031
  0
LWPOLYLINE
  5
1C9
330
1F
100
AcDbEntity
  8
0
  6
Continuous
 62
     7
370
     0
100
AcDbPolyline
 90
        2
 70
   128
 43
0.0
 10
2095.592971233054
 20
1420.992248016212
 10
2095.592971233052
 20
689.8506755327062
  0
LWPOLYLINE
  5
1CA
330
1F
100
AcDbEntity
  8
0
  6
Continuous
 62
     7
370
     0
100
AcDbPolyline
 90
        4
 70
   128
 43
0.0
 10
2095.592971233054
 20
683.8506755327062
 10
2095.592971233054
 20
683.192328319964
 10
2086.592971233054
 20
683.192328319964
 10
2086.592971233054
 20
684.1089474378341
  0
LWPOLYLINE
  5
1CB
330
1F
100
AcDbEntity
  8
0
  6
Continuous
 62
     7
370
     0
100
AcDbPolyline
 90
        2
 70
   129
 43
0.0
 10
2086.592971233054
 20
690.1089474378341
 10
2086.592971233054
 20
1420.992248016212
  0
LWPOLYLINE
  5
1CC
330
1F
100
AcDbEntity
  8
0
  6
Continuous
 62
     7
370
     0
100
AcDbPolyline
 90
        2
 70
   128
 43
0.0
 10
2095.592971233054
 20
636.5509122920148
 10
2095.592971233054
 20
635.6229615405273
  0
LWPOLYLINE
  5
1CD
330
1F
100
AcDbEntity
  8
0
  6
Continuous
 62
     7
370
     0
100
AcDbPolyline
 90
        2
 70
   128
 43
0.0
 10
2095.592971233054
 20
629.6229615405273
 10
2095.592971233054
 20
252.8912315467633
  0
LWPOLYLINE
  5
1CE
330
1F
100
AcDbEntity
  8
0
  6
Continuous
 62
     7
370
     0
100
AcDbPolyline
 90
        2
 70
   128
 43
0.0
 10
2086.592971233054
 20
261.8912315467651
 10
2086.592971233054
 20
629.8812334456516
  0
LWPOLYLINE
  5
1CF
330
1F
100
AcDbEntity
  8
0
  6
Continuous
 62
     7
370
     0
100
AcDbPolyline
 90
        2
 70
   129
 43
0.0
 10
2086.592971233054
 20
635.8812334456516
 10
2086.592971233054
 20
636.5509122920148
  0
LWPOLYLINE
  5
1D2
102
{ACAD_XDICTIONARY
360
1D0
102
}
330
1F
100
AcDbEntity
  8
0
  6
Continuous
 62
     7
370
     0
100
AcDbPolyline
 90
        4
 70
   129
 43
0.0
 10
187.0499804688666
 20
1817.051757919551
 10
162.4440950121029
 20
1788.527737835917
 10
160.199148987002
 20
1790.464312154272
 10
184.8050344437656
 20
1818.98833223791
  0
ARC
  5
1D5
102
{ACAD_XDICTIONARY
360
1D3
102
}
330
1F
100
AcDbEntity
  8
0
  6
$MARGINS
 62
     7
370
     0
100
AcDbCircle
 10
186.3558108557595
 20
1818.756489374009
 30
0.0
 40
37.64226653925077
100
AcDbArc
 50
220.5761869430559
 51
269.4270613023201
  0
LWPOLYLINE
  5
1D8
102
{ACAD_XDICTIONARY
360
1D6
102
}
330
1F
100
AcDbEntity
  8
0
  6
Continuous
 62
     7
370
     0
100
AcDbPolyline
 90
        4
 70
   129
 43
0.0
 10
185.897744833454
 20
965.9835893154741
 10
159.0064777452794
 20
939.3546760525533
 10
157.1657694552164
 20
941.2135193996583
 10
184.057036543391
 20
967.8424326625864
  0
ARC
  5
1DB
102
{ACAD_XDICTIONARY
360
1D9
102
}
330
1F
100
AcDbEntity
  8
0
  6
$MARGINS
 62
     7
370
     0
100
AcDbCircle
 10
185.4838076970777
 20
966.8530023745443
 30
0.0
 40
38.02133772717285
100
AcDbArc
 50
216.6743496695751
 51
270.0
  0
LWPOLYLINE
  5
1DE
102
{ACAD_XDICTIONARY
360
1DC
102
}
330
1F
100
AcDbEntity
  8
0
  6
Continuous
 62
     7
370
     0
100
AcDbPolyline
 90
        4
 70
   129
 43
0.0
 10
879.2414842805451
 20
284.764646446738
 10
880.8535631606251
 20
283.4300883673586
 10
857.4987967714446
 20
255.2187079659288
 10
855.8867178913647
 20
256.5532660453118
  0
ARC
  5
1E1
102
{ACAD_XDICTIONARY
360
1DF
102
}
330
1F
100
AcDbEntity
  8
0
  6
$MARGINS
 62
     7
370
     0
100
AcDbCircle
 10
856.5108975444168
 20
257.086030426346
 30
0.0
 40
36.55638600348885
100
AcDbArc
 50
0.2640339812600286
 51
55.22900828735988
  0
LWPOLYLINE
  5
1E4
102
{ACAD_XDICTIONARY
360
1E2
102
}
330
1F
100
AcDbEntity
  8
0
  6
Continuous
 62
     7
370
     0
100
AcDbPolyline
 90
        4
 70
   129
 43
0.0
 10
1325.704458118629
 20
286.6415622899458
 10
1327.316536998709
 20
285.3070042105646
 10
1303.96177060953
 20
257.0956238091348
 10
1302.349691729448
 20
258.4301818885197
  0
ARC
  5
1E7
102
{ACAD_XDICTIONARY
360
1E5
102
}
330
1F
100
AcDbEntity
  8
0
  6
$MARGINS
 62
     7
370
     0
100
AcDbCircle
 10
1302.973871382499
 20
258.9629462695539
 30
0.0
 40
36.55638600348702
100
AcDbArc
 50
0.264033981257204
 51
55.22900828736022
  0
LWPOLYLINE
  5
1EA
102
{ACAD_XDICTIONARY
360
1E8
102
}
330
1F
100
AcDbEntity
  8
0
  6
Continuous
 62
     7
370
     0
100
AcDbPolyline
 90
        4
 70
   129
 43
0.0
 10
499.2512029812247
 20
251.2654093492129
 10
499.2512029812247
 20
245.6845891257271
 10
248.1142929241582
 20
245.6845891257271
 10
248.1142929241582
 20
251.2654093492147
  0
LWPOLYLINE
  5
1ED
102
{ACAD_XDICTIONARY
360
1EB
102
}
330
1F
100
AcDbEntity
  8
0
  6
Continuous
 62
     7
370
     0
100
AcDbPolyline
 90
        4
 70
   129
 43
0.0
 10
2085.948152601329
 20
1171.304343481784
 10
2085.948152601329
 20
1418.6044396352
 10
2081.413736169741
 20
1418.604439635196
 10
2081.413736169743
 20
1171.30434348178
  0
SOLID
  5
1F0
102
{ACAD_XDICTIONARY
360
1EE
102
}
330
1F
100
AcDbEntity
  8
0
  6
Continuous
 62
     7
100
AcDbTrace
 10
352.1824415971184
 20
238.6382481406417
 30
0.0
 11
362.9328835862195
 21
238.6382481406417
 31
0.0
 12
352.1824415971184
 22
226.2701847864063
 32
0.0
 13
362.9328835862195
 23
226.2701847864063
 33
0.0
  0
SOLID
  5
1F3
102
{ACAD_XDICTIONARY
360
1F1
102
}
330
1F
100
AcDbEntity
  8
0
  6
Continuous
 62
     7
100
AcDbTrace
 10
921.5318965478243
 20
239.1214426357637
 30
0.0
 11
932.2823385369254
 21
239.1214426357637
 31
0.0
 12
921.5318965478243
 22
226.7533792815302
 32
0.0
 13
932.2823385369254
 23
226.7533792815302
 33
0.0
  0
SOLID
  5
1F6
102
{ACAD_XDICTIONARY
360
1F4
102
}
330
1F
100
AcDbEntity
  8
0
  6
Continuous
 62
     7
100
AcDbTrace
 10
1493.960471503396
 20
238.7398138218686
 30
0.0
 11
1504.710913492499
 21
238.7398138218686
 31
0.0
 12
1493.960471503396
 22
226.3717504676369
 32
0.0
 13
1504.710913492497
 23
226.3717504676369
 33
0.0
  0
SOLID
  5
1F9
102
{ACAD_XDICTIONARY
360
1F7
102
}
330
1F
100
AcDbEntity
  8
0
  6
Continuous
 62
     7
100
AcDbTrace
 10
2068.542916180077
 20
238.9344611524165
 30
0.0
 11
2079.29335816918
 21
238.9344611524165
 31
0.0
 12
2068.542916180079
 22
226.566397798183
 32
0.0
 13
2079.293358169182
 23
226.566397798183
 33
0.0
  0
LWPOLYLINE
  5
1FA
330
1F
100
AcDbEntity
  8
0
  6
Continuous
 62
     7
370
     0
100
AcDbPolyline
 90
        2
 70
   128
 43
0.0
 10
2095.592971233054
 20
635.6229615405273
 10
2145.359042625887
 20
635.6229615405273
  0
LWPOLYLINE
  5
1FB
330
1F
100
AcDbEntity
  8
0
  6
Continuous
 62
     7
370
     0
100
AcDbPolyline
 90
        2
 70
   128
 43
0.0
 10
2151.359042625887
 20
629.6229615405273
 10
2095.592971233054
 20
629.6229615405273
  0
LWPOLYLINE
  5
1FC
330
1F
100
AcDbEntity
  8
0
  6
Continuous
 62
     7
370
     0
100
AcDbPolyline
 90
        4
 70
   128
 43
0.0
 10
2151.359042625892
 20
689.8506755327062
 10
2151.359042625892
 20
678.1627847364971
 10
2145.359042625892
 20
678.1627847364971
 10
2145.359042625892
 20
683.8506755327098
  0
LWPOLYLINE
  5
1FD
330
1F
100
AcDbEntity
  8
0
  6
Continuous
 62
     7
370
     0
100
AcDbPolyline
 90
        2
 70
   128
 43
0.0
 10
2151.359042625892
 20
641.5017949916391
 10
2151.359042625892
 20
629.6229615405236
  0
LWPOLYLINE
  5
1FE
330
1F
100
AcDbEntity
  8
0
  6
Continuous
 62
     7
370
     0
100
AcDbPolyline
 90
        2
 70
   129
 43
0.0
 10
2145.359042625892
 20
635.6229615405236
 10
2145.359042625892
 20
641.5017949916391
  0
LWPOLYLINE
  5
1FF
330
1F
100
AcDbEntity
  8
0
  6
Continuous
 62
     7
370
     0
100
AcDbPolyline
 90
        2
 70
   128
 43
0.0
 10
2095.592971233052
 20
689.8506755327062
 10
2151.359042625888
 20
689.8506755327062
  0
LWPOLYLINE
  5
200
330
1F
100
AcDbEntity
  8
0
  6
Continuous
 62
     7
370
     0
100
AcDbPolyline
 90
        2
 70
   128
 43
0.0
 10
2145.35904262589
 20
683.8506755327062
 10
2095.592971233054
 20
683.8506755327062
  0
LWPOLYLINE
  5
201
330
1F
100
AcDbEntity
  8
0
  6
Continuous
 62
     7
370
     0
100
AcDbPolyline
 90
        2
 70
   128
 43
0.0
 10
159.3455559380041
 20
1200.997482696745
 10
180.983807701658
 20
1200.997482696745
  0
LWPOLYLINE
  5
202
330
1F
100
AcDbEntity
  8
0
  6
Continuous
 62
     7
370
     0
100
AcDbPolyline
 90
        2
 70
   129
 43
0.0
 10
180.983807701658
 20
1122.997482696745
 10
159.3455559380041
 20
1122.997482696745
  0
LWPOLYLINE
  5
203
330
1F
100
AcDbEntity
  8
0
  6
Continuous
 62
     7
370
     0
100
AcDbPolyline
 90
        2
 70
   128
 43
0.0
 10
169.2102008017941
 20
390.1514626252847
 10
180.983807701658
 20
390.1514626252847
  0
LWPOLYLINE
  5
204
330
1F
100
AcDbEntity
  8
0
  6
Continuous
 62
     7
370
     0
100
AcDbPolyline
 90
        2
 70
   129
 43
0.0
 10
180.983807701658
 20
312.1514626252847
 10
169.2102008017941
 20
312.1514626252847
  0
LWPOLYLINE
  5
205
330
1F
100
AcDbEntity
  8
0
  6
Continuous
 62
     7
370
     0
100
AcDbPolyline
 90
        2
 70
   128
 43
0.0
 10
939.1805489648909
 20
232.4978469373473
 10
939.1805489648909
 20
252.8912315467642
  0
LWPOLYLINE
  5
206
330
1F
100
AcDbEntity
  8
0
  6
Continuous
 62
     7
370
     0
100
AcDbPolyline
 90
        2
 70
   129
 43
0.0
 10
1017.180548964891
 20
252.8912315467642
 10
1017.180548964891
 20
232.4978469373473
  0
LWPOLYLINE
  5
207
330
1F
100
AcDbEntity
  8
0
  6
Continuous
 62
     7
370
     0
100
AcDbPolyline
 90
        2
 70
   128
 43
0.0
 10
1569.684188287075
 20
231.3863376569188
 10
1569.684188287075
 20
252.891231546766
  0
LWPOLYLINE
  5
208
330
1F
100
AcDbEntity
  8
0
  6
Continuous
 62
     7
370
     0
100
AcDbPolyline
 90
        2
 70
   129
 43
0.0
 10
1647.684188287075
 20
252.8912315467633
 10
1647.684188287075
 20
231.3863376569188
  0
LWPOLYLINE
  5
209
330
1F
100
AcDbEntity
  8
0
  6
Continuous
 62
     7
370
     0
100
AcDbPolyline
 90
        2
 70
   128
 43
0.0
 10
1853.119054795948
 20
231.3863376569179
 10
1853.119054795948
 20
252.8912315467651
  0
LWPOLYLINE
  5
20A
330
1F
100
AcDbEntity
  8
0
  6
Continuous
 62
     7
370
     0
100
AcDbPolyline
 90
        2
 70
   129
 43
0.0
 10
1931.119054795948
 20
252.8912315467633
 10
1931.119054795948
 20
231.3863376569179
  0
LWPOLYLINE
  5
20D
102
{ACAD_XDICTIONARY
360
20B
102
}
330
1F
100
AcDbEntity
  8
0
  6
Continuous
 62
     7
370
     0
100
AcDbPolyline
 90
        4
 70
   129
 43
0.0
 10
2147.51575263133
 20
641.4182433392152
 10
2149.163314983105
 20
642.7209670592229
 10
2126.424864597484
 20
671.4784190175114
 10
2124.777302245707
 20
670.1756952975074
  0
ARC
  5
210
102
{ACAD_XDICTIONARY
360
20E
102
}
330
1F
100
AcDbEntity
  8
0
  6
$MARGINS
 62
     7
370
     0
100
AcDbCircle
 10
2147.854039961639
 20
641.7457467539052
 30
0.0
 40
36.58234043459183
100
AcDbArc
 50
88.99048721738356
 51
133.9351453065403
  0
LWPOLYLINE
  5
211
330
1F
100
AcDbEntity
  8
0
  6
Continuous
 62
     7
370
     0
100
AcDbPolyline
 90
        4
 70
   128
 43
0.0
 10
2036.347519488353
 20
683.6633428267357
 10
2036.347519488352
 20
677.975452030526
 10
2030.347519488352
 20
677.975452030526
 10
2030.347519488353
 20
689.6633428267344
  0
LWPOLYLINE
  5
212
330
1F
100
AcDbEntity
  8
0
  6
Continuous
 62
     7
370
     0
100
AcDbPolyline
 90
        2
 70
   128
 43
0.0
 10
2036.347519488351
 20
641.314462285668
 10
2036.347519488351
 20
635.435628834555
  0
LWPOLYLINE
  5
213
330
1F
100
AcDbEntity
  8
0
  6
Continuous
 62
     7
370
     0
100
AcDbPolyline
 90
        2
 70
   129
 43
0.0
 10
2030.347519488351
 20
629.4356288345537
 10
2030.347519488351
 20
641.314462285668
  0
LWPOLYLINE
  5
214
330
1F
100
AcDbEntity
  8
0
  6
Continuous
 62
     7
370
     0
100
AcDbPolyline
 90
        4
 70
   128
 43
0.0
 10
1780.821055906561
 20
1830.415086292031
 10
1780.821055906561
 20
1815.91287608722
 10
1771.821055906561
 20
1815.91287608722
 10
1771.821055906561
 20
1830.415086292031
  0
LWPOLYLINE
  5
215
330
1F
100
AcDbEntity
  8
0
  6
Continuous
 62
     7
370
     0
100
AcDbPolyline
 90
        2
 70
   128
 43
0.0
 10
1780.821055906561
 20
1779.637544634533
 10
1780.821055906561
 20
1767.220683287448
  0
LWPOLYLINE
  5
216
330
1F
100
AcDbEntity
  8
0
  6
Continuous
 62
     7
370
     0
100
AcDbPolyline
 90
        2
 70
   129
 43
0.0
 10
1771.821055906561
 20
1758.220683287446
 10
1771.821055906561
 20
1779.637544634533
  0
LWPOLYLINE
  5
217
330
1F
100
AcDbEntity
  8
0
  6
Continuous
 62
     7
370
     0
100
AcDbPolyline
 90
        2
 70
   128
 43
0.0
 10
1909.87752356187
 20
1830.415086292031
 10
1909.87752356187
 20
1710.714878524607
  0
LWPOLYLINE
  5
218
330
1F
100
AcDbEntity
  8
0
  6
Continuous
 62
     7
370
     0
100
AcDbPolyline
 90
        2
 70
   128
 43
0.0
 10
1900.87752356187
 20
1701.714878524609
 10
1900.87752356187
 20
1758.220683287448
  0
LWPOLYLINE
  5
219
330
1F
100
AcDbEntity
  8
0
  6
Continuous
 62
     7
370
     0
100
AcDbPolyline
 90
        2
 70
   128
 43
0.0
 10
1900.87752356187
 20
1767.220683287448
 10
1900.87752356187
 20
1830.415086292031
  0
LWPOLYLINE
  5
21A
330
1F
100
AcDbEntity
  8
0
  6
Continuous
 62
     7
370
     0
100
AcDbPolyline
 90
        4
 70
   128
 43
0.0
 10
2086.43979596331
 20
1701.714878524607
 10
2036.003596908508
 20
1701.714878524607
 10
2036.003596908508
 20
1710.714878524607
 10
2086.43979596331
 20
1710.714878524607
  0
LWPOLYLINE
  5
21B
330
1F
100
AcDbEntity
  8
0
  6
Continuous
 62
     7
370
     0
100
AcDbPolyline
 90
        2
 70
   128
 43
0.0
 10
1963.452934003133
 20
1701.714878524607
 10
1900.877523561868
 20
1701.714878524607
  0
LWPOLYLINE
  5
21C
330
1F
100
AcDbEntity
  8
0
  6
Continuous
 62
     7
370
     0
100
AcDbPolyline
 90
        2
 70
   129
 43
0.0
 10
1909.877523561872
 20
1710.714878524607
 10
1963.452934003133
 20
1710.714878524607
  0
LWPOLYLINE
  5
21D
330
1F
100
AcDbEntity
  8
0
  6
Continuous
 62
     7
370
     0
100
AcDbPolyline
 90
        2
 70
   128
 43
0.0
 10
1900.87752356187
 20
1758.220683287448
 10
1771.821055906561
 20
1758.220683287448
  0
LWPOLYLINE
  5
21E
330
1F
100
AcDbEntity
  8
0
  6
Continuous
 62
     7
370
     0
100
AcDbPolyline
 90
        2
 70
   128
 43
0.0
 10
1780.821055906561
 20
1767.220683287448
 10
1900.87752356187
 20
1767.220683287448
  0
ARC
  5
221
102
{ACAD_XDICTIONARY
360
21F
102
}
330
1F
100
AcDbEntity
  8
0
  6
$MARGINS
 62
     7
370
     0
100
AcDbCircle
 10
1776.321055887557
 20
1816.13087685803
 30
0.0
 40
36.63907829275838
100
AcDbArc
 50
268.9583733239891
 51
336.974507991472
  0
LWPOLYLINE
  5
224
102
{ACAD_XDICTIONARY
360
222
102
}
330
1F
100
AcDbEntity
  8
0
  6
Continuous
 62
     7
370
     0
100
AcDbPolyline
 90
        4
 70
   129
 43
0.0
 10
2034.548952838878
 20
1707.692279207639
 10
2036.75769425522
 20
1704.992706365444
 10
2008.682136696393
 20
1682.021795635495
 10
2006.473395280051
 20
1684.721368477692
  0
ARC
  5
227
102
{ACAD_XDICTIONARY
360
225
102
}
330
1F
100
AcDbEntity
  8
0
  6
$MARGINS
 62
     7
370
     0
100
AcDbCircle
 10
2035.567595314363
 20
1706.018677842144
 30
0.0
 40
35.98236273535291
100
AcDbArc
 50
181.5074357587743
 51
235.0975043840752
  0
LWPOLYLINE
  5
22A
102
{ACAD_XDICTIONARY
360
228
102
}
330
1F
100
AcDbEntity
  8
0
  6
Continuous
 62
     7
370
     0
100
AcDbPolyline
 90
        4
 70
   129
 43
0.0
 10
1964.783335129304
 20
1707.309679508268
 10
1962.574593712963
 20
1704.610106666075
 10
1990.65015127179
 20
1681.639195936125
 10
1992.858892688132
 20
1684.338768778319
  0
ARC
  5
22D
102
{ACAD_XDICTIONARY
360
22B
102
}
330
1F
100
AcDbEntity
  8
0
  6
$MARGINS
 62
     7
370
     0
100
AcDbCircle
 10
1963.76469265382
 20
1705.636078142773
 30
0.0
 40
35.98236273535336
100
AcDbArc
 50
304.9024956159253
 51
358.4925642412256
  0
SOLID
  5
230
102
{ACAD_XDICTIONARY
360
22E
102
}
330
1F
100
AcDbEntity
  8
0
  6
Continuous
 62
     7
100
AcDbTrace
 10
350.5336179414987
 20
1396.196874503381
 30
0.0
 11
339.8298775864639
 21
1396.196874499342
 31
0.0
 12
350.5336179461462
 22
1383.877916272134
 32
0.0
 13
339.8298775911132
 23
1383.877916268098
 33
0.0
  0
SOLID
  5
233
102
{ACAD_XDICTIONARY
360
231
102
}
330
1F
100
AcDbEntity
  8
0
  6
Continuous
 62
     7
100
AcDbTrace
 10
349.6526712441403
 20
815.9243671135189
 30
0.0
 11
338.9489308891055
 21
815.9243671094807
 31
0.0
 12
349.6526712487897
 22
803.6054088822746
 32
0.0
 13
338.9489308937548
 23
803.6054088782364
 33
0.0
  0
SOLID
  5
236
102
{ACAD_XDICTIONARY
360
234
102
}
330
1F
100
AcDbEntity
  8
0
  6
Continuous
 62
     7
100
AcDbTrace
 10
929.4060044262093
 20
815.7120913634765
 30
0.0
 11
918.7022640711745
 21
815.7120913594383
 31
0.0
 12
929.4060044308586
 22
803.3931331322285
 32
0.0
 13
918.7022640758238
 23
803.393133128194
 33
0.0
  0
SOLID
  5
239
102
{ACAD_XDICTIONARY
360
237
102
}
330
1F
100
AcDbEntity
  8
0
  6
Continuous
 62
     7
100
AcDbTrace
 10
2079.010468488073
 20
1400.673754905977
 30
0.0
 11
2068.306728133037
 21
1400.673754901937
 31
0.0
 12
2079.010468492721
 22
1388.354796674731
 32
0.0
 13
2068.306728137686
 23
1388.354796670695
 33
0.0
  0
SOLID
  5
23C
102
{ACAD_XDICTIONARY
360
23A
102
}
330
1F
100
AcDbEntity
  8
0
  6
Continuous
 62
     7
100
AcDbTrace
 10
1511.297612065815
 20
1395.513545353372
 30
0.0
 11
1500.59387171078
 21
1395.513545349334
 31
0.0
 12
1511.297612070462
 22
1383.194587122128
 32
0.0
 13
1500.593871715427
 23
1383.194587118089
 33
0.0
  0
SOLID
  5
23F
102
{ACAD_XDICTIONARY
360
23D
102
}
330
1F
100
AcDbEntity
  8
0
  6
Continuous
 62
     7
100
AcDbTrace
 10
932.2474930720451
 20
1395.905384937237
 30
0.0
 11
921.5437527170103
 21
1395.905384933199
 31
0.0
 12
932.2474930766945
 22
1383.586426705992
 32
0.0
 13
921.5437527216596
 23
1383.586426701954
 33
0.0
  0
SOLID
  5
242
102
{ACAD_XDICTIONARY
360
240
102
}
330
1F
100
AcDbEntity
  8
0
  6
Continuous
 62
     7
100
AcDbTrace
 10
1510.218630828207
 20
815.2608414175374
 30
0.0
 11
1499.514890473172
 21
815.2608414134975
 31
0.0
 12
1510.218630832854
 22
802.9418831862931
 32
0.0
 13
1499.51489047782
 23
802.941883182255
 33
0.0
  0
TEXT
  5
246
102
{ACAD_XDICTIONARY
360
244
102
}
330
1F
100
AcDbEntity
  8
0
  6
Continuous
 62
     7
100
AcDbText
 10
1833.228035956644
 20
1790.110422459437
 30
0.0
 40
15.33333333333333
  1
EXIT
 50
0.3546540169569494
  7
_TCW_TXTSTY_2
 72
     2
 11
1880.711546909021
 21
1805.737970545781
 31
0.0
100
AcDbText
 73
     3
  0
TEXT
  5
24A
102
{ACAD_XDICTIONARY
360
248
102
}
330
1F
100
AcDbEntity
  8
0
  6
Continuous
 62
     7
100
AcDbText
 10
1939.443629943568
 20
1769.623182418896
 30
0.0
 40
18.29577038023207
  1
STORAGE
 50
0.0466350967497631
  7
_TCW_TXTSTY_3
 11
1939.428738359321
 21
1787.91894673873
 31
0.0
100
AcDbText
 73
     3
  0
LWPOLYLINE
  5
24D
102
{ACAD_XDICTIONARY
360
24B
102
}
330
1F
100
AcDbEntity
  8
0
  6
Continuous
 62
     7
370
     0
100
AcDbPolyline
 90
        4
 70
     1
 43
0.0
 10
1795.795931167225
 20
1785.122936625822
 10
1775.548279898092
 20
1815.322823264532
 10
1777.736677480606
 20
1816.79004437099
 10
1797.98432874974
 20
1786.590157732281
  0
ARC
  5
250
102
{ACAD_XDICTIONARY
360
24E
102
}
330
1F
100
AcDbEntity
  8
0
  6
$MARGINS
 62
     7
370
     0
100
AcDbCircle
 10
1855.456539984616
 20
1833.527295127723
 30
0.0
 40
36.63907829275924
100
AcDbArc
 50
358.7522742548778
 51
66.76840892236001
  0
LWPOLYLINE
  5
253
102
{ACAD_XDICTIONARY
360
251
102
}
330
1F
100
AcDbEntity
  8
0
  6
Continuous
 62
     7
370
     0
100
AcDbPolyline
 90
        4
 70
     1
 43
0.0
 10
1886.534332674129
 20
1852.890505764147
 10
1856.261808598155
 20
1832.751617488554
 10
1854.802468868038
 20
1834.945278653479
 10
1885.074992944013
 20
1855.084166929072
  0
SOLID
  5
256
102
{ACAD_XDICTIONARY
360
254
102
}
330
1F
100
AcDbEntity
  8
0
  6
Continuous
 62
     7
100
AcDbTrace
 10
2077.944922275536
 20
816.2485615583751
 30
0.0
 11
2067.241181920501
 21
816.2485615543351
 31
0.0
 12
2077.944922280184
 22
803.9296033271307
 32
0.0
 13
2067.241181925149
 23
803.9296033230926
 33
0.0
  0
DIMENSION
  5
25D
102
{ACAD_XDICTIONARY
360
257
102
}
330
1F
100
AcDbEntity
  8
0
  6
Continuous
 62
     7
370
     0
100
AcDbDimension
  2
*D3
 10
919.8044536978306
 20
1390.347977897052
 30
0.0
 11
635.3452050305323
 21
1410.033246498988
 31
0.0
 70
    33
  1
<>
 71
     5
 42
568.9184973345965
 73
     0
 74
     0
 75
     0
  3
Standard
100
AcDbAlignedDimension
 13
350.8859563632341
 23
1387.978273802844
 33
0.0
 14
919.8044536978306
 24
1387.978273802844
 34
0.0
1001
ACAD
1000
DSTYLE
1002
{
1070
    41
1040
12.0
1070
   342
1005
259
1070
   176
1070
     7
1070
   177
1070
     7
1070
   178
1070
     7
1070
   271
1070
     3
1070
    43
1040
36.0
1070
    44
1040
12.0
1070
    42
1040
6.0
1070
   147
1040
6.0
1070
   277
1070
     4
1070
     3
1000

1070
    45
1040
2.0
1070
    74
1070
     1
1070
   140
1040
26.83333333333334
1070
    78
1070
    11
1070
    70
1070
     7
1002
}
  0
DIMENSION
  5
26D
102
{ACAD_XDICTIONARY
360
26B
102
}
330
1F
100
AcDbEntity
  8
0
  6
Continuous
 62
     7
370
     0
100
AcDbDimension
  2
*D4
 10
1500.699004393436
 20
1392.155588790306
 30
0.0
 11
1216.505478759256
 21
1411.840857392241
 31
0.0
 70
    32
  1
<>
 71
     5
 42
568.3870512683591
 73
     0
 74
     0
 75
     0
  3
Standard
100
AcDbAlignedDimension
 13
932.3119531250768
 23
1392.155588790306
 33
0.0
 14
1500.699004393436
 24
1392.155588790306
 34
0.0
 50
180.0
100
AcDbRotatedDimension
1001
ACAD
1000
DSTYLE
1002
{
1070
    41
1040
12.0
1070
   342
1005
259
1070
   176
1070
     7
1070
   177
1070
     7
1070
   178
1070
     7
1070
   271
1070
     3
1070
    43
1040
36.0
1070
    44
1040
12.0
1070
    42
1040
6.0
1070
   147
1040
6.0
1070
   277
1070
     4
1070
     3
1000

1070
    45
1040
2.0
1070
    74
1070
     1
1070
   140
1040
26.83333333333334
1070
    78
1070
    11
1070
    70
1070
     7
1002
}
  0
DIMENSION
  5
27C
102
{ACAD_XDICTIONARY
360
27A
102
}
330
1F
100
AcDbEntity
  8
0
  6
Continuous
 62
     7
370
     0
100
AcDbDimension
  2
*D5
 10
2068.302374341557
 20
1392.251905240624
 30
0.0
 11
1789.831152352799
 21
1398.328181516901
 31
0.0
 70
    32
  1
<>
 71
     5
 42
556.9424439775141
 73
     0
 74
     0
 75
     0
  3
Standard
100
AcDbAlignedDimension
 13
1511.359930364042
 23
1388.935236020158
 33
0.0
 14
2068.302374341557
 24
1388.935236020158
 34
0.0
 50
180.0
100
AcDbRotatedDimension
1001
ACAD
1000
DSTYLE
1002
{
1070
    41
1040
12.0
1070
   342
1005
259
1070
   176
1070
     7
1070
   177
1070
     7
1070
   178
1070
     7
1070
   271
1070
     3
1070
    43
1040
36.0
1070
    44
1040
12.0
1070
    42
1040
6.0
1070
   147
1040
6.0
1070
   277
1070
     4
1070
     3
1000

1070
    45
1040
2.0
1070
    74
1070
     1
1070
    78
1070
    11
1070
    70
1070
     7
1002
}
  0
DIMENSION
  5
28B
102
{ACAD_XDICTIONARY
360
289
102
}
330
1F
100
AcDbEntity
  8
0
  6
Continuous
 62
     7
370
     0
100
AcDbDimension
  2
*D6
 10
189.9927161670532
 20
1389.406446962224
 30
0.0
 11
264.8990125211756
 21
1409.051425273869
 31
0.0
 70
    32
  1
<>
 71
     5
 42
149.8125927082446
 73
     0
 74
     0
 75
     0
  3
Standard
100
AcDbAlignedDimension
 13
339.8053088752978
 23
1388.762914616866
 33
0.0
 14
189.9927161670532
 24
1388.762914616866
 34
0.0
100
AcDbRotatedDimension
1001
ACAD
1000
DSTYLE
1002
{
1070
    41
1040
12.0
1070
   342
1005
259
1070
   176
1070
     7
1070
   177
1070
     7
1070
   178
1070
     7
1070
   271
1070
     3
1070
    43
1040
36.0
1070
    44
1040
12.0
1070
    42
1040
6.0
1070
   147
1040
6.0
1070
   277
1070
     4
1070
     3
1000

1070
    45
1040
2.0
1070
    74
1070
     1
1070
   140
1040
26.83333333333334
1070
    78
1070
    11
1070
    70
1070
     7
1002
}
  0
DIMENSION
  5
29A
102
{ACAD_XDICTIONARY
360
298
102
}
330
1F
100
AcDbEntity
  8
0
  6
Continuous
 62
     7
370
     0
100
AcDbDimension
  2
*D7
 10
929.607688038815
 20
1830.581752465944
 30
0.0
 11
929.607688038815
 21
1613.221980330157
 31
0.0
 70
    32
  1
<>
 71
     5
 42
434.7195442715724
 73
     0
 74
     0
 75
     0
  3
Standard
100
AcDbAlignedDimension
 13
927.2379838829163
 23
1395.862208194371
 33
0.0
 14
928.0278853093434
 24
1830.581752465944
 34
0.0
 50
90.0
100
AcDbRotatedDimension
1001
ACAD
1000
DSTYLE
1002
{
1070
   342
1005
259
1070
   176
1070
     7
1070
   177
1070
     7
1070
   178
1070
     7
1070
   271
1070
     3
1070
    43
1040
36.0
1070
    44
1040
12.0
1070
    42
1040
6.0
1070
   147
1040
6.0
1070
   277
1070
     4
1070
     3
1000

1070
    45
1040
5.999999999999999
1070
    74
1070
     1
1070
    78
1070
    11
1070
    70
1070
     7
1002
}
  0
DIMENSION
  5
2AA
102
{ACAD_XDICTIONARY
360
2A8
102
}
330
1F
100
AcDbEntity
  8
0
  6
Continuous
 62
     7
370
     0
100
AcDbDimension
  2
*D8
 10
928.1332169470544
 20
261.8926946267943
 30
0.0
 11
928.1332169470544
 21
532.4281586763028
 31
0.0
 70
    32
  1
<>
 71
     5
 42
541.070928099017
 73
     0
 74
     0
 75
     0
  3
Standard
100
AcDbAlignedDimension
 13
926.553414230379
 23
802.9636227258113
 33
0.0
 14
926.553414217583
 24
261.8926946267943
 34
0.0
 50
90.0
100
AcDbRotatedDimension
1001
ACAD
1000
DSTYLE
1002
{
1070
    41
1040
12.0
1070
   342
1005
259
1070
   176
1070
     7
1070
   177
1070
     7
1070
   178
1070
     7
1070
   271
1070
     3
1070
    43
1040
36.0
1070
    44
1040
12.0
1070
    42
1040
6.0
1070
   147
1040
6.0
1070
   277
1070
     4
1070
     3
1000

1070
    45
1040
5.999999999999999
1070
    74
1070
     1
1070
   140
1040
26.83333333333334
1070
    78
1070
    11
1070
    70
1070
     7
1002
}
  0
DIMENSION
  5
2BA
102
{ACAD_XDICTIONARY
360
2B8
102
}
330
1F
100
AcDbEntity
  8
0
  6
Continuous
 62
     7
370
     0
100
AcDbDimension
  2
*D9
 10
928.69436458583
 20
815.7791190795248
 30
0.0
 11
928.69436458583
 21
1099.678739061101
 31
0.0
 70
    32
  1
<>
 71
     5
 42
567.7992399631534
 73
     0
 74
     0
 75
     0
  3
Standard
100
AcDbAlignedDimension
 13
928.793102146971
 23
1383.578359042678
 33
0.0
 14
928.69436458583
 24
815.7791190795248
 34
0.0
 50
90.0
100
AcDbRotatedDimension
1001
ACAD
1000
DSTYLE
1002
{
1070
    41
1040
12.0
1070
   342
1005
259
1070
   176
1070
     7
1070
   177
1070
     7
1070
   178
1070
     7
1070
   271
1070
     3
1070
    43
1040
36.0
1070
    44
1040
12.0
1070
    42
1040
6.0
1070
   147
1040
6.0
1070
   277
1070
     4
1070
     3
1000

1070
    45
1040
2.0
1070
    74
1070
     1
1070
   140
1040
26.83333333333334
1070
    78
1070
    11
1070
    70
1070
     7
1002
}
  0
LWPOLYLINE
  5
2CC
102
{ACAD_XDICTIONARY
360
2C8
102
}
330
1F
100
AcDbEntity
  8
0
  6
Continuous
 62
     7
370
     0
100
AcDbPolyline
 90
        4
 70
     0
 43
0.0
 10
170.2814224564498
 20
1839.415086292031
 10
1855.280312834396
 20
1839.415086292031
 10
1855.280312834396
 20
1830.415086292031
 10
1780.821055906561
 20
1830.415086292031
  0
LWPOLYLINE
  5
2CF
102
{ACAD_XDICTIONARY
360
2CA
102
}
330
1F
100
AcDbEntity
  8
0
  6
Continuous
 62
     7
370
     0
100
AcDbPolyline
 90
        2
 70
     0
 43
0.0
 10
1771.821055906561
 20
1830.415086292031
 10
189.983807701658
 20
1830.415086292031
  0
LWPOLYLINE
  5
2D2
102
{ACAD_XDICTIONARY
360
2CD
102
}
330
1F
100
AcDbEntity
  8
0
  6
Continuous
 62
     7
370
     0
100
AcDbPolyline
 90
        2
 70
     0
 43
0.0
 10
180.983807701658
 20
1830.415086292031
 10
170.2814224564498
 20
1830.415086292031
  0
LWPOLYLINE
  5
2D7
102
{ACAD_XDICTIONARY
360
2D3
102
}
330
1F
100
AcDbEntity
  8
0
  6
Continuous
 62
     7
370
     0
100
AcDbPolyline
 90
        2
 70
     0
 43
0.0
 10
1892.089518212418
 20
1839.415086292031
 10
2242.869742780603
 20
1839.415086292031
  0
LWPOLYLINE
  5
2DA
102
{ACAD_XDICTIONARY
360
2D5
102
}
330
1F
100
AcDbEntity
  8
0
  6
Continuous
 62
     7
370
     0
100
AcDbPolyline
 90
        2
 70
     0
 43
0.0
 10
2242.869742780603
 20
1830.415086292031
 10
2095.592971233054
 20
1830.415086292031
  0
LWPOLYLINE
  5
2DD
102
{ACAD_XDICTIONARY
360
2D8
102
}
330
1F
100
AcDbEntity
  8
0
  6
Continuous
 62
     7
370
     0
100
AcDbPolyline
 90
        2
 70
     0
 43
0.0
 10
2086.592971233054
 20
1830.415086292031
 10
1909.87752356187
 20
1830.415086292031
  0
LWPOLYLINE
  5
2DE
102
{ACAD_XDICTIONARY
360
2DB
102
}
330
1F
100
AcDbEntity
  8
0
  6
Continuous
 62
     7
370
     0
100
AcDbPolyline
 90
        2
 70
     1
 43
0.0
 10
1900.87752356187
 20
1830.415086292031
 10
1892.089518212418
 20
1830.415086292031
  0
LINE
  5
2E1
102
{ACAD_XDICTIONARY
360
2DF
102
}
330
1F
100
AcDbEntity
  8
0
  6
Continuous
 62
     7
370
     0
100
AcDbLine
 10
2095.604163854777
 20
1749.563741397132
 30
0.0
 11
2095.604163854777
 21
1740.505226011133
 31
0.0
  0
TEXT
  5
2E4
102
{ACAD_XDICTIONARY
360
2E2
102
}
330
1F
100
AcDbEntity
  8
0
  6
Continuous
 62
     7
100
AcDbText
 10
150.0420534242898
 20
1823.511405948664
 30
0.0
 40
15.33333333333333
  1
EXIT
 50
-89.73981335406917
  7
_TCW_TXTSTY_2
 72
     2
 11
165.5912910751363
 21
1776.002193368018
 31
0.0
100
AcDbText
 73
     3
  0
TEXT
  5
2E7
102
{ACAD_XDICTIONARY
360
2E5
102
}
330
1F
100
AcDbEntity
  8
0
  6
Continuous
 62
     7
100
AcDbText
 10
1298.499399653068
 20
223.8278726246853
 30
0.0
 40
15.33333333333333
  1
EXIT
 50
0.2601866288912027
  7
_TCW_TXTSTY_2
 72
     2
 11
1346.008612238339
 21
239.3771102614026
 31
0.0
100
AcDbText
 73
     3
  0
TEXT
  5
2EA
102
{ACAD_XDICTIONARY
360
2E8
102
}
330
1F
100
AcDbEntity
  8
0
  6
Continuous
 62
     7
100
AcDbText
 10
850.3473241756482
 20
227.5087931624875
 30
0.0
 40
15.33333333333333
  1
EXIT
 50
0.2601866288912033
  7
_TCW_TXTSTY_2
 72
     2
 11
897.856536760919
 21
243.0580307992048
 31
0.0
100
AcDbText
 73
     3
  0
TEXT
  5
2ED
102
{ACAD_XDICTIONARY
360
2EB
102
}
330
1F
100
AcDbEntity
  8
0
  6
Continuous
 62
     7
100
AcDbText
 10
2158.559350425896
 20
681.9659242766186
 30
0.0
 40
15.33333333333333
  1
EXIT
 50
-89.73981335406917
  7
_TCW_TXTSTY_2
 72
     2
 11
2174.108588076743
 21
634.4567116959721
 31
0.0
100
AcDbText
 73
     3
  0
DIMENSION
  5
2F0
102
{ACAD_XDICTIONARY
360
2EE
102
}
330
1F
100
AcDbEntity
  8
0
  6
Continuous
 62
     7
370
     0
100
AcDbDimension
  2
*D10
 10
2144.449152666423
 20
1421.133246950595
 30
0.0
 11
2144.449152666423
 21
1540.303049361942
 31
0.0
 70
    32
  1
<>
 71
     5
 42
238.3396048226932
 73
     0
 74
     0
 75
     0
  3
Standard
100
AcDbAlignedDimension
 13
2099.817991145571
 23
1659.472851773288
 33
0.0
 14
2099.817991145571
 24
1421.133246950595
 34
0.0
 50
90.0
100
AcDbRotatedDimension
1001
ACAD
1000
DSTYLE
1002
{
1070
    41
1040
12.0
1070
   342
1005
259
1070
   176
1070
     7
1070
   177
1070
     7
1070
   178
1070
     7
1070
   271
1070
     3
1070
    43
1040
36.0
1070
    44
1040
12.0
1070
    42
1040
6.0
1070
   147
1040
6.0
1070
   277
1070
     4
1070
     3
1000

1070
    45
1040
5.999999999999999
1070
    74
1070
     1
1070
   140
1040
26.83333333333334
1070
    78
1070
    11
1070
    70
1070
     7
1002
}
  0
DIMENSION
  5
300
102
{ACAD_XDICTIONARY
360
2FE
102
}
330
1F
100
AcDbEntity
  8
0
  6
Continuous
 62
     7
370
     0
100
AcDbDimension
  2
*D11
 10
737.4172772756165
 20
186.1844066439762
 30
0.0
 11
618.707589931495
 21
205.8293849556212
 31
0.0
 70
    33
  1
<>
 71
     5
 42
237.4193746882429
 73
     0
 74
     0
 75
     0
  3
Standard
100
AcDbAlignedDimension
 13
499.9979025873736
 23
238.6375243076573
 33
0.0
 14
737.4172772756165
 24
238.6375243076573
 34
0.0
1001
ACAD
1000
DSTYLE
1002
{
1070
    41
1040
12.0
1070
   342
1005
259
1070
   176
1070
     7
1070
   177
1070
     7
1070
   178
1070
     7
1070
   271
1070
     3
1070
    43
1040
36.0
1070
    44
1040
12.0
1070
    42
1040
6.0
1070
   147
1040
6.0
1070
   277
1070
     4
1070
     3
1000

1070
    45
1040
5.999999999999999
1070
    74
1070
     1
1070
   140
1040
26.83333333333334
1070
    78
1070
    11
1070
    70
1070
     7
1002
}
  0
MTEXT
  5
310
102
{ACAD_XDICTIONARY
360
30E
102
}
330
1F
100
AcDbEntity
  8
0
  6
Continuous
 62
     7
100
AcDbMText
 10
987.2597587839593
 20
166.3011847597354
 30
0.0
 40
23.0
 41
268.55859375
 46
0.0
 71
     1
 72
     1
  1
{ALLIED STUDIOS\P       STAGE 1\P  (310) 889-2050}
  7
_TCW_TXTSTY_4
 73
     1
 44
1.0
  0
MTEXT
  5
314
102
{ACAD_XDICTIONARY
360
312
102
}
330
1F
100
AcDbEntity
  8
0
  6
Continuous
 62
     7
100
AcDbMText
 10
530.031956837433
 20
173.0202625987777
 30
0.0
 40
19.16666666666666
 41
189.4775390625
 46
0.0
 71
     1
 72
     1
  1
{DOOR HEIGHT\P          14'}
  7
_TCW_TXTSTY_5
 73
     1
 44
1.0
  0
MTEXT
  5
318
102
{ACAD_XDICTIONARY
360
316
102
}
330
1F
100
AcDbEntity
  8
0
  6
Continuous
 62
     7
100
AcDbMText
 10
2204.000137008793
 20
1422.865256047297
 30
0.0
 40
19.16666666666666
 41
207.3674579034559
 46
0.0
 71
     1
 72
     1
  1
{DOOR HEIGHT\P          14'}
  7
_TCW_TXTSTY_6
 11
6.123233995736766E-17
 21
1.0
 31
0.0
 73
     1
 44
1.0
  0
MTEXT
  5
31B
102
{ACAD_XDICTIONARY
360
319
102
}
330
1F
100
AcDbEntity
  8
0
  6
Continuous
 62
     7
100
AcDbMText
 10
293.4392883035443
 20
144.6141446340169
 30
0.0
 40
15.33333333333333
 41
213.66796875
 46
0.0
 71
     1
 72
     1
  1
{TO BREEZWAY AND \P SUPPORT SPACE}
  7
_TCW_TXTSTY_2
 73
     1
 44
1.0
  0
MTEXT
  5
31E
102
{ACAD_XDICTIONARY
360
31C
102
}
330
1F
100
AcDbEntity
  8
0
  6
Continuous
 62
     7
100
AcDbMText
 10
2165.959532129855
 20
1697.826944027535
 30
0.0
 40
15.33333333333333
 41
226.81640625
 46
0.0
 71
     1
 72
     1
  1
{TO BREEZWAY AND\PEAST LOADING DOCK}
  7
_TCW_TXTSTY_2
 73
     1
 44
1.0
  0
LWPOLYLINE
  5
321
102
{ACAD_XDICTIONARY
360
31F
102
}
330
1F
100
AcDbEntity
  8
0
  6
$INVISIBLE
 62
     7
370
     0
100
AcDbPolyline
 90
        4
 70
     1
 43
0.0
 10
1738.793018416772
 20
1429.216076414
 10
1844.450909725976
 20
1429.216076414
 10
1844.450909725976
 20
1395.638356718278
 10
1738.793018416772
 20
1395.638356718278
  0
TEXT
  5
325
102
{ACAD_XDICTIONARY
360
323
102
}
330
1F
100
AcDbEntity
  8
0
  6
Continuous
 62
     7
100
AcDbText
 10
1750.18146175186
 20
1398.740515023091
 30
0.0
 40
26.83333333333333
  1
47'-4"
  7
_TCW_TXTSTY_7
 11
1750.18146175186
 21
1425.573848356424
 31
0.0
100
AcDbText
 73
     3
  0
TEXT
  5
328
102
{ACAD_XDICTIONARY
360
326
102
}
330
1F
100
AcDbEntity
  8
0
  6
Continuous
 62
     7
100
AcDbText
 10
884.771699541961
 20
1601.102239040752
 30
0.0
 40
26.83333333333333
  1
37'-5"
  7
_TCW_TXTSTY_7
 11
884.771699541961
 21
1627.935572374085
 31
0.0
100
AcDbText
 73
     3
  0
LWPOLYLINE
  5
32B
102
{ACAD_REACTORS
330
341
102
}
102
{ACAD_XDICTIONARY
360
329
102
}
330
1F
100
AcDbEntity
  8
0
  6
Continuous
 62
     7
370
     0
100
AcDbPolyline
 90
        4
 70
     1
 43
0.0
 10
1472.029590120198
 20
157.8478724187382
 10
2072.029590120198
 20
157.8478724187382
 10
2072.029590120198
 20
121.8478724187382
 10
1472.029590120198
 20
121.8478724187382
  0
SOLID
  5
32E
102
{ACAD_REACTORS
330
341
102
}
102
{ACAD_XDICTIONARY
360
32C
102
}
330
1F
100
AcDbEntity
  8
0
  6
Continuous
 62
     7
100
AcDbTrace
 10
1772.029348631076
 20
139.8477700931546
 30
0.0
 11
2072.029348631076
 21
139.8477700931546
 31
0.0
 12
1772.029348631076
 22
121.8477700931546
 32
0.0
 13
2072.029348631076
 23
121.8477700931546
 33
0.0
  0
SOLID
  5
331
102
{ACAD_REACTORS
330
341
102
}
102
{ACAD_XDICTIONARY
360
32F
102
}
330
1F
100
AcDbEntity
  8
0
  6
Continuous
 62
     7
100
AcDbTrace
 10
1472.031054780074
 20
139.8486687554407
 30
0.0
 11
1592.031054780074
 21
139.8486687554407
 31
0.0
 12
1472.031054780074
 22
121.8486687554407
 32
0.0
 13
1592.031054780074
 23
121.8486687554407
 33
0.0
  0
SOLID
  5
334
102
{ACAD_REACTORS
330
341
102
}
102
{ACAD_XDICTIONARY
360
332
102
}
330
1F
100
AcDbEntity
  8
0
  6
Continuous
 62
     7
100
AcDbTrace
 10
1592.030771758767
 20
157.8484241032813
 30
0.0
 11
1772.029590075094
 21
157.8484241032813
 31
0.0
 12
1592.030771758767
 22
139.8484241032813
 32
0.0
 13
1772.029590075094
 23
139.8484241032813
 33
0.0
  0
TEXT
  5
337
102
{ACAD_REACTORS
330
341
102
}
102
{ACAD_XDICTIONARY
360
335
102
}
330
1F
100
AcDbEntity
  8
0
  6
Continuous
 62
     7
100
AcDbText
 10
1465.910183119979
 20
99.87226741407441
 30
0.0
 40
15.33333333333333
  1
0'
  7
_TCW_TXTSTY_2
 11
1465.910183119979
 21
115.2056007474077
 31
0.0
100
AcDbText
 73
     3
  0
TEXT
  5
33A
102
{ACAD_REACTORS
330
341
102
}
102
{ACAD_XDICTIONARY
360
338
102
}
330
1F
100
AcDbEntity
  8
0
  6
Continuous
 62
     7
100
AcDbText
 10
1576.797914321271
 20
100.2748680978975
 30
0.0
 40
15.33333333333333
  1
10'+/-
  7
_TCW_TXTSTY_2
 11
1576.797914321271
 21
115.6082014312308
 31
0.0
100
AcDbText
 73
     3
  0
TEXT
  5
33D
102
{ACAD_REACTORS
330
341
102
}
102
{ACAD_XDICTIONARY
360
33B
102
}
330
1F
100
AcDbEntity
  8
0
  6
Continuous
 62
     7
100
AcDbText
 10
1758.773423408868
 20
100.2173537144935
 30
0.0
 40
15.33333333333333
  1
25'+/-
  7
_TCW_TXTSTY_2
 11
1758.773423408868
 21
115.5506870478268
 31
0.0
100
AcDbText
 73
     3
  0
TEXT
  5
340
102
{ACAD_REACTORS
330
341
102
}
102
{ACAD_XDICTIONARY
360
33E
102
}
330
1F
100
AcDbEntity
  8
0
  6
Continuous
 62
     7
100
AcDbText
 10
2039.688956716675
 20
98.94779285409088
 30
0.0
 40
15.33333333333333
  1
50'+/-
  7
_TCW_TXTSTY_2
 11
2039.688956716675
 21
114.2811261874242
 31
0.0
100
AcDbText
 73
     3
  0
MTEXT
  5
346
102
{ACAD_XDICTIONARY
360
344
102
}
330
1F
100
AcDbEntity
  8
0
  6
Continuous
 62
     7
100
AcDbMText
 10
956.6280195709892
 20
20.07501837569551
 30
0.0
 40
26.83333333333333
 41
1161.521484375
 46
0.0
 71
     1
 72
     1
  1
{MEASUREMENTS ARE ONLY AN APPROXIMATION AND SHOULD\P       NOT BE RELIED UPON FOR PRODUCTION PURPOSES.}
  7
_TCW_TXTSTY_7
 73
     1
 44
1.0
  0
VIEWPORT
  5
347
330
1B
100
AcDbEntity
 67
     1
  8
0
100
AcDbViewport
 10
5.30552685260781
 20
4.57605926195781
 30
0.0
 40
11.59299190839062
 41
10.43369309107396
 68
     1
 69
     1
 12
5.30552685260781
 22
4.57605926195781
 13
0.0
 23
0.0
 14
50.0
 24
50.0
 15
50.0
 25
50.0
 16
0.0
 26
0.0
 36
1.0
 17
0.0
 27
0.0
 37
0.0
 42
50.0
 43
0.0
 44
0.0
 45
10.43369309107396
 50
0.0
 51
0.0
 72
  1000
 90
    33312
  1

281
     0
 71
     1
 74
     0
110
0.0
120
0.0
130
0.0
111
1.0
121
0.0
131
0.0
112
0.0
122
1.0
132
0.0
 79
     0
146
0.0
170
     0
 61
     5
292
     1
282
     1
141
0.0
142
0.0
 63
   256
  0
VIEWPORT
  5
348
330
1B
100
AcDbEntity
 67
     1
  8
0
  6
Continuous
100
AcDbViewport
 10
5.5
 20
4.25
 30
0.0
 40
11.0
 41
8.5
 68
     2
 69
     2
 12
504.0
 22
384.0
 13
0.0
 23
0.0
 14
0.5
 24
0.5
 15
0.0
 25
0.0
 16
0.0
 26
0.0
 36
1.0
 17
0.0
 27
0.0
 37
0.0
 42
50.0
 43
0.0
 44
0.0
 45
816.0
 50
0.0
 51
0.0
 72
   100
 90
   557152
  1

281
     0
 71
     1
 74
     0
110
0.0
120
0.0
130
0.0
111
1.0
121
0.0
131
0.0
112
0.0
122
1.0
132
0.0
 79
     0
146
0.0
170
     0
 61
     5
292
     1
282
     1
141
0.0
142
0.0
 63
   256
  0
ENDSEC
  0
SECTION
  2
OBJECTS
  0
DICTIONARY
  5
C
330
0
100
AcDbDictionary
281
     1
  3
ACAD_GROUP
350
D
  3
ACAD_LAYOUT
350
1A
  3
ACAD_MATERIAL
350
3B
  3
ACAD_MLEADERSTYLE
350
164
  3
ACAD_MLINESTYLE
350
17
  3
ACAD_PLOTSETTINGS
350
19
  3
ACAD_PLOTSTYLENAME
350
E
  3
ACAD_SCALELIST
350
349
  3
ACAD_TABLESTYLE
350
176
  3
ACAD_VISUALSTYLE
350
2A
  3
ACDB_RECOMPOSE_DATA
350
38F
  3
AcDbVariableDictionary
350
36B
  3
TC_CUSTOM_TABLES
350
163
  0
DICTIONARY
  5
17F
330
181
100
AcDbDictionary
280
     1
281
     1
  3
TC_EXTENDED_DATA
360
180
  0
DICTIONARY
  5
182
330
184
100
AcDbDictionary
280
     1
281
     1
  3
TC_EXTENDED_DATA
360
183
  0
DICTIONARY
  5
18C
330
18E
100
AcDbDictionary
280
     1
281
     1
  3
TC_EXTENDED_DATA
360
18D
  0
DICTIONARY
  5
18F
330
191
100
AcDbDictionary
280
     1
281
     1
  3
TC_EXTENDED_DATA
360
190
  0
DICTIONARY
  5
199
330
19B
100
AcDbDictionary
280
     1
281
     1
  3
TC_EXTENDED_DATA
360
19A
  0
DICTIONARY
  5
19C
330
19E
100
AcDbDictionary
280
     1
281
     1
  3
TC_EXTENDED_DATA
360
19D
  0
DICTIONARY
  5
1A6
330
1A8
100
AcDbDictionary
280
     1
281
     1
  3
TC_EXTENDED_DATA
360
1A7
  0
DICTIONARY
  5
1A9
330
1AB
100
AcDbDictionary
280
     1
281
     1
  3
TC_EXTENDED_DATA
360
1AA
  0
DICTIONARY
  5
1AD
330
1AF
100
AcDbDictionary
280
     1
281
     1
  3
TC_EXTENDED_DATA
360
1AE
  0
DICTIONARY
  5
1D0
330
1D2
100
AcDbDictionary
280
     1
281
     1
  3
TC_EXTENDED_DATA
360
1D1
  0
DICTIONARY
  5
1D3
330
1D5
100
AcDbDictionary
280
     1
281
     1
  3
TC_EXTENDED_DATA
360
1D4
  0
DICTIONARY
  5
1D6
330
1D8
100
AcDbDictionary
280
     1
281
     1
  3
TC_EXTENDED_DATA
360
1D7
  0
DICTIONARY
  5
1D9
330
1DB
100
AcDbDictionary
280
     1
281
     1
  3
TC_EXTENDED_DATA
360
1DA
  0
DICTIONARY
  5
1DC
330
1DE
100
AcDbDictionary
280
     1
281
     1
  3
TC_EXTENDED_DATA
360
1DD
  0
DICTIONARY
  5
1DF
330
1E1
100
AcDbDictionary
280
     1
281
     1
  3
TC_EXTENDED_DATA
360
1E0
  0
DICTIONARY
  5
1E2
330
1E4
100
AcDbDictionary
280
     1
281
     1
  3
TC_EXTENDED_DATA
360
1E3
  0
DICTIONARY
  5
1E5
330
1E7
100
AcDbDictionary
280
     1
281
     1
  3
TC_EXTENDED_DATA
360
1E6
  0
DICTIONARY
  5
1E8
330
1EA
100
AcDbDictionary
280
     1
281
     1
  3
TC_EXTENDED_DATA
360
1E9
  0
DICTIONARY
  5
1EB
330
1ED
100
AcDbDictionary
280
     1
281
     1
  3
TC_EXTENDED_DATA
360
1EC
  0
DICTIONARY
  5
1EE
330
1F0
100
AcDbDictionary
280
     1
281
     1
  3
TC_EXTENDED_DATA
360
1EF
  0
DICTIONARY
  5
1F1
330
1F3
100
AcDbDictionary
280
     1
281
     1
  3
TC_EXTENDED_DATA
360
1F2
  0
DICTIONARY
  5
1F4
330
1F6
100
AcDbDictionary
280
     1
281
     1
  3
TC_EXTENDED_DATA
360
1F5
  0
DICTIONARY
  5
1F7
330
1F9
100
AcDbDictionary
280
     1
281
     1
  3
TC_EXTENDED_DATA
360
1F8
  0
DICTIONARY
  5
20B
330
20D
100
AcDbDictionary
280
     1
281
     1
  3
TC_EXTENDED_DATA
360
20C
  0
DICTIONARY
  5
20E
330
210
100
AcDbDictionary
280
     1
281
     1
  3
TC_EXTENDED_DATA
360
20F
  0
DICTIONARY
  5
21F
330
221
100
AcDbDictionary
280
     1
281
     1
  3
TC_EXTENDED_DATA
360
220
  0
DICTIONARY
  5
222
330
224
100
AcDbDictionary
280
     1
281
     1
  3
TC_EXTENDED_DATA
360
223
  0
DICTIONARY
  5
225
330
227
100
AcDbDictionary
280
     1
281
     1
  3
TC_EXTENDED_DATA
360
226
  0
DICTIONARY
  5
228
330
22A
100
AcDbDictionary
280
     1
281
     1
  3
TC_EXTENDED_DATA
360
229
  0
DICTIONARY
  5
22B
330
22D
100
AcDbDictionary
280
     1
281
     1
  3
TC_EXTENDED_DATA
360
22C
  0
DICTIONARY
  5
22E
330
230
100
AcDbDictionary
280
     1
281
     1
  3
TC_EXTENDED_DATA
360
22F
  0
DICTIONARY
  5
231
330
233
100
AcDbDictionary
280
     1
281
     1
  3
TC_EXTENDED_DATA
360
232
  0
DICTIONARY
  5
234
330
236
100
AcDbDictionary
280
     1
281
     1
  3
TC_EXTENDED_DATA
360
235
  0
DICTIONARY
  5
237
330
239
100
AcDbDictionary
280
     1
281
     1
  3
TC_EXTENDED_DATA
360
238
  0
DICTIONARY
  5
23A
330
23C
100
AcDbDictionary
280
     1
281
     1
  3
TC_EXTENDED_DATA
360
23B
  0
DICTIONARY
  5
23D
330
23F
100
AcDbDictionary
280
     1
281
     1
  3
TC_EXTENDED_DATA
360
23E
  0
DICTIONARY
  5
240
330
242
100
AcDbDictionary
280
     1
281
     1
  3
TC_EXTENDED_DATA
360
241
  0
DICTIONARY
  5
244
330
246
100
AcDbDictionary
280
     1
281
     1
  3
TC_EXTENDED_DATA
360
245
  0
DICTIONARY
  5
248
330
24A
100
AcDbDictionary
280
     1
281
     1
  3
TC_EXTENDED_DATA
360
249
  0
DICTIONARY
  5
24B
330
24D
100
AcDbDictionary
280
     1
281
     1
  3
TC_EXTENDED_DATA
360
24C
  0
DICTIONARY
  5
24E
330
250
100
AcDbDictionary
280
     1
281
     1
  3
TC_EXTENDED_DATA
360
24F
  0
DICTIONARY
  5
251
330
253
100
AcDbDictionary
280
     1
281
     1
  3
TC_EXTENDED_DATA
360
252
  0
DICTIONARY
  5
254
330
256
100
AcDbDictionary
280
     1
281
     1
  3
TC_EXTENDED_DATA
360
255
  0
DICTIONARY
  5
257
330
25D
100
AcDbDictionary
280
     1
281
     1
  3
TC_EXTENDED_DATA
360
258
  0
DICTIONARY
  5
26B
330
26D
100
AcDbDictionary
280
     1
281
     1
  3
TC_EXTENDED_DATA
360
26C
  0
DICTIONARY
  5
27A
330
27C
100
AcDbDictionary
280
     1
281
     1
  3
TC_EXTENDED_DATA
360
27B
  0
DICTIONARY
  5
289
330
28B
100
AcDbDictionary
280
     1
281
     1
  3
TC_EXTENDED_DATA
360
28A
  0
DICTIONARY
  5
298
330
29A
100
AcDbDictionary
280
     1
281
     1
  3
TC_EXTENDED_DATA
360
299
  0
DICTIONARY
  5
2A8
330
2AA
100
AcDbDictionary
280
     1
281
     1
  3
TC_EXTENDED_DATA
360
2A9
  0
DICTIONARY
  5
2B8
330
2BA
100
AcDbDictionary
280
     1
281
     1
  3
TC_EXTENDED_DATA
360
2B9
  0
DICTIONARY
  5
2C8
330
2CC
100
AcDbDictionary
280
     1
281
     1
  3
TC_EXTENDED_DATA
360
2C9
  0
DICTIONARY
  5
2CA
330
2CF
100
AcDbDictionary
280
     1
281
     1
  3
TC_EXTENDED_DATA
360
2CB
  0
DICTIONARY
  5
2CD
330
2D2
100
AcDbDictionary
280
     1
281
     1
  3
TC_EXTENDED_DATA
360
2CE
  0
DICTIONARY
  5
2D3
330
2D7
100
AcDbDictionary
280
     1
281
     1
  3
TC_EXTENDED_DATA
360
2D4
  0
DICTIONARY
  5
2D5
330
2DA
100
AcDbDictionary
280
     1
281
     1
  3
TC_EXTENDED_DATA
360
2D6
  0
DICTIONARY
  5
2D8
330
2DD
100
AcDbDictionary
280
     1
281
     1
  3
TC_EXTENDED_DATA
360
2D9
  0
DICTIONARY
  5
2DB
330
2DE
100
AcDbDictionary
280
     1
281
     1
  3
TC_EXTENDED_DATA
360
2DC
  0
DICTIONARY
  5
2DF
330
2E1
100
AcDbDictionary
280
     1
281
     1
  3
TC_EXTENDED_DATA
360
2E0
  0
DICTIONARY
  5
2E2
330
2E4
100
AcDbDictionary
280
     1
281
     1
  3
TC_EXTENDED_DATA
360
2E3
  0
DICTIONARY
  5
2E5
330
2E7
100
AcDbDictionary
280
     1
281
     1
  3
TC_EXTENDED_DATA
360
2E6
  0
DICTIONARY
  5
2E8
330
2EA
100
AcDbDictionary
280
     1
281
     1
  3
TC_EXTENDED_DATA
360
2E9
  0
DICTIONARY
  5
2EB
330
2ED
100
AcDbDictionary
280
     1
281
     1
  3
TC_EXTENDED_DATA
360
2EC
  0
DICTIONARY
  5
2EE
330
2F0
100
AcDbDictionary
280
     1
281
     1
  3
TC_EXTENDED_DATA
360
2EF
  0
DICTIONARY
  5
2FE
330
300
100
AcDbDictionary
280
     1
281
     1
  3
TC_EXTENDED_DATA
360
2FF
  0
DICTIONARY
  5
30E
330
310
100
AcDbDictionary
280
     1
281
     1
  3
TC_EXTENDED_DATA
360
30F
  0
DICTIONARY
  5
312
330
314
100
AcDbDictionary
280
     1
281
     1
  3
TC_EXTENDED_DATA
360
313
  0
DICTIONARY
  5
316
330
318
100
AcDbDictionary
280
     1
281
     1
  3
TC_EXTENDED_DATA
360
317
  0
DICTIONARY
  5
319
330
31B
100
AcDbDictionary
280
     1
281
     1
  3
TC_EXTENDED_DATA
360
31A
  0
DICTIONARY
  5
31C
330
31E
100
AcDbDictionary
280
     1
281
     1
  3
TC_EXTENDED_DATA
360
31D
  0
DICTIONARY
  5
31F
330
321
100
AcDbDictionary
280
     1
281
     1
  3
TC_EXTENDED_DATA
360
320
  0
DICTIONARY
  5
323
330
325
100
AcDbDictionary
280
     1
281
     1
  3
TC_EXTENDED_DATA
360
324
  0
DICTIONARY
  5
326
330
328
100
AcDbDictionary
280
     1
281
     1
  3
TC_EXTENDED_DATA
360
327
  0
DICTIONARY
  5
329
330
32B
100
AcDbDictionary
280
     1
281
     1
  3
TC_EXTENDED_DATA
360
32A
  0
DICTIONARY
  5
32C
330
32E
100
AcDbDictionary
280
     1
281
     1
  3
TC_EXTENDED_DATA
360
32D
  0
DICTIONARY
  5
32F
330
331
100
AcDbDictionary
280
     1
281
     1
  3
TC_EXTENDED_DATA
360
330
  0
DICTIONARY
  5
332
330
334
100
AcDbDictionary
280
     1
281
     1
  3
TC_EXTENDED_DATA
360
333
  0
DICTIONARY
  5
335
330
337
100
AcDbDictionary
280
     1
281
     1
  3
TC_EXTENDED_DATA
360
336
  0
DICTIONARY
  5
338
330
33A
100
AcDbDictionary
280
     1
281
     1
  3
TC_EXTENDED_DATA
360
339
  0
DICTIONARY
  5
33B
330
33D
100
AcDbDictionary
280
     1
281
     1
  3
TC_EXTENDED_DATA
360
33C
  0
DICTIONARY
  5
33E
330
340
100
AcDbDictionary
280
     1
281
     1
  3
TC_EXTENDED_DATA
360
33F
  0
DICTIONARY
  5
344
330
346
100
AcDbDictionary
280
     1
281
     1
  3
TC_EXTENDED_DATA
360
345
  0
DICTIONARY
  5
D
102
{ACAD_REACTORS
330
C
102
}
330
C
100
AcDbDictionary
281
     1
  3
scale
350
341
  0
DICTIONARY
  5
1A
102
{ACAD_REACTORS
330
C
102
}
330
C
100
AcDbDictionary
281
     1
  3
Model
350
22
  3
Paper 1
350
1E
  0
DICTIONARY
  5
3B
102
{ACAD_REACTORS
330
C
102
}
330
C
100
AcDbDictionary
281
     1
  3
ByBlock
350
3D
  3
ByLayer
350
3C
  3
Global
350
3E
  0
DICTIONARY
  5
164
102
{ACAD_REACTORS
330
C
102
}
330
C
100
AcDbDictionary
281
     1
  3
Standard
350
165
  0
DICTIONARY
  5
17
102
{ACAD_REACTORS
330
C
102
}
330
C
100
AcDbDictionary
281
     1
  3
Standard
350
18
  0
DICTIONARY
  5
19
102
{ACAD_REACTORS
330
C
102
}
330
C
100
AcDbDictionary
281
     1
  0
ACDBDICTIONARYWDFLT
  5
E
102
{ACAD_REACTORS
330
C
102
}
330
C
100
AcDbDictionary
281
     1
  3
Normal
350
F
100
AcDbDictionaryWithDefault
340
F
  0
DICTIONARY
  5
349
102
{ACAD_REACTORS
330
C
102
}
330
C
100
AcDbDictionary
281
     1
  3
A0
350
34A
  3
A1
350
34B
  3
A2
350
34C
  3
A3
350
34D
  3
A4
350
34E
  3
A5
350
34F
  3
A6
350
350
  3
A7
350
351
  3
A8
350
352
  3
A9
350
353
  3
B0
350
354
  3
B1
350
355
  3
B2
350
356
  3
B3
350
357
  3
B4
350
358
  3
B5
350
359
  3
B6
350
35A
  3
B7
350
35B
  3
B8
350
35C
  3
B9
350
35D
  3
C0
350
35E
  3
C1
350
35F
  3
C2
350
360
  3
C3
350
361
  3
C4
350
362
  3
C5
350
363
  3
C6
350
364
  3
C7
350
365
  3
C8
350
366
  3
C9
350
367
  3
D0
350
368
  3
D1
350
369
  3
D2
350
36A
  0
DICTIONARY
  5
176
102
{ACAD_REACTORS
330
C
102
}
330
C
100
AcDbDictionary
281
     1
  3
Standard
350
177
  0
DICTIONARY
  5
2A
102
{ACAD_REACTORS
330
C
102
}
330
C
100
AcDbDictionary
281
     1
  3
2dWireframe
350
2F
  3
3D Hidden
350
31
  3
3dWireframe
350
30
  3
Basic
350
32
  3
Brighten
350
36
  3
ColorChange
350
3A
  3
Conceptual
350
34
  3
Dim
350
35
  3
Facepattern
350
39
  3
Flat
350
2B
  3
FlatWithEdges
350
2C
  3
Gouraud
350
2D
  3
GouraudWithEdges
350
2E
  3
Linepattern
350
38
  3
Realistic
350
33
  3
Thicken
350
37
  0
XRECORD
  5
38F
102
{ACAD_REACTORS
330
C
102
}
330
C
100
AcDbXrecord
280
     1
 90
        1
330
177
  0
DICTIONARY
  5
36B
102
{ACAD_REACTORS
330
C
102
}
330
C
100
AcDbDictionary
281
     1
  3
CANNOSCALE
350
36C
  0
DICTIONARY
  5
163
102
{ACAD_REACTORS
330
C
102
}
330
C
100
AcDbDictionary
281
     1
  0
TCOPTIONALDATA
  5
180
102
{ACAD_REACTORS
330
17F
102
}
330
17F
100
TcOptionalData
 70
     2
 70
   128
 90
        1
  1
#$AUX@_ToolInfo Properties
 70
     8
 90
       14
310
434D445F52454354414E474C4540
  0
TCOPTIONALDATA
  5
183
102
{ACAD_REACTORS
330
182
102
}
330
182
100
TcOptionalData
 70
     2
 70
   128
 90
        1
  1
#$AUX@_ToolInfo Properties
 70
     8
 90
       16
310
434D445F43454E544552505441524340
  0
TCOPTIONALDATA
  5
18D
102
{ACAD_REACTORS
330
18C
102
}
330
18C
100
TcOptionalData
 70
     2
 70
   128
 90
        1
  1
#$AUX@_ToolInfo Properties
 70
     8
 90
       14
310
434D445F52454354414E474C4540
  0
TCOPTIONALDATA
  5
190
102
{ACAD_REACTORS
330
18F
102
}
330
18F
100
TcOptionalData
 70
     2
 70
   128
 90
        1
  1
#$AUX@_ToolInfo Properties
 70
     8
 90
       16
310
434D445F43454E544552505441524340
  0
TCOPTIONALDATA
  5
19A
102
{ACAD_REACTORS
330
199
102
}
330
199
100
TcOptionalData
 70
     2
 70
   128
 90
        1
  1
#$AUX@_ToolInfo Properties
 70
     8
 90
       14
310
434D445F52454354414E474C4540
  0
TCOPTIONALDATA
  5
19D
102
{ACAD_REACTORS
330
19C
102
}
330
19C
100
TcOptionalData
 70
     2
 70
   128
 90
        1
  1
#$AUX@_ToolInfo Properties
 70
     8
 90
       16
310
434D445F43454E544552505441524340
  0
TCOPTIONALDATA
  5
1A7
102
{ACAD_REACTORS
330
1A6
102
}
330
1A6
100
TcOptionalData
 70
     2
 70
   128
 90
        1
  1
#$AUX@_ToolInfo Properties
 70
     8
 90
       14
310
434D445F52454354414E474C4540
  0
TCOPTIONALDATA
  5
1AA
102
{ACAD_REACTORS
330
1A9
102
}
330
1A9
100
TcOptionalData
 70
     2
 70
   128
 90
        1
  1
#$AUX@_ToolInfo Properties
 70
     8
 90
       16
310
434D445F43454E544552505441524340
  0
TCOPTIONALDATA
  5
1AE
102
{ACAD_REACTORS
330
1AD
102
}
330
1AD
100
TcOptionalData
 70
     2
 70
   144
 90
        1
  1
#$AUX@_ToolInfo Properties
 70
     8
 90
        9
310
434D445F5445585440
  1
Arial
 70
     0
  0
TCOPTIONALDATA
  5
1D1
102
{ACAD_REACTORS
330
1D0
102
}
330
1D0
100
TcOptionalData
 70
     2
 70
   128
 90
        1
  1
#$AUX@_ToolInfo Properties
 70
     8
 90
       14
310
434D445F52454354414E474C4540
  0
TCOPTIONALDATA
  5
1D4
102
{ACAD_REACTORS
330
1D3
102
}
330
1D3
100
TcOptionalData
 70
     2
 70
   128
 90
        1
  1
#$AUX@_ToolInfo Properties
 70
     8
 90
       16
310
434D445F43454E544552505441524340
  0
TCOPTIONALDATA
  5
1D7
102
{ACAD_REACTORS
330
1D6
102
}
330
1D6
100
TcOptionalData
 70
     2
 70
   128
 90
        1
  1
#$AUX@_ToolInfo Properties
 70
     8
 90
       14
310
434D445F52454354414E474C4540
  0
TCOPTIONALDATA
  5
1DA
102
{ACAD_REACTORS
330
1D9
102
}
330
1D9
100
TcOptionalData
 70
     2
 70
   128
 90
        1
  1
#$AUX@_ToolInfo Properties
 70
     8
 90
       16
310
434D445F43454E544552505441524340
  0
TCOPTIONALDATA
  5
1DD
102
{ACAD_REACTORS
330
1DC
102
}
330
1DC
100
TcOptionalData
 70
     2
 70
   128
 90
        1
  1
#$AUX@_ToolInfo Properties
 70
     8
 90
       14
310
434D445F52454354414E474C4540
  0
TCOPTIONALDATA
  5
1E0
102
{ACAD_REACTORS
330
1DF
102
}
330
1DF
100
TcOptionalData
 70
     2
 70
   128
 90
        1
  1
#$AUX@_ToolInfo Properties
 70
     8
 90
       16
310
434D445F43454E544552505441524340
  0
TCOPTIONALDATA
  5
1E3
102
{ACAD_REACTORS
330
1E2
102
}
330
1E2
100
TcOptionalData
 70
     2
 70
   128
 90
        1
  1
#$AUX@_ToolInfo Properties
 70
     8
 90
       14
310
434D445F52454354414E474C4540
  0
TCOPTIONALDATA
  5
1E6
102
{ACAD_REACTORS
330
1E5
102
}
330
1E5
100
TcOptionalData
 70
     2
 70
   128
 90
        1
  1
#$AUX@_ToolInfo Properties
 70
     8
 90
       16
310
434D445F43454E544552505441524340
  0
TCOPTIONALDATA
  5
1E9
102
{ACAD_REACTORS
330
1E8
102
}
330
1E8
100
TcOptionalData
 70
     2
 70
   128
 90
        1
  1
#$AUX@_ToolInfo Properties
 70
     8
 90
       14
310
434D445F52454354414E474C4540
  0
TCOPTIONALDATA
  5
1EC
102
{ACAD_REACTORS
330
1EB
102
}
330
1EB
100
TcOptionalData
 70
     2
 70
   128
 90
        1
  1
#$AUX@_ToolInfo Properties
 70
     8
 90
       14
310
434D445F52454354414E474C4540
  0
TCOPTIONALDATA
  5
1EF
102
{ACAD_REACTORS
330
1EE
102
}
330
1EE
100
TcOptionalData
 70
     2
 70
   128
 90
        1
  1
#$AUX@_ToolInfo Properties
 70
     8
 90
       14
310
434D445F52454354414E474C4540
  0
TCOPTIONALDATA
  5
1F2
102
{ACAD_REACTORS
330
1F1
102
}
330
1F1
100
TcOptionalData
 70
     2
 70
   128
 90
        1
  1
#$AUX@_ToolInfo Properties
 70
     8
 90
       14
310
434D445F52454354414E474C4540
  0
TCOPTIONALDATA
  5
1F5
102
{ACAD_REACTORS
330
1F4
102
}
330
1F4
100
TcOptionalData
 70
     2
 70
   128
 90
        1
  1
#$AUX@_ToolInfo Properties
 70
     8
 90
       14
310
434D445F52454354414E474C4540
  0
TCOPTIONALDATA
  5
1F8
102
{ACAD_REACTORS
330
1F7
102
}
330
1F7
100
TcOptionalData
 70
     2
 70
   128
 90
        1
  1
#$AUX@_ToolInfo Properties
 70
     8
 90
       14
310
434D445F52454354414E474C4540
  0
TCOPTIONALDATA
  5
20C
102
{ACAD_REACTORS
330
20B
102
}
330
20B
100
TcOptionalData
 70
     2
 70
   128
 90
        1
  1
#$AUX@_ToolInfo Properties
 70
     8
 90
       14
310
434D445F52454354414E474C4540
  0
TCOPTIONALDATA
  5
20F
102
{ACAD_REACTORS
330
20E
102
}
330
20E
100
TcOptionalData
 70
     2
 70
   128
 90
        1
  1
#$AUX@_ToolInfo Properties
 70
     8
 90
       16
310
434D445F43454E544552505441524340
  0
TCOPTIONALDATA
  5
220
102
{ACAD_REACTORS
330
21F
102
}
330
21F
100
TcOptionalData
 70
     2
 70
   128
 90
        1
  1
#$AUX@_ToolInfo Properties
 70
     8
 90
       16
310
434D445F43454E544552505441524340
  0
TCOPTIONALDATA
  5
223
102
{ACAD_REACTORS
330
222
102
}
330
222
100
TcOptionalData
 70
     2
 70
   128
 90
        1
  1
#$AUX@_ToolInfo Properties
 70
     8
 90
       14
310
434D445F52454354414E474C4540
  0
TCOPTIONALDATA
  5
226
102
{ACAD_REACTORS
330
225
102
}
330
225
100
TcOptionalData
 70
     2
 70
   128
 90
        1
  1
#$AUX@_ToolInfo Properties
 70
     8
 90
       16
310
434D445F43454E544552505441524340
  0
TCOPTIONALDATA
  5
229
102
{ACAD_REACTORS
330
228
102
}
330
228
100
TcOptionalData
 70
     2
 70
   128
 90
        1
  1
#$AUX@_ToolInfo Properties
 70
     8
 90
       14
310
434D445F52454354414E474C4540
  0
TCOPTIONALDATA
  5
22C
102
{ACAD_REACTORS
330
22B
102
}
330
22B
100
TcOptionalData
 70
     2
 70
   128
 90
        1
  1
#$AUX@_ToolInfo Properties
 70
     8
 90
       16
310
434D445F43454E544552505441524340
  0
TCOPTIONALDATA
  5
22F
102
{ACAD_REACTORS
330
22E
102
}
330
22E
100
TcOptionalData
 70
     2
 70
     1
  1
Line/Polyline
  0
TCOPTIONALDATA
  5
232
102
{ACAD_REACTORS
330
231
102
}
330
231
100
TcOptionalData
 70
     2
 70
     1
  1
Line/Polyline
  0
TCOPTIONALDATA
  5
235
102
{ACAD_REACTORS
330
234
102
}
330
234
100
TcOptionalData
 70
     2
 70
     1
  1
Line/Polyline
  0
TCOPTIONALDATA
  5
238
102
{ACAD_REACTORS
330
237
102
}
330
237
100
TcOptionalData
 70
     2
 70
     1
  1
Line/Polyline
  0
TCOPTIONALDATA
  5
23B
102
{ACAD_REACTORS
330
23A
102
}
330
23A
100
TcOptionalData
 70
     2
 70
     1
  1
Line/Polyline
  0
TCOPTIONALDATA
  5
23E
102
{ACAD_REACTORS
330
23D
102
}
330
23D
100
TcOptionalData
 70
     2
 70
     1
  1
Line/Polyline
  0
TCOPTIONALDATA
  5
241
102
{ACAD_REACTORS
330
240
102
}
330
240
100
TcOptionalData
 70
     2
 70
     1
  1
Line/Polyline
  0
TCOPTIONALDATA
  5
245
102
{ACAD_REACTORS
330
244
102
}
330
244
100
TcOptionalData
 70
     2
 70
   144
 90
        1
  1
#$AUX@_ToolInfo Properties
 70
     8
 90
        9
310
434D445F5445585440
  1
Arial
 70
     0
  0
TCOPTIONALDATA
  5
249
102
{ACAD_REACTORS
330
248
102
}
330
248
100
TcOptionalData
 70
     2
 70
   144
 90
        1
  1
#$AUX@_ToolInfo Properties
 70
     8
 90
        9
310
434D445F5445585440
  1
Arial
 70
     0
  0
TCOPTIONALDATA
  5
24C
102
{ACAD_REACTORS
330
24B
102
}
330
24B
100
TcOptionalData
 70
     2
 70
   129
  1
Line/Polyline
 90
        1
  1
#$AUX@_ToolInfo Properties
 70
     8
 90
       14
310
434D445F52454354414E474C4540
  0
TCOPTIONALDATA
  5
24F
102
{ACAD_REACTORS
330
24E
102
}
330
24E
100
TcOptionalData
 70
     2
 70
   128
 90
        1
  1
#$AUX@_ToolInfo Properties
 70
     8
 90
       16
310
434D445F43454E544552505441524340
  0
TCOPTIONALDATA
  5
252
102
{ACAD_REACTORS
330
251
102
}
330
251
100
TcOptionalData
 70
     2
 70
   129
  1
Line/Polyline
 90
        1
  1
#$AUX@_ToolInfo Properties
 70
     8
 90
       14
310
434D445F52454354414E474C4540
  0
TCOPTIONALDATA
  5
255
102
{ACAD_REACTORS
330
254
102
}
330
254
100
TcOptionalData
 70
     2
 70
     1
  1
Line/Polyline
  0
TCOPTIONALDATA
  5
258
102
{ACAD_REACTORS
330
257
102
}
330
257
100
TcOptionalData
 70
     2
 70
   128
 90
        1
  1
#$AUX@_ToolInfo Properties
 70
     8
 90
       18
310
434D445F4F5254484F474F4E414C44494D40
  0
TCOPTIONALDATA
  5
26C
102
{ACAD_REACTORS
330
26B
102
}
330
26B
100
TcOptionalData
 70
     2
 70
   128
 90
        1
  1
#$AUX@_ToolInfo Properties
 70
     8
 90
       18
310
434D445F4F5254484F474F4E414C44494D40
  0
TCOPTIONALDATA
  5
27B
102
{ACAD_REACTORS
330
27A
102
}
330
27A
100
TcOptionalData
 70
     2
 70
   128
 90
        1
  1
#$AUX@_ToolInfo Properties
 70
     8
 90
       18
310
434D445F4F5254484F474F4E414C44494D40
  0
TCOPTIONALDATA
  5
28A
102
{ACAD_REACTORS
330
289
102
}
330
289
100
TcOptionalData
 70
     2
 70
   128
 90
        1
  1
#$AUX@_ToolInfo Properties
 70
     8
 90
       18
310
434D445F4F5254484F474F4E414C44494D40
  0
TCOPTIONALDATA
  5
299
102
{ACAD_REACTORS
330
298
102
}
330
298
100
TcOptionalData
 70
     2
 70
   128
 90
        1
  1
#$AUX@_ToolInfo Properties
 70
     8
 90
       18
310
434D445F4F5254484F474F4E414C44494D40
  0
TCOPTIONALDATA
  5
2A9
102
{ACAD_REACTORS
330
2A8
102
}
330
2A8
100
TcOptionalData
 70
     2
 70
   128
 90
        1
  1
#$AUX@_ToolInfo Properties
 70
     8
 90
       18
310
434D445F4F5254484F474F4E414C44494D40
  0
TCOPTIONALDATA
  5
2B9
102
{ACAD_REACTORS
330
2B8
102
}
330
2B8
100
TcOptionalData
 70
     2
 70
   128
 90
        1
  1
#$AUX@_ToolInfo Properties
 70
     8
 90
       18
310
434D445F4F5254484F474F4E414C44494D40
  0
TCOPTIONALDATA
  5
2C9
102
{ACAD_REACTORS
330
2C8
102
}
330
2C8
100
TcOptionalData
 70
     2
 70
     1
  1
DoubleLine
  0
TCOPTIONALDATA
  5
2CB
102
{ACAD_REACTORS
330
2CA
102
}
330
2CA
100
TcOptionalData
 70
     2
 70
     1
  1
DoubleLine
  0
TCOPTIONALDATA
  5
2CE
102
{ACAD_REACTORS
330
2CD
102
}
330
2CD
100
TcOptionalData
 70
     2
 70
     1
  1
DoubleLine
  0
TCOPTIONALDATA
  5
2D4
102
{ACAD_REACTORS
330
2D3
102
}
330
2D3
100
TcOptionalData
 70
     2
 70
     1
  1
DoubleLine
  0
TCOPTIONALDATA
  5
2D6
102
{ACAD_REACTORS
330
2D5
102
}
330
2D5
100
TcOptionalData
 70
     2
 70
     1
  1
DoubleLine
  0
TCOPTIONALDATA
  5
2D9
102
{ACAD_REACTORS
330
2D8
102
}
330
2D8
100
TcOptionalData
 70
     2
 70
     1
  1
DoubleLine
  0
TCOPTIONALDATA
  5
2DC
102
{ACAD_REACTORS
330
2DB
102
}
330
2DB
100
TcOptionalData
 70
     2
 70
     1
  1
DoubleLine
  0
TCOPTIONALDATA
  5
2E0
102
{ACAD_REACTORS
330
2DF
102
}
330
2DF
100
TcOptionalData
 70
     2
 70
   129
  1
Line/Polyline
 90
        1
  1
#$AUX@_ToolInfo Properties
 70
     8
 90
        9
310
434D445F4C494E4540
  0
TCOPTIONALDATA
  5
2E3
102
{ACAD_REACTORS
330
2E2
102
}
330
2E2
100
TcOptionalData
 70
     2
 70
   144
 90
        1
  1
#$AUX@_ToolInfo Properties
 70
     8
 90
        9
310
434D445F5445585440
  1
Arial
 70
     0
  0
TCOPTIONALDATA
  5
2E6
102
{ACAD_REACTORS
330
2E5
102
}
330
2E5
100
TcOptionalData
 70
     2
 70
   144
 90
        1
  1
#$AUX@_ToolInfo Properties
 70
     8
 90
        9
310
434D445F5445585440
  1
Arial
 70
     0
  0
TCOPTIONALDATA
  5
2E9
102
{ACAD_REACTORS
330
2E8
102
}
330
2E8
100
TcOptionalData
 70
     2
 70
   144
 90
        1
  1
#$AUX@_ToolInfo Properties
 70
     8
 90
        9
310
434D445F5445585440
  1
Arial
 70
     0
  0
TCOPTIONALDATA
  5
2EC
102
{ACAD_REACTORS
330
2EB
102
}
330
2EB
100
TcOptionalData
 70
     2
 70
   144
 90
        1
  1
#$AUX@_ToolInfo Properties
 70
     8
 90
        9
310
434D445F5445585440
  1
Arial
 70
     0
  0
TCOPTIONALDATA
  5
2EF
102
{ACAD_REACTORS
330
2EE
102
}
330
2EE
100
TcOptionalData
 70
     2
 70
   128
 90
        1
  1
#$AUX@_ToolInfo Properties
 70
     8
 90
       18
310
434D445F4F5254484F474F4E414C44494D40
  0
TCOPTIONALDATA
  5
2FF
102
{ACAD_REACTORS
330
2FE
102
}
330
2FE
100
TcOptionalData
 70
     2
 70
   128
 90
        1
  1
#$AUX@_ToolInfo Properties
 70
     8
 90
       18
310
434D445F4F5254484F474F4E414C44494D40
  0
TCOPTIONALDATA
  5
30F
102
{ACAD_REACTORS
330
30E
102
}
330
30E
100
TcOptionalData
 70
     2
 70
   144
 90
        1
  1
#$AUX@_ToolInfo Properties
 70
     8
 90
        9
310
434D445F5445585440
  1
Arial
 70
     2
  0
TCOPTIONALDATA
  5
313
102
{ACAD_REACTORS
330
312
102
}
330
312
100
TcOptionalData
 70
     2
 70
   144
 90
        1
  1
#$AUX@_ToolInfo Properties
 70
     8
 90
        9
310
434D445F5445585440
  1
Arial
 70
     0
  0
TCOPTIONALDATA
  5
317
102
{ACAD_REACTORS
330
316
102
}
330
316
100
TcOptionalData
 70
     2
 70
   144
 90
        1
  1
#$AUX@_ToolInfo Properties
 70
     8
 90
        9
310
434D445F5445585440
  1
Arial
 70
     0
  0
TCOPTIONALDATA
  5
31A
102
{ACAD_REACTORS
330
319
102
}
330
319
100
TcOptionalData
 70
     2
 70
   144
 90
        1
  1
#$AUX@_ToolInfo Properties
 70
     8
 90
        9
310
434D445F5445585440
  1
Arial
 70
     0
  0
TCOPTIONALDATA
  5
31D
102
{ACAD_REACTORS
330
31C
102
}
330
31C
100
TcOptionalData
 70
     2
 70
   144
 90
        1
  1
#$AUX@_ToolInfo Properties
 70
     8
 90
        9
310
434D445F5445585440
  1
Arial
 70
     0
  0
TCOPTIONALDATA
  5
320
102
{ACAD_REACTORS
330
31F
102
}
330
31F
100
TcOptionalData
 70
     2
 70
   129
  1
Line/Polyline
 90
        1
  1
#$AUX@_ToolInfo Properties
 70
     8
 90
       14
310
434D445F52454354414E474C4540
  0
TCOPTIONALDATA
  5
324
102
{ACAD_REACTORS
330
323
102
}
330
323
100
TcOptionalData
 70
     2
 70
   144
 90
        1
  1
#$AUX@_ToolInfo Properties
 70
     8
 90
        9
310
434D445F5445585440
  1
Arial
 70
     0
  0
TCOPTIONALDATA
  5
327
102
{ACAD_REACTORS
330
326
102
}
330
326
100
TcOptionalData
 70
     2
 70
   144
 90
        1
  1
#$AUX@_ToolInfo Properties
 70
     8
 90
        9
310
434D445F5445585440
  1
Arial
 70
     0
  0
TCOPTIONALDATA
  5
32A
102
{ACAD_REACTORS
330
329
102
}
330
329
100
TcOptionalData
 70
     2
 70
   129
  1
Line/Polyline
 90
        1
  1
#$AUX@_ToolInfo Properties
 70
     8
 90
       14
310
434D445F52454354414E474C4540
  0
TCOPTIONALDATA
  5
32D
102
{ACAD_REACTORS
330
32C
102
}
330
32C
100
TcOptionalData
 70
     2
 70
   129
  1
Line/Polyline
 90
        1
  1
#$AUX@_ToolInfo Properties
 70
     8
 90
       14
310
434D445F52454354414E474C4540
  0
TCOPTIONALDATA
  5
330
102
{ACAD_REACTORS
330
32F
102
}
330
32F
100
TcOptionalData
 70
     2
 70
   129
  1
Line/Polyline
 90
        1
  1
#$AUX@_ToolInfo Properties
 70
     8
 90
       14
310
434D445F52454354414E474C4540
  0
TCOPTIONALDATA
  5
333
102
{ACAD_REACTORS
330
332
102
}
330
332
100
TcOptionalData
 70
     2
 70
   129
  1
Line/Polyline
 90
        1
  1
#$AUX@_ToolInfo Properties
 70
     8
 90
       14
310
434D445F52454354414E474C4540
  0
TCOPTIONALDATA
  5
336
102
{ACAD_REACTORS
330
335
102
}
330
335
100
TcOptionalData
 70
     2
 70
   144
 90
        1
  1
#$AUX@_ToolInfo Properties
 70
     8
 90
        9
310
434D445F5445585440
  1
Arial
 70
     0
  0
TCOPTIONALDATA
  5
339
102
{ACAD_REACTORS
330
338
102
}
330
338
100
TcOptionalData
 70
     2
 70
   144
 90
        1
  1
#$AUX@_ToolInfo Properties
 70
     8
 90
        9
310
434D445F5445585440
  1
Arial
 70
     0
  0
TCOPTIONALDATA
  5
33C
102
{ACAD_REACTORS
330
33B
102
}
330
33B
100
TcOptionalData
 70
     2
 70
   144
 90
        1
  1
#$AUX@_ToolInfo Properties
 70
     8
 90
        9
310
434D445F5445585440
  1
Arial
 70
     0
  0
TCOPTIONALDATA
  5
33F
102
{ACAD_REACTORS
330
33E
102
}
330
33E
100
TcOptionalData
 70
     2
 70
   144
 90
        1
  1
#$AUX@_ToolInfo Properties
 70
     8
 90
        9
310
434D445F5445585440
  1
Arial
 70
     0
  0
TCOPTIONALDATA
  5
345
102
{ACAD_REACTORS
330
344
102
}
330
344
100
TcOptionalData
 70
     2
 70
   144
 90
        1
  1
#$AUX@_ToolInfo Properties
 70
     8
 90
        9
310
434D445F5445585440
  1
Arial
 70
     0
  0
GROUP
  5
341
102
{ACAD_REACTORS
330
D
102
}
102
{ACAD_XDICTIONARY
360
342
102
}
330
D
100
AcDbGroup
300

 70
     0
 71
     1
340
32B
340
32E
340
331
340
334
340
337
340
33A
340
33D
340
340
  0
LAYOUT
  5
22
102
{ACAD_REACTORS
330
1A
102
}
330
1A
100
AcDbPlotSettings
  1

  2
novaPDF 10
  4
Letter
  6

 40
0.0
 41
0.0
 42
0.0
 43
0.0
 44
215.9
 45
279.4
 46
0.0
 47
0.0
 48
-4.249676299665055
 49
-5.499581093684185
140
4.249676299665055
141
5.499581093684185
142
1.0
143
1.0
 70
  1696
 72
     0
 73
     0
 74
     4
  7

 75
     0
 76
     0
 77
     2
 78
   300
147
0.0024861295016636
148
0.0
149
0.0
100
AcDbLayout
  1
Model
 70
     1
 71
     0
 10
-15.78065883437523
 20
-96.96454929762103
 11
-7.28130623504512
 21
-85.96538711025266
 12
0.0
 22
0.0
 32
0.0
 14
99.27241262670805
 24
-55.75831495763782
 34
0.0
 15
2392.775938379855
 25
1867.195603398309
 35
0.0
146
0.0
 13
0.0
 23
0.0
 33
0.0
 16
1.0
 26
0.0
 36
0.0
 17
0.0
 27
1.0
 37
0.0
 76
     0
330
1F
331
29
  0
LAYOUT
  5
1E
102
{ACAD_REACTORS
330
1A
102
}
330
1A
100
AcDbPlotSettings
  1

  2
none_device
  4
ANSI_A_(11.00_x_8.50_Inches)
  6

 40
6.35
 41
19.05
 42
6.35000508
 43
19.05000254
 44
279.4
 45
215.9
 46
0.0
 47
0.0
 48
0.0
 49
0.0
140
0.0
141
0.0
142
1.0
143
1.0
 70
   672
 72
     0
 73
     0
 74
     5
  7

 75
    16
 76
     0
 77
     2
 78
   300
147
1.0
148
-6.35
149
-19.05
100
AcDbLayout
  1
Paper 1
 70
     1
 71
     1
 10
0.0
 20
0.0
 11
11.0
 21
8.5
 12
0.0
 22
0.0
 32
0.0
 14
0.0
 24
0.0
 34
0.0
 15
11.0
 25
8.5
 35
0.0
146
0.0
 13
0.0
 23
0.0
 33
0.0
 16
1.0
 26
0.0
 36
0.0
 17
0.0
 27
1.0
 37
0.0
 76
     0
330
1B
331
347
  0
MATERIAL
  5
3D
102
{ACAD_REACTORS
330
3B
102
}
330
3B
100
AcDbMaterial
  1
ByBlock
 72
     1
 94
      127
  0
MATERIAL
  5
3C
102
{ACAD_REACTORS
330
3B
102
}
330
3B
100
AcDbMaterial
  1
ByLayer
 72
     1
 94
      127
  0
MATERIAL
  5
3E
102
{ACAD_REACTORS
330
3B
102
}
330
3B
100
AcDbMaterial
  1
Global
 72
     1
 94
      127
  0
MLEADERSTYLE
  5
165
102
{ACAD_REACTORS
330
164
102
}
330
164
100
AcDbMLeaderStyle
170
     2
171
     1
172
     0
 90
        2
 40
0.0
 41
0.0
173
     1
 91
-1056964608
340
14
 92
       -2
290
     1
 42
0.25
291
     1
 43
0.25
  3

341
0
 44
0.25
300

342
11
174
     1
178
     1
175
     1
176
     0
 93
-1056964608
 45
0.15
292
     0
297
     0
 46
0.18
343
0
 94
-1056964608
 47
1.0
 49
1.0
140
1.0
293
     1
141
0.0
294
     1
177
     0
142
1.0
295
     0
296
     0
143
0.125
1001
ACAD_MLEADERVER
1070
     2
  0
MLINESTYLE
  5
18
102
{ACAD_REACTORS
330
17
102
}
330
17
100
AcDbMlineStyle
  2
Standard
 70
     0
  3

 62
   256
 51
90.0
 52
90.0
 71
     5
 49
0.5
 62
   256
  6
BYLAYER
 49
-0.5
 62
   256
  6
BYLAYER
 49
0.25
 62
     0
  6
BYLAYER
 49
0.0
 62
     0
  6
BYLAYER
 49
-0.25
 62
     0
  6
BYLAYER
  0
ACDBPLACEHOLDER
  5
F
102
{ACAD_REACTORS
330
E
102
}
330
E
  0
SCALE
  5
34A
102
{ACAD_REACTORS
330
349
102
}
330
349
100
AcDbScale
 70
     0
300
1:1
140
1.0
141
1.0
290
     1
  0
SCALE
  5
34B
102
{ACAD_REACTORS
330
349
102
}
330
349
100
AcDbScale
 70
     0
300
1:2
140
1.0
141
2.0
290
     0
  0
SCALE
  5
34C
102
{ACAD_REACTORS
330
349
102
}
330
349
100
AcDbScale
 70
     0
300
1:4
140
1.0
141
4.0
290
     0
  0
SCALE
  5
34D
102
{ACAD_REACTORS
330
349
102
}
330
349
100
AcDbScale
 70
     0
300
1:5
140
1.0
141
5.0
290
     0
  0
SCALE
  5
34E
102
{ACAD_REACTORS
330
349
102
}
330
349
100
AcDbScale
 70
     0
300
1:8
140
1.0
141
8.0
290
     0
  0
SCALE
  5
34F
102
{ACAD_REACTORS
330
349
102
}
330
349
100
AcDbScale
 70
     0
300
1:10
140
1.0
141
10.0
290
     0
  0
SCALE
  5
350
102
{ACAD_REACTORS
330
349
102
}
330
349
100
AcDbScale
 70
     0
300
1:16
140
1.0
141
16.0
290
     0
  0
SCALE
  5
351
102
{ACAD_REACTORS
330
349
102
}
330
349
100
AcDbScale
 70
     0
300
1:20
140
1.0
141
20.0
290
     0
  0
SCALE
  5
352
102
{ACAD_REACTORS
330
349
102
}
330
349
100
AcDbScale
 70
     0
300
1:30
140
1.0
141
30.0
290
     0
  0
SCALE
  5
353
102
{ACAD_REACTORS
330
349
102
}
330
349
100
AcDbScale
 70
     0
300
1:40
140
1.0
141
40.0
290
     0
  0
SCALE
  5
354
102
{ACAD_REACTORS
330
349
102
}
330
349
100
AcDbScale
 70
     0
300
1:50
140
1.0
141
50.0
290
     0
  0
SCALE
  5
355
102
{ACAD_REACTORS
330
349
102
}
330
349
100
AcDbScale
 70
     0
300
1:100
140
1.0
141
100.0
290
     0
  0
SCALE
  5
356
102
{ACAD_REACTORS
330
349
102
}
330
349
100
AcDbScale
 70
     0
300
2:1
140
2.0
141
1.0
290
     0
  0
SCALE
  5
357
102
{ACAD_REACTORS
330
349
102
}
330
349
100
AcDbScale
 70
     0
300
4:1
140
4.0
141
1.0
290
     0
  0
SCALE
  5
358
102
{ACAD_REACTORS
330
349
102
}
330
349
100
AcDbScale
 70
     0
300
8:1
140
8.0
141
1.0
290
     0
  0
SCALE
  5
359
102
{ACAD_REACTORS
330
349
102
}
330
349
100
AcDbScale
 70
     0
300
10:1
140
10.0
141
1.0
290
     0
  0
SCALE
  5
35A
102
{ACAD_REACTORS
330
349
102
}
330
349
100
AcDbScale
 70
     0
300
100:1
140
100.0
141
1.0
290
     0
  0
SCALE
  5
35B
102
{ACAD_REACTORS
330
349
102
}
330
349
100
AcDbScale
 70
     0
300
1/128" = 1'-0"
140
0.0078125
141
12.0
290
     0
  0
SCALE
  5
35C
102
{ACAD_REACTORS
330
349
102
}
330
349
100
AcDbScale
 70
     0
300
1/64" = 1'-0"
140
0.015625
141
12.0
290
     0
  0
SCALE
  5
35D
102
{ACAD_REACTORS
330
349
102
}
330
349
100
AcDbScale
 70
     0
300
1/32" = 1'-0"
140
0.03125
141
12.0
290
     0
  0
SCALE
  5
35E
102
{ACAD_REACTORS
330
349
102
}
330
349
100
AcDbScale
 70
     0
300
1/16" = 1'-0"
140
0.0625
141
12.0
290
     0
  0
SCALE
  5
35F
102
{ACAD_REACTORS
330
349
102
}
330
349
100
AcDbScale
 70
     0
300
3/32" = 1'-0"
140
0.09375
141
12.0
290
     0
  0
SCALE
  5
360
102
{ACAD_REACTORS
330
349
102
}
330
349
100
AcDbScale
 70
     0
300
1/8" = 1'-0"
140
0.125
141
12.0
290
     0
  0
SCALE
  5
361
102
{ACAD_REACTORS
330
349
102
}
330
349
100
AcDbScale
 70
     0
300
3/16" = 1'-0"
140
0.1875
141
12.0
290
     0
  0
SCALE
  5
362
102
{ACAD_REACTORS
330
349
102
}
330
349
100
AcDbScale
 70
     0
300
1/4" = 1'-0"
140
0.25
141
12.0
290
     0
  0
SCALE
  5
363
102
{ACAD_REACTORS
330
349
102
}
330
349
100
AcDbScale
 70
     0
300
3/8" = 1'-0"
140
0.375
141
12.0
290
     0
  0
SCALE
  5
364
102
{ACAD_REACTORS
330
349
102
}
330
349
100
AcDbScale
 70
     0
300
1/2" = 1'-0"
140
0.5
141
12.0
290
     0
  0
SCALE
  5
365
102
{ACAD_REACTORS
330
349
102
}
330
349
100
AcDbScale
 70
     0
300
3/4" = 1'-0"
140
0.75
141
12.0
290
     0
  0
SCALE
  5
366
102
{ACAD_REACTORS
330
349
102
}
330
349
100
AcDbScale
 70
     0
300
1" = 1'-0"
140
1.0
141
12.0
290
     0
  0
SCALE
  5
367
102
{ACAD_REACTORS
330
349
102
}
330
349
100
AcDbScale
 70
     0
300
1-1/2" = 1'-0"
140
1.5
141
12.0
290
     0
  0
SCALE
  5
368
102
{ACAD_REACTORS
330
349
102
}
330
349
100
AcDbScale
 70
     0
300
3" = 1'-0"
140
3.0
141
12.0
290
     0
  0
SCALE
  5
369
102
{ACAD_REACTORS
330
349
102
}
330
349
100
AcDbScale
 70
     0
300
6" = 1'-0"
140
6.0
141
12.0
290
     0
  0
SCALE
  5
36A
102
{ACAD_REACTORS
330
349
102
}
330
349
100
AcDbScale
 70
     0
300
1'-0" = 1'-0"
140
12.0
141
12.0
290
     0
  0
TABLESTYLE
  5
177
102
{ACAD_REACTORS
330
176
102
}
102
{ACAD_XDICTIONARY
360
38D
102
}
330
176
100
AcDbTableStyle
  3

 70
     0
 71
     0
 40
0.05
 41
0.05
280
     0
281
     0
  7
Standard
140
0.15
170
     5
 62
     0
 63
   257
283
     1
 90
        4
 91
        0
  1

274
    -2
284
     1
 64
     0
275
    -2
285
     1
 65
     0
276
    -2
286
     1
 66
     0
277
    -2
287
     1
 67
     0
278
    -2
288
     1
 68
     0
279
    -2
289
     1
 69
     0
  7
Standard
140
0.15
170
     5
 62
     0
 63
   257
283
     1
 90
        4
 91
        0
  1

274
    -2
284
     1
 64
     0
275
    -2
285
     1
 65
     0
276
    -2
286
     1
 66
     0
277
    -2
287
     1
 67
     0
278
    -2
288
     1
 68
     0
279
    -2
289
     1
 69
     0
  7
Standard
140
0.15
170
     5
 62
     0
 63
   257
283
     1
 90
        4
 91
        0
  1

274
    -2
284
     1
 64
     0
275
    -2
285
     1
 65
     0
276
    -2
286
     1
 66
     0
277
    -2
287
     1
 67
     0
278
    -2
288
     1
 68
     0
279
    -2
289
     1
 69
     0
  0
VISUALSTYLE
  5
2F
102
{ACAD_REACTORS
330
2A
102
}
102
{ACAD_XDICTIONARY
360
375
102
}
330
2A
100
AcDbVisualStyle
  2
2dWireframe
 70
     4
 71
     0
 72
     2
 73
     0
 90
        0
 40
-0.6
 41
-30.0
 62
     5
 63
     7
421
 16777215
 74
     1
 91
        4
 64
     7
 65
   257
 75
     1
175
     1
 42
1.0
 92
        0
 66
   257
 43
1.0
 76
     1
 77
     6
 78
     2
 67
     7
 79
     5
170
     0
171
     0
290
     0
174
     0
 93
        1
 44
0.0
173
     0
291
     0
 45
0.0
  0
VISUALSTYLE
  5
31
102
{ACAD_REACTORS
330
2A
102
}
102
{ACAD_XDICTIONARY
360
379
102
}
330
2A
100
AcDbVisualStyle
  2
3D Hidden
 70
     6
 71
     1
 72
     2
 73
     2
 90
        0
 40
-0.6
 41
-30.0
 62
     5
 63
     7
421
 16777215
 74
     2
 91
        2
 64
     7
 65
   257
 75
     2
175
     1
 42
40.0
 92
        0
 66
   257
 43
1.0
 76
     1
 77
     6
 78
     2
 67
     7
 79
     3
170
     0
171
     0
290
     0
174
     0
 93
        1
 44
0.0
173
     0
291
     0
 45
0.0
  0
VISUALSTYLE
  5
30
102
{ACAD_REACTORS
330
2A
102
}
102
{ACAD_XDICTIONARY
360
377
102
}
330
2A
100
AcDbVisualStyle
  2
3dWireframe
 70
     5
 71
     0
 72
     2
 73
     0
 90
        0
 40
-0.6
 41
-30.0
 62
     5
 63
     7
421
 16777215
 74
     1
 91
        4
 64
     7
 65
   257
 75
     1
175
     1
 42
1.0
 92
        0
 66
   257
 43
1.0
 76
     1
 77
     6
 78
     2
 67
     7
 79
     5
170
     0
171
     0
290
     0
174
     0
 93
        1
 44
0.0
173
     0
291
     0
 45
0.0
  0
VISUALSTYLE
  5
32
102
{ACAD_REACTORS
330
2A
102
}
102
{ACAD_XDICTIONARY
360
37B
102
}
330
2A
100
AcDbVisualStyle
  2
Basic
 70
     7
 71
     1
 72
     0
 73
     1
 90
        0
 40
-0.6
 41
-30.0
 62
     5
 63
     7
421
 16777215
 74
     0
 91
        4
 64
     7
 65
   257
 75
     1
175
     1
 42
1.0
 92
        8
 66
     7
 43
1.0
 76
     1
 77
     6
 78
     2
 67
     7
 79
     5
170
     0
171
     0
290
     0
174
     0
 93
        1
 44
0.0
173
     0
291
     1
 45
0.0
  0
VISUALSTYLE
  5
36
102
{ACAD_REACTORS
330
2A
102
}
102
{ACAD_XDICTIONARY
360
383
102
}
330
2A
100
AcDbVisualStyle
  2
Brighten
 70
    12
 71
     2
 72
     2
 73
     0
 90
        0
 40
-0.6
 41
-30.0
 62
     5
 63
     7
421
 16777215
 74
     1
 91
        4
 64
     7
 65
   257
 75
     1
175
     1
 42
1.0
 92
        8
 66
     7
 43
1.0
 76
     1
 77
     6
 78
     2
 67
     7
 79
     5
170
     0
171
     0
290
     0
174
     0
 93
        1
 44
50.0
173
     0
291
     1
 45
0.0
  0
VISUALSTYLE
  5
3A
102
{ACAD_REACTORS
330
2A
102
}
102
{ACAD_XDICTIONARY
360
38B
102
}
330
2A
100
AcDbVisualStyle
  2
ColorChange
 70
    16
 71
     2
 72
     2
 73
     3
 90
        0
 40
-0.6
 41
-30.0
 62
     5
 63
     8
421
  8421504
 74
     1
 91
        4
 64
     7
 65
   257
 75
     1
175
     1
 42
1.0
 92
        8
 66
     8
424
  8421504
 43
1.0
 76
     1
 77
     6
 78
     2
 67
     7
 79
     5
170
     0
171
     0
290
     0
174
     0
 93
        1
 44
0.0
173
     0
291
     1
 45
0.0
  0
VISUALSTYLE
  5
34
102
{ACAD_REACTORS
330
2A
102
}
102
{ACAD_XDICTIONARY
360
37F
102
}
330
2A
100
AcDbVisualStyle
  2
Conceptual
 70
     9
 71
     3
 72
     2
 73
     0
 90
        0
 40
-0.6
 41
-30.0
 62
     5
 63
     7
421
 16777215
 74
     2
 91
        2
 64
     7
 65
   257
 75
     1
175
     1
 42
40.0
 92
        8
 66
     7
 43
1.0
 76
     1
 77
     6
 78
     2
 67
     7
 79
     3
170
     0
171
     0
290
     0
174
     0
 93
        1
 44
0.0
173
     0
291
     0
 45
0.0
  0
VISUALSTYLE
  5
35
102
{ACAD_REACTORS
330
2A
102
}
102
{ACAD_XDICTIONARY
360
381
102
}
330
2A
100
AcDbVisualStyle
  2
Dim
 70
    11
 71
     2
 72
     2
 73
     0
 90
        0
 40
-0.6
 41
-30.0
 62
     5
 63
     7
421
 16777215
 74
     1
 91
        4
 64
     7
 65
   257
 75
     1
175
     1
 42
1.0
 92
        8
 66
     7
 43
1.0
 76
     1
 77
     6
 78
     2
 67
     7
 79
     5
170
     0
171
     0
290
     0
174
     0
 93
        1
 44
-50.0
173
     0
291
     1
 45
0.0
  0
VISUALSTYLE
  5
39
102
{ACAD_REACTORS
330
2A
102
}
102
{ACAD_XDICTIONARY
360
389
102
}
330
2A
100
AcDbVisualStyle
  2
Facepattern
 70
    15
 71
     2
 72
     2
 73
     0
 90
        0
 40
-0.6
 41
-30.0
 62
     5
 63
     7
421
 16777215
 74
     1
 91
        4
 64
     7
 65
   257
 75
     1
175
     1
 42
1.0
 92
        8
 66
     7
 43
1.0
 76
     1
 77
     6
 78
     2
 67
     7
 79
     5
170
     0
171
     0
290
     0
174
     0
 93
        1
 44
0.0
173
     0
291
     1
 45
0.0
  0
VISUALSTYLE
  5
2B
102
{ACAD_REACTORS
330
2A
102
}
102
{ACAD_XDICTIONARY
360
36D
102
}
330
2A
100
AcDbVisualStyle
  2
Flat
 70
     0
 71
     2
 72
     1
 73
     1
 90
        2
 40
-0.6
 41
30.0
 62
     5
 63
     7
421
 16777215
 74
     0
 91
        4
 64
     7
 65
   257
 75
     1
175
     1
 42
1.0
 92
        8
 66
     7
 43
1.0
 76
     1
 77
     6
 78
     2
 67
     7
 79
     5
170
     0
171
     0
290
     0
174
     0
 93
       13
 44
0.0
173
     0
291
     1
 45
0.0
  0
VISUALSTYLE
  5
2C
102
{ACAD_REACTORS
330
2A
102
}
102
{ACAD_XDICTIONARY
360
36F
102
}
330
2A
100
AcDbVisualStyle
  2
FlatWithEdges
 70
     1
 71
     2
 72
     1
 73
     1
 90
        2
 40
-0.6
 41
30.0
 62
     5
 63
     7
421
 16777215
 74
     1
 91
        4
 64
     7
 65
   257
 75
     1
175
     1
 42
1.0
 92
        0
 66
   257
 43
1.0
 76
     1
 77
     6
 78
     2
 67
     7
 79
     5
170
     0
171
     0
290
     0
174
     0
 93
       13
 44
0.0
173
     0
291
     1
 45
0.0
  0
VISUALSTYLE
  5
2D
102
{ACAD_REACTORS
330
2A
102
}
102
{ACAD_XDICTIONARY
360
371
102
}
330
2A
100
AcDbVisualStyle
  2
Gouraud
 70
     2
 71
     2
 72
     2
 73
     1
 90
        2
 40
-0.6
 41
30.0
 62
     5
 63
     7
421
 16777215
 74
     0
 91
        4
 64
     7
 65
   257
 75
     1
175
     1
 42
1.0
 92
        0
 66
     7
 43
1.0
 76
     1
 77
     6
 78
     2
 67
     7
 79
     5
170
     0
171
     0
290
     0
174
     0
 93
       13
 44
0.0
173
     0
291
     1
 45
0.0
  0
VISUALSTYLE
  5
2E
102
{ACAD_REACTORS
330
2A
102
}
102
{ACAD_XDICTIONARY
360
373
102
}
330
2A
100
AcDbVisualStyle
  2
GouraudWithEdges
 70
     3
 71
     2
 72
     2
 73
     1
 90
        2
 40
-0.6
 41
30.0
 62
     5
 63
     7
421
 16777215
 74
     1
 91
        4
 64
     7
 65
   257
 75
     1
175
     1
 42
1.0
 92
        0
 66
   257
 43
1.0
 76
     1
 77
     6
 78
     2
 67
     7
 79
     5
170
     0
171
     0
290
     0
174
     0
 93
       13
 44
0.0
173
     0
291
     1
 45
0.0
  0
VISUALSTYLE
  5
38
102
{ACAD_REACTORS
330
2A
102
}
102
{ACAD_XDICTIONARY
360
387
102
}
330
2A
100
AcDbVisualStyle
  2
Linepattern
 70
    14
 71
     2
 72
     2
 73
     0
 90
        0
 40
-0.6
 41
-30.0
 62
     5
 63
     7
421
 16777215
 74
     1
 91
        4
 64
     7
 65
   257
 75
     7
175
     7
 42
1.0
 92
        8
 66
     7
 43
1.0
 76
     1
 77
     6
 78
     2
 67
     7
 79
     5
170
     0
171
     0
290
     0
174
     0
 93
        1
 44
0.0
173
     0
291
     1
 45
0.0
  0
VISUALSTYLE
  5
33
102
{ACAD_REACTORS
330
2A
102
}
102
{ACAD_XDICTIONARY
360
37D
102
}
330
2A
100
AcDbVisualStyle
  2
Realistic
 70
     8
 71
     2
 72
     2
 73
     0
 90
        0
 40
-0.6
 41
-30.0
 62
     5
 63
     7
421
 16777215
 74
     1
 91
        0
 64
     7
 65
   257
 75
     1
175
     1
 42
1.0
 92
        8
 66
     8
424
  7895160
 43
1.0
 76
     1
 77
     6
 78
     2
 67
     7
 79
     5
170
     0
171
     0
290
     0
174
     0
 93
       13
 44
0.0
173
     0
291
     0
 45
0.0
  0
VISUALSTYLE
  5
37
102
{ACAD_REACTORS
330
2A
102
}
102
{ACAD_XDICTIONARY
360
385
102
}
330
2A
100
AcDbVisualStyle
  2
Thicken
 70
    13
 71
     2
 72
     2
 73
     0
 90
        0
 40
-0.6
 41
-30.0
 62
     5
 63
     7
421
 16777215
 74
     1
 91
        4
 64
     7
 65
   257
 75
     1
175
     1
 42
1.0
 92
       12
 66
     7
 43
1.0
 76
     1
 77
     6
 78
     2
 67
     7
 79
     5
170
     0
171
     0
290
     0
174
     0
 93
        1
 44
0.0
173
     0
291
     1
 45
0.0
  0
DICTIONARYVAR
  5
36C
102
{ACAD_REACTORS
330
36B
102
}
330
36B
100
DictionaryVariables
280
     0
  1
1:1
  0
DICTIONARY
  5
342
330
341
100
AcDbDictionary
280
     1
281
     1
  3
TC_EXTENDED_DATA
360
343
  0
DICTIONARY
  5
38D
330
177
100
AcDbDictionary
280
     1
281
     1
  3
ACAD_ROUNDTRIP_2008_TABLESTYLE_CELLSTYLEMAP
360
38E
  0
DICTIONARY
  5
375
330
2F
100
AcDbDictionary
280
     1
281
     1
  3
ACAD_XREC_ROUNDTRIP
360
376
  0
DICTIONARY
  5
379
330
31
100
AcDbDictionary
280
     1
281
     1
  3
ACAD_XREC_ROUNDTRIP
360
37A
  0
DICTIONARY
  5
377
330
30
100
AcDbDictionary
280
     1
281
     1
  3
ACAD_XREC_ROUNDTRIP
360
378
  0
DICTIONARY
  5
37B
330
32
100
AcDbDictionary
280
     1
281
     1
  3
ACAD_XREC_ROUNDTRIP
360
37C
  0
DICTIONARY
  5
383
330
36
100
AcDbDictionary
280
     1
281
     1
  3
ACAD_XREC_ROUNDTRIP
360
384
  0
DICTIONARY
  5
38B
330
3A
100
AcDbDictionary
280
     1
281
     1
  3
ACAD_XREC_ROUNDTRIP
360
38C
  0
DICTIONARY
  5
37F
330
34
100
AcDbDictionary
280
     1
281
     1
  3
ACAD_XREC_ROUNDTRIP
360
380
  0
DICTIONARY
  5
381
330
35
100
AcDbDictionary
280
     1
281
     1
  3
ACAD_XREC_ROUNDTRIP
360
382
  0
DICTIONARY
  5
389
330
39
100
AcDbDictionary
280
     1
281
     1
  3
ACAD_XREC_ROUNDTRIP
360
38A
  0
DICTIONARY
  5
36D
330
2B
100
AcDbDictionary
280
     1
281
     1
  3
ACAD_XREC_ROUNDTRIP
360
36E
  0
DICTIONARY
  5
36F
330
2C
100
AcDbDictionary
280
     1
281
     1
  3
ACAD_XREC_ROUNDTRIP
360
370
  0
DICTIONARY
  5
371
330
2D
100
AcDbDictionary
280
     1
281
     1
  3
ACAD_XREC_ROUNDTRIP
360
372
  0
DICTIONARY
  5
373
330
2E
100
AcDbDictionary
280
     1
281
     1
  3
ACAD_XREC_ROUNDTRIP
360
374
  0
DICTIONARY
  5
387
330
38
100
AcDbDictionary
280
     1
281
     1
  3
ACAD_XREC_ROUNDTRIP
360
388
  0
DICTIONARY
  5
37D
330
33
100
AcDbDictionary
280
     1
281
     1
  3
ACAD_XREC_ROUNDTRIP
360
37E
  0
DICTIONARY
  5
385
330
37
100
AcDbDictionary
280
     1
281
     1
  3
ACAD_XREC_ROUNDTRIP
360
386
  0
TCOPTIONALDATA
  5
343
102
{ACAD_REACTORS
330
342
102
}
330
342
100
TcOptionalData
 70
     2
 70
     2
 10
1779.617929293327
 20
126.0647751453528
 30
0.0
  0
CELLSTYLEMAP
  5
38E
102
{ACAD_REACTORS
330
38D
102
}
330
38D
100
AcDbCellStyleMap
 90
        3
300
CELLSTYLE
  1
TABLEFORMAT_BEGIN
 90
        5
170
     1
 91
        0
 92
        0
 62
   257
 93
        1
300
CONTENTFORMAT
  1
CONTENTFORMAT_BEGIN
 90
        0
 91
        0
 92
        4
 93
        0
300

 40
0.0
140
1.0
 94
        5
 62
     0
340
11
144
0.15
309
CONTENTFORMAT_END
171
     0
 94
        6
 95
        1
302
GRIDFORMAT
  1
GRIDFORMAT_BEGIN
 90
        0
 91
        1
 62
     0
 92
       -2
340
0
 93
        0
 40
0.045
309
GRIDFORMAT_END
 95
        2
302
GRIDFORMAT
  1
GRIDFORMAT_BEGIN
 90
        0
 91
        1
 62
     0
 92
       -2
340
0
 93
        0
 40
0.045
309
GRIDFORMAT_END
 95
        4
302
GRIDFORMAT
  1
GRIDFORMAT_BEGIN
 90
        0
 91
        1
 62
     0
 92
       -2
340
0
 93
        0
 40
0.045
309
GRIDFORMAT_END
 95
        8
302
GRIDFORMAT
  1
GRIDFORMAT_BEGIN
 90
        0
 91
        1
 62
     0
 92
       -2
340
0
 93
        0
 40
0.045
309
GRIDFORMAT_END
 95
       16
302
GRIDFORMAT
  1
GRIDFORMAT_BEGIN
 90
        0
 91
        1
 62
     0
 92
       -2
340
0
 93
        0
 40
0.045
309
GRIDFORMAT_END
 95
       32
302
GRIDFORMAT
  1
GRIDFORMAT_BEGIN
 90
        0
 91
        1
 62
     0
 92
       -2
340
0
 93
        0
 40
0.045
309
GRIDFORMAT_END
309
TABLEFORMAT_END
  1
CELLSTYLE_BEGIN
 90
        1
 91
        1
300
_TITLE
309
CELLSTYLE_END
300
CELLSTYLE
  1
TABLEFORMAT_BEGIN
 90
        5
170
     1
 91
        0
 92
        0
 62
   257
 93
        1
300
CONTENTFORMAT
  1
CONTENTFORMAT_BEGIN
 90
        0
 91
        0
 92
        4
 93
        0
300

 40
0.0
140
1.0
 94
        5
 62
     0
340
11
144
0.15
309
CONTENTFORMAT_END
171
     0
 94
        6
 95
        1
302
GRIDFORMAT
  1
GRIDFORMAT_BEGIN
 90
        0
 91
        1
 62
     0
 92
       -2
340
0
 93
        0
 40
0.045
309
GRIDFORMAT_END
 95
        2
302
GRIDFORMAT
  1
GRIDFORMAT_BEGIN
 90
        0
 91
        1
 62
     0
 92
       -2
340
0
 93
        0
 40
0.045
309
GRIDFORMAT_END
 95
        4
302
GRIDFORMAT
  1
GRIDFORMAT_BEGIN
 90
        0
 91
        1
 62
     0
 92
       -2
340
0
 93
        0
 40
0.045
309
GRIDFORMAT_END
 95
        8
302
GRIDFORMAT
  1
GRIDFORMAT_BEGIN
 90
        0
 91
        1
 62
     0
 92
       -2
340
0
 93
        0
 40
0.045
309
GRIDFORMAT_END
 95
       16
302
GRIDFORMAT
  1
GRIDFORMAT_BEGIN
 90
        0
 91
        1
 62
     0
 92
       -2
340
0
 93
        0
 40
0.045
309
GRIDFORMAT_END
 95
       32
302
GRIDFORMAT
  1
GRIDFORMAT_BEGIN
 90
        0
 91
        1
 62
     0
 92
       -2
340
0
 93
        0
 40
0.045
309
GRIDFORMAT_END
309
TABLEFORMAT_END
  1
CELLSTYLE_BEGIN
 90
        2
 91
        1
300
_HEADER
309
CELLSTYLE_END
300
CELLSTYLE
  1
TABLEFORMAT_BEGIN
 90
        5
170
     1
 91
        0
 92
        0
 62
   257
 93
        1
300
CONTENTFORMAT
  1
CONTENTFORMAT_BEGIN
 90
        0
 91
        0
 92
        4
 93
        0
300

 40
0.0
140
1.0
 94
        5
 62
     0
340
11
144
0.15
309
CONTENTFORMAT_END
171
     0
 94
        6
 95
        1
302
GRIDFORMAT
  1
GRIDFORMAT_BEGIN
 90
        0
 91
        1
 62
     0
 92
       -2
340
0
 93
        0
 40
0.045
309
GRIDFORMAT_END
 95
        2
302
GRIDFORMAT
  1
GRIDFORMAT_BEGIN
 90
        0
 91
        1
 62
     0
 92
       -2
340
0
 93
        0
 40
0.045
309
GRIDFORMAT_END
 95
        4
302
GRIDFORMAT
  1
GRIDFORMAT_BEGIN
 90
        0
 91
        1
 62
     0
 92
       -2
340
0
 93
        0
 40
0.045
309
GRIDFORMAT_END
 95
        8
302
GRIDFORMAT
  1
GRIDFORMAT_BEGIN
 90
        0
 91
        1
 62
     0
 92
       -2
340
0
 93
        0
 40
0.045
309
GRIDFORMAT_END
 95
       16
302
GRIDFORMAT
  1
GRIDFORMAT_BEGIN
 90
        0
 91
        1
 62
     0
 92
       -2
340
0
 93
        0
 40
0.045
309
GRIDFORMAT_END
 95
       32
302
GRIDFORMAT
  1
GRIDFORMAT_BEGIN
 90
        0
 91
        1
 62
     0
 92
       -2
340
0
 93
        0
 40
0.045
309
GRIDFORMAT_END
309
TABLEFORMAT_END
  1
CELLSTYLE_BEGIN
 90
        3
 91
        2
300
_DATA
309
CELLSTYLE_END
  0
XRECORD
  5
376
102
{ACAD_REACTORS
330
375
102
}
330
375
100
AcDbXrecord
280
     1
102
RTVSPropertyOp0
 70
     1
102
RTVSPropertyOp1
 70
     1
102
RTVSPropertyOp2
 70
     1
102
RTVSPropertyOp3
 70
     1
102
RTVSPropertyOp4
 70
     1
102
RTVSPropertyOp5
 70
     1
102
RTVSPropertyOp6
 70
     1
102
RTVSPropertyOp7
 70
     1
102
RTVSPropertyOp8
 70
     1
102
RTVSPropertyOp9
 70
     1
102
RTVSPropertyOp10
 70
     1
102
RTVSPropertyOp11
 70
     1
102
RTVSPropertyOp12
 70
     1
102
RTVSPropertyOp13
 70
     1
102
RTVSPropertyOp14
 70
     1
102
RTVSPropertyOp15
 70
     1
102
RTVSPropertyOp16
 70
     1
102
RTVSPropertyOp17
 70
     1
102
RTVSPropertyOp18
 70
     1
102
RTVSPropertyOp19
 70
     1
102
RTVSPropertyOp20
 70
     1
102
RTVSPropertyOp21
 70
     1
102
RTVSPropertyOp22
 70
     1
102
RTVSPropertyOp23
 70
     1
102
RTVSPropertyOp24
 70
     1
102
RTVSPropertyOp25
 70
     1
102
RTVSPropertyOp26
 70
     1
102
RTVSPropertyOp27
 70
     1
  0
XRECORD
  5
37A
102
{ACAD_REACTORS
330
379
102
}
330
379
100
AcDbXrecord
280
     1
102
RTVSPropertyOp0
 70
     1
102
RTVSPropertyOp1
 70
     1
102
RTVSPropertyOp2
 70
     1
102
RTVSPropertyOp3
 70
     1
102
RTVSPropertyOp4
 70
     1
102
RTVSPropertyOp5
 70
     1
102
RTVSPropertyOp6
 70
     1
102
RTVSPropertyOp7
 70
     1
102
RTVSPropertyOp8
 70
     1
102
RTVSPropertyOp9
 70
     1
102
RTVSPropertyOp10
 70
     1
102
RTVSPropertyOp11
 70
     1
102
RTVSPropertyOp12
 70
     1
102
RTVSPropertyOp13
 70
     1
102
RTVSPropertyOp14
 70
     1
102
RTVSPropertyOp15
 70
     1
102
RTVSPropertyOp16
 70
     1
102
RTVSPropertyOp17
 70
     1
102
RTVSPropertyOp18
 70
     1
102
RTVSPropertyOp19
 70
     1
102
RTVSPropertyOp20
 70
     1
102
RTVSPropertyOp21
 70
     1
102
RTVSPropertyOp22
 70
     1
102
RTVSPropertyOp23
 70
     1
102
RTVSPropertyOp24
 70
     1
102
RTVSPropertyOp25
 70
     1
102
RTVSPropertyOp26
 70
     1
102
RTVSPropertyOp27
 70
     1
  0
XRECORD
  5
378
102
{ACAD_REACTORS
330
377
102
}
330
377
100
AcDbXrecord
280
     1
102
RTVSPropertyOp0
 70
     1
102
RTVSPropertyOp1
 70
     1
102
RTVSPropertyOp2
 70
     1
102
RTVSPropertyOp3
 70
     1
102
RTVSPropertyOp4
 70
     1
102
RTVSPropertyOp5
 70
     1
102
RTVSPropertyOp6
 70
     1
102
RTVSPropertyOp7
 70
     1
102
RTVSPropertyOp8
 70
     1
102
RTVSPropertyOp9
 70
     1
102
RTVSPropertyOp10
 70
     1
102
RTVSPropertyOp11
 70
     1
102
RTVSPropertyOp12
 70
     1
102
RTVSPropertyOp13
 70
     1
102
RTVSPropertyOp14
 70
     1
102
RTVSPropertyOp15
 70
     1
102
RTVSPropertyOp16
 70
     1
102
RTVSPropertyOp17
 70
     1
102
RTVSPropertyOp18
 70
     1
102
RTVSPropertyOp19
 70
     1
102
RTVSPropertyOp20
 70
     1
102
RTVSPropertyOp21
 70
     1
102
RTVSPropertyOp22
 70
     1
102
RTVSPropertyOp23
 70
     1
102
RTVSPropertyOp24
 70
     1
102
RTVSPropertyOp25
 70
     1
102
RTVSPropertyOp26
 70
     1
102
RTVSPropertyOp27
 70
     1
  0
XRECORD
  5
37C
102
{ACAD_REACTORS
330
37B
102
}
330
37B
100
AcDbXrecord
280
     1
102
RTVSPropertyOp0
 70
     1
102
RTVSPropertyOp1
 70
     1
102
RTVSPropertyOp2
 70
     1
102
RTVSPropertyOp3
 70
     1
102
RTVSPropertyOp4
 70
     1
102
RTVSPropertyOp5
 70
     1
102
RTVSPropertyOp6
 70
     1
102
RTVSPropertyOp7
 70
     1
102
RTVSPropertyOp8
 70
     1
102
RTVSPropertyOp9
 70
     1
102
RTVSPropertyOp10
 70
     1
102
RTVSPropertyOp11
 70
     1
102
RTVSPropertyOp12
 70
     1
102
RTVSPropertyOp13
 70
     1
102
RTVSPropertyOp14
 70
     1
102
RTVSPropertyOp15
 70
     1
102
RTVSPropertyOp16
 70
     1
102
RTVSPropertyOp17
 70
     1
102
RTVSPropertyOp18
 70
     1
102
RTVSPropertyOp19
 70
     1
102
RTVSPropertyOp20
 70
     1
102
RTVSPropertyOp21
 70
     1
102
RTVSPropertyOp22
 70
     1
102
RTVSPropertyOp23
 70
     1
102
RTVSPropertyOp24
 70
     1
102
RTVSPropertyOp25
 70
     1
102
RTVSPropertyOp26
 70
     1
102
RTVSPropertyOp27
 70
     1
  0
XRECORD
  5
384
102
{ACAD_REACTORS
330
383
102
}
330
383
100
AcDbXrecord
280
     1
102
RTVSPropertyOp0
 70
     1
102
RTVSPropertyOp1
 70
     1
102
RTVSPropertyOp2
 70
     1
102
RTVSPropertyOp3
 70
     1
102
RTVSPropertyOp4
 70
     1
102
RTVSPropertyOp5
 70
     1
102
RTVSPropertyOp6
 70
     1
102
RTVSPropertyOp7
 70
     1
102
RTVSPropertyOp8
 70
     1
102
RTVSPropertyOp9
 70
     1
102
RTVSPropertyOp10
 70
     1
102
RTVSPropertyOp11
 70
     1
102
RTVSPropertyOp12
 70
     1
102
RTVSPropertyOp13
 70
     1
102
RTVSPropertyOp14
 70
     1
102
RTVSPropertyOp15
 70
     1
102
RTVSPropertyOp16
 70
     1
102
RTVSPropertyOp17
 70
     1
102
RTVSPropertyOp18
 70
     1
102
RTVSPropertyOp19
 70
     1
102
RTVSPropertyOp20
 70
     1
102
RTVSPropertyOp21
 70
     1
102
RTVSPropertyOp22
 70
     1
102
RTVSPropertyOp23
 70
     1
102
RTVSPropertyOp24
 70
     1
102
RTVSPropertyOp25
 70
     1
102
RTVSPropertyOp26
 70
     1
102
RTVSPropertyOp27
 70
     1
  0
XRECORD
  5
38C
102
{ACAD_REACTORS
330
38B
102
}
330
38B
100
AcDbXrecord
280
     1
102
RTVSPropertyOp0
 70
     1
102
RTVSPropertyOp1
 70
     1
102
RTVSPropertyOp2
 70
     1
102
RTVSPropertyOp3
 70
     1
102
RTVSPropertyOp4
 70
     1
102
RTVSPropertyOp5
 70
     1
102
RTVSPropertyOp6
 70
     1
102
RTVSPropertyOp7
 70
     1
102
RTVSPropertyOp8
 70
     1
102
RTVSPropertyOp9
 70
     1
102
RTVSPropertyOp10
 70
     1
102
RTVSPropertyOp11
 70
     1
102
RTVSPropertyOp12
 70
     1
102
RTVSPropertyOp13
 70
     1
102
RTVSPropertyOp14
 70
     1
102
RTVSPropertyOp15
 70
     1
102
RTVSPropertyOp16
 70
     1
102
RTVSPropertyOp17
 70
     1
102
RTVSPropertyOp18
 70
     1
102
RTVSPropertyOp19
 70
     1
102
RTVSPropertyOp20
 70
     1
102
RTVSPropertyOp21
 70
     1
102
RTVSPropertyOp22
 70
     1
102
RTVSPropertyOp23
 70
     1
102
RTVSPropertyOp24
 70
     1
102
RTVSPropertyOp25
 70
     1
102
RTVSPropertyOp26
 70
     1
102
RTVSPropertyOp27
 70
     1
  0
XRECORD
  5
380
102
{ACAD_REACTORS
330
37F
102
}
330
37F
100
AcDbXrecord
280
     1
102
RTVSPropertyOp0
 70
     1
102
RTVSPropertyOp1
 70
     1
102
RTVSPropertyOp2
 70
     1
102
RTVSPropertyOp3
 70
     1
102
RTVSPropertyOp4
 70
     1
102
RTVSPropertyOp5
 70
     1
102
RTVSPropertyOp6
 70
     1
102
RTVSPropertyOp7
 70
     1
102
RTVSPropertyOp8
 70
     1
102
RTVSPropertyOp9
 70
     1
102
RTVSPropertyOp10
 70
     1
102
RTVSPropertyOp11
 70
     1
102
RTVSPropertyOp12
 70
     1
102
RTVSPropertyOp13
 70
     1
102
RTVSPropertyOp14
 70
     1
102
RTVSPropertyOp15
 70
     1
102
RTVSPropertyOp16
 70
     1
102
RTVSPropertyOp17
 70
     1
102
RTVSPropertyOp18
 70
     1
102
RTVSPropertyOp19
 70
     1
102
RTVSPropertyOp20
 70
     1
102
RTVSPropertyOp21
 70
     1
102
RTVSPropertyOp22
 70
     1
102
RTVSPropertyOp23
 70
     1
102
RTVSPropertyOp24
 70
     1
102
RTVSPropertyOp25
 70
     1
102
RTVSPropertyOp26
 70
     1
102
RTVSPropertyOp27
 70
     1
  0
XRECORD
  5
382
102
{ACAD_REACTORS
330
381
102
}
330
381
100
AcDbXrecord
280
     1
102
RTVSPropertyOp0
 70
     1
102
RTVSPropertyOp1
 70
     1
102
RTVSPropertyOp2
 70
     1
102
RTVSPropertyOp3
 70
     1
102
RTVSPropertyOp4
 70
     1
102
RTVSPropertyOp5
 70
     1
102
RTVSPropertyOp6
 70
     1
102
RTVSPropertyOp7
 70
     1
102
RTVSPropertyOp8
 70
     1
102
RTVSPropertyOp9
 70
     1
102
RTVSPropertyOp10
 70
     1
102
RTVSPropertyOp11
 70
     1
102
RTVSPropertyOp12
 70
     1
102
RTVSPropertyOp13
 70
     1
102
RTVSPropertyOp14
 70
     1
102
RTVSPropertyOp15
 70
     1
102
RTVSPropertyOp16
 70
     1
102
RTVSPropertyOp17
 70
     1
102
RTVSPropertyOp18
 70
     1
102
RTVSPropertyOp19
 70
     1
102
RTVSPropertyOp20
 70
     1
102
RTVSPropertyOp21
 70
     1
102
RTVSPropertyOp22
 70
     1
102
RTVSPropertyOp23
 70
     1
102
RTVSPropertyOp24
 70
     1
102
RTVSPropertyOp25
 70
     1
102
RTVSPropertyOp26
 70
     1
102
RTVSPropertyOp27
 70
     1
  0
XRECORD
  5
38A
102
{ACAD_REACTORS
330
389
102
}
330
389
100
AcDbXrecord
280
     1
102
RTVSPropertyOp0
 70
     1
102
RTVSPropertyOp1
 70
     1
102
RTVSPropertyOp2
 70
     1
102
RTVSPropertyOp3
 70
     1
102
RTVSPropertyOp4
 70
     1
102
RTVSPropertyOp5
 70
     1
102
RTVSPropertyOp6
 70
     1
102
RTVSPropertyOp7
 70
     1
102
RTVSPropertyOp8
 70
     1
102
RTVSPropertyOp9
 70
     1
102
RTVSPropertyOp10
 70
     1
102
RTVSPropertyOp11
 70
     1
102
RTVSPropertyOp12
 70
     1
102
RTVSPropertyOp13
 70
     1
102
RTVSPropertyOp14
 70
     1
102
RTVSPropertyOp15
 70
     1
102
RTVSPropertyOp16
 70
     1
102
RTVSPropertyOp17
 70
     1
102
RTVSPropertyOp18
 70
     1
102
RTVSPropertyOp19
 70
     1
102
RTVSPropertyOp20
 70
     1
102
RTVSPropertyOp21
 70
     1
102
RTVSPropertyOp22
 70
     1
102
RTVSPropertyOp23
 70
     1
102
RTVSPropertyOp24
 70
     1
102
RTVSPropertyOp25
 70
     1
102
RTVSPropertyOp26
 70
     1
102
RTVSPropertyOp27
 70
     1
  0
XRECORD
  5
36E
102
{ACAD_REACTORS
330
36D
102
}
330
36D
100
AcDbXrecord
280
     1
102
RTVSPropertyOp0
 70
     1
102
RTVSPropertyOp1
 70
     1
102
RTVSPropertyOp2
 70
     1
102
RTVSPropertyOp3
 70
     1
102
RTVSPropertyOp4
 70
     1
102
RTVSPropertyOp5
 70
     1
102
RTVSPropertyOp6
 70
     1
102
RTVSPropertyOp7
 70
     1
102
RTVSPropertyOp8
 70
     1
102
RTVSPropertyOp9
 70
     1
102
RTVSPropertyOp10
 70
     1
102
RTVSPropertyOp11
 70
     1
102
RTVSPropertyOp12
 70
     1
102
RTVSPropertyOp13
 70
     1
102
RTVSPropertyOp14
 70
     1
102
RTVSPropertyOp15
 70
     1
102
RTVSPropertyOp16
 70
     1
102
RTVSPropertyOp17
 70
     1
102
RTVSPropertyOp18
 70
     1
102
RTVSPropertyOp19
 70
     1
102
RTVSPropertyOp20
 70
     1
102
RTVSPropertyOp21
 70
     1
102
RTVSPropertyOp22
 70
     1
102
RTVSPropertyOp23
 70
     1
102
RTVSPropertyOp24
 70
     1
102
RTVSPropertyOp25
 70
     1
102
RTVSPropertyOp26
 70
     1
102
RTVSPropertyOp27
 70
     1
  0
XRECORD
  5
370
102
{ACAD_REACTORS
330
36F
102
}
330
36F
100
AcDbXrecord
280
     1
102
RTVSPropertyOp0
 70
     1
102
RTVSPropertyOp1
 70
     1
102
RTVSPropertyOp2
 70
     1
102
RTVSPropertyOp3
 70
     1
102
RTVSPropertyOp4
 70
     1
102
RTVSPropertyOp5
 70
     1
102
RTVSPropertyOp6
 70
     1
102
RTVSPropertyOp7
 70
     1
102
RTVSPropertyOp8
 70
     1
102
RTVSPropertyOp9
 70
     1
102
RTVSPropertyOp10
 70
     1
102
RTVSPropertyOp11
 70
     1
102
RTVSPropertyOp12
 70
     1
102
RTVSPropertyOp13
 70
     1
102
RTVSPropertyOp14
 70
     1
102
RTVSPropertyOp15
 70
     1
102
RTVSPropertyOp16
 70
     1
102
RTVSPropertyOp17
 70
     1
102
RTVSPropertyOp18
 70
     1
102
RTVSPropertyOp19
 70
     1
102
RTVSPropertyOp20
 70
     1
102
RTVSPropertyOp21
 70
     1
102
RTVSPropertyOp22
 70
     1
102
RTVSPropertyOp23
 70
     1
102
RTVSPropertyOp24
 70
     1
102
RTVSPropertyOp25
 70
     1
102
RTVSPropertyOp26
 70
     1
102
RTVSPropertyOp27
 70
     1
  0
XRECORD
  5
372
102
{ACAD_REACTORS
330
371
102
}
330
371
100
AcDbXrecord
280
     1
102
RTVSPropertyOp0
 70
     1
102
RTVSPropertyOp1
 70
     1
102
RTVSPropertyOp2
 70
     1
102
RTVSPropertyOp3
 70
     1
102
RTVSPropertyOp4
 70
     1
102
RTVSPropertyOp5
 70
     1
102
RTVSPropertyOp6
 70
     1
102
RTVSPropertyOp7
 70
     1
102
RTVSPropertyOp8
 70
     1
102
RTVSPropertyOp9
 70
     1
102
RTVSPropertyOp10
 70
     1
102
RTVSPropertyOp11
 70
     1
102
RTVSPropertyOp12
 70
     1
102
RTVSPropertyOp13
 70
     1
102
RTVSPropertyOp14
 70
     1
102
RTVSPropertyOp15
 70
     1
102
RTVSPropertyOp16
 70
     1
102
RTVSPropertyOp17
 70
     1
102
RTVSPropertyOp18
 70
     1
102
RTVSPropertyOp19
 70
     1
102
RTVSPropertyOp20
 70
     1
102
RTVSPropertyOp21
 70
     1
102
RTVSPropertyOp22
 70
     1
102
RTVSPropertyOp23
 70
     1
102
RTVSPropertyOp24
 70
     1
102
RTVSPropertyOp25
 70
     1
102
RTVSPropertyOp26
 70
     1
102
RTVSPropertyOp27
 70
     1
  0
XRECORD
  5
374
102
{ACAD_REACTORS
330
373
102
}
330
373
100
AcDbXrecord
280
     1
102
RTVSPropertyOp0
 70
     1
102
RTVSPropertyOp1
 70
     1
102
RTVSPropertyOp2
 70
     1
102
RTVSPropertyOp3
 70
     1
102
RTVSPropertyOp4
 70
     1
102
RTVSPropertyOp5
 70
     1
102
RTVSPropertyOp6
 70
     1
102
RTVSPropertyOp7
 70
     1
102
RTVSPropertyOp8
 70
     1
102
RTVSPropertyOp9
 70
     1
102
RTVSPropertyOp10
 70
     1
102
RTVSPropertyOp11
 70
     1
102
RTVSPropertyOp12
 70
     1
102
RTVSPropertyOp13
 70
     1
102
RTVSPropertyOp14
 70
     1
102
RTVSPropertyOp15
 70
     1
102
RTVSPropertyOp16
 70
     1
102
RTVSPropertyOp17
 70
     1
102
RTVSPropertyOp18
 70
     1
102
RTVSPropertyOp19
 70
     1
102
RTVSPropertyOp20
 70
     1
102
RTVSPropertyOp21
 70
     1
102
RTVSPropertyOp22
 70
     1
102
RTVSPropertyOp23
 70
     1
102
RTVSPropertyOp24
 70
     1
102
RTVSPropertyOp25
 70
     1
102
RTVSPropertyOp26
 70
     1
102
RTVSPropertyOp27
 70
     1
  0
XRECORD
  5
388
102
{ACAD_REACTORS
330
387
102
}
330
387
100
AcDbXrecord
280
     1
102
RTVSPropertyOp0
 70
     1
102
RTVSPropertyOp1
 70
     1
102
RTVSPropertyOp2
 70
     1
102
RTVSPropertyOp3
 70
     1
102
RTVSPropertyOp4
 70
     1
102
RTVSPropertyOp5
 70
     1
102
RTVSPropertyOp6
 70
     1
102
RTVSPropertyOp7
 70
     1
102
RTVSPropertyOp8
 70
     1
102
RTVSPropertyOp9
 70
     1
102
RTVSPropertyOp10
 70
     1
102
RTVSPropertyOp11
 70
     1
102
RTVSPropertyOp12
 70
     1
102
RTVSPropertyOp13
 70
     1
102
RTVSPropertyOp14
 70
     1
102
RTVSPropertyOp15
 70
     1
102
RTVSPropertyOp16
 70
     1
102
RTVSPropertyOp17
 70
     1
102
RTVSPropertyOp18
 70
     1
102
RTVSPropertyOp19
 70
     1
102
RTVSPropertyOp20
 70
     1
102
RTVSPropertyOp21
 70
     1
102
RTVSPropertyOp22
 70
     1
102
RTVSPropertyOp23
 70
     1
102
RTVSPropertyOp24
 70
     1
102
RTVSPropertyOp25
 70
     1
102
RTVSPropertyOp26
 70
     1
102
RTVSPropertyOp27
 70
     1
  0
XRECORD
  5
37E
102
{ACAD_REACTORS
330
37D
102
}
330
37D
100
AcDbXrecord
280
     1
102
RTVSPropertyOp0
 70
     1
102
RTVSPropertyOp1
 70
     1
102
RTVSPropertyOp2
 70
     1
102
RTVSPropertyOp3
 70
     1
102
RTVSPropertyOp4
 70
     1
102
RTVSPropertyOp5
 70
     1
102
RTVSPropertyOp6
 70
     1
102
RTVSPropertyOp7
 70
     1
102
RTVSPropertyOp8
 70
     1
102
RTVSPropertyOp9
 70
     1
102
RTVSPropertyOp10
 70
     1
102
RTVSPropertyOp11
 70
     1
102
RTVSPropertyOp12
 70
     1
102
RTVSPropertyOp13
 70
     1
102
RTVSPropertyOp14
 70
     1
102
RTVSPropertyOp15
 70
     1
102
RTVSPropertyOp16
 70
     1
102
RTVSPropertyOp17
 70
     1
102
RTVSPropertyOp18
 70
     1
102
RTVSPropertyOp19
 70
     1
102
RTVSPropertyOp20
 70
     1
102
RTVSPropertyOp21
 70
     1
102
RTVSPropertyOp22
 70
     1
102
RTVSPropertyOp23
 70
     1
102
RTVSPropertyOp24
 70
     1
102
RTVSPropertyOp25
 70
     1
102
RTVSPropertyOp26
 70
     1
102
RTVSPropertyOp27
 70
     1
  0
XRECORD
  5
386
102
{ACAD_REACTORS
330
385
102
}
330
385
100
AcDbXrecord
280
     1
102
RTVSPropertyOp0
 70
     1
102
RTVSPropertyOp1
 70
     1
102
RTVSPropertyOp2
 70
     1
102
RTVSPropertyOp3
 70
     1
102
RTVSPropertyOp4
 70
     1
102
RTVSPropertyOp5
 70
     1
102
RTVSPropertyOp6
 70
     1
102
RTVSPropertyOp7
 70
     1
102
RTVSPropertyOp8
 70
     1
102
RTVSPropertyOp9
 70
     1
102
RTVSPropertyOp10
 70
     1
102
RTVSPropertyOp11
 70
     1
102
RTVSPropertyOp12
 70
     1
102
RTVSPropertyOp13
 70
     1
102
RTVSPropertyOp14
 70
     1
102
RTVSPropertyOp15
 70
     1
102
RTVSPropertyOp16
 70
     1
102
RTVSPropertyOp17
 70
     1
102
RTVSPropertyOp18
 70
     1
102
RTVSPropertyOp19
 70
     1
102
RTVSPropertyOp20
 70
     1
102
RTVSPropertyOp21
 70
     1
102
RTVSPropertyOp22
 70
     1
102
RTVSPropertyOp23
 70
     1
102
RTVSPropertyOp24
 70
     1
102
RTVSPropertyOp25
 70
     1
102
RTVSPropertyOp26
 70
     1
102
RTVSPropertyOp27
 70
     1
  0
ENDSEC
  0
EOF
